#TITLE:아름다운21c;
#SUBTITLE:;
#ARTIST:2000 대한민국;
#TITLETRANSLIT:AROMDAON 21C;
#SUBTITLETRANSLIT:;
#ARTISTTRANSLIT:2000 korea;
#GENRE:;
#CREDIT:;
#BANNER:AROMDAON 21C.png;
#BACKGROUND:AROMDAON 21C-bg.png;
#LYRICSPATH:;
#CDTITLE:;
#MUSIC:AROMDAON 21C.mp3;
#OFFSET:1.402000;
#SAMPLESTART:54.124001;
#SAMPLELENGTH:15.000000;
#LASTBEATHINT:0.723600;
#SELECTABLE:YES;
#DISPLAYBPM:108.000000;
#BPMS:0.000000=108.000000
,18.000000=107.000000
,20.000000=108.000000
,74.000000=107.500000
,76.000000=108.000000
,98.000000=107.000000
,100.000000=108.000000
,130.000000=107.500000
,132.000000=108.000000
;
#STOPS:
;
#BGCHANGES:;
#KEYSOUNDS:;
#ATTACKS:;

//---------------dance-single - ----------------
#NOTES:
     dance-single:
     :
     Easy:
     5:
     0.274764,0.315549,0.530924,0.020035,0.000000,192.000000,139.000000,53.000000,2.000000,0.000000,0.000000,0.274764,0.315549,0.530924,0.020035,0.000000,192.000000,139.000000,53.000000,2.000000,0.000000,0.000000:
0000
0000
0000
0000
,
0000
0000
0000
0000
,
0000
0000
0000
0000
,
0001
0001
1001
0000
,
0010
0010
1001
0000
,
1001
0000
1001
0000
,
1001
0000
0101
0101
,
1001
0100
0100
1001
,
0010
0010
1001
0100
,
0010
1000
0100
1001
,
0100
0100
0001
1001
,
1000
0001
0101
0000
,
0001
1000
1100
0000
,
1000
0001
1000
0100
,
0001
1000
0001
0100
,
1001
0010
0100
0000
,
1001
0010
0100
0000
,
0001
0001
1000
1000
,
0001
0100
1000
0100
,
0010
0100
1001
0000
,
1001
0100
0010
0000
,
0001
1000
0101
0000
,
0010
1000
0100
0000
,
1001
0000
1001
0000
,
1001
0000
0101
0101
,
1001
0100
0100
1001
,
0010
0010
1001
0100
,
0010
1000
0100
1001
,
0100
0100
0001
1001
,
1000
0001
0101
0000
,
0001
1000
1100
0000
,
1001
0100
0001
0001
,
1000
0100
1001
0000
,
0100
1001
0010
0000
,
1001
0100
1001
0000
,
0010
0010
0100
0100
,
1001
0001
0101
0000
,
1001
1000
1100
0100
,
1001
0010
0110
0001
,
1000
0100
1001
0101
,
1001
0000
1001
0000
,
1001
1000
0100
0000
,
0110
0000
1001
0000
,
1001
0001
0100
0000
,
1001
1001
2002
0000
,
3003
0000
0000
0000
;

//---------------dance-single - ----------------
#NOTES:
     dance-single:
     :
     Medium:
     7:
     0.376369,0.360628,0.731272,0.020035,0.000000,263.000000,190.000000,73.000000,2.000000,0.000000,0.000000,0.376369,0.360628,0.731272,0.020035,0.000000,263.000000,190.000000,73.000000,2.000000,0.000000,0.000000:
0000
0000
0000
0000
,
0000
0000
0000
0000
,
0000
0000
0000
0000
,
1001
1001
1001
0100
,
0010
0100
0000
1001
1001
0000
0000
0000
,
0100
1001
0100
1001
,
0100
1001
0100
1001
,
1001
1001
1001
0100
,
0010
0100
0000
1001
1001
0000
0000
0000
,
1001
1001
1001
0100
,
0010
0100
0000
1001
1001
0000
0000
0000
,
1001
0000
0100
0010
0100
0010
0000
0000
,
1001
0000
0010
0100
0010
0100
0000
0000
,
1001
0000
0100
0010
0100
0010
0000
0000
,
1001
0000
0010
0100
0010
0100
0000
0000
,
0010
0100
0001
1000
0000
1001
0000
0000
,
0100
0010
0001
1000
0000
1001
0000
0000
,
0010
0100
0001
1000
0000
1001
0000
0000
,
0100
0010
0001
1000
0000
1001
0000
0000
,
1001
0000
0100
0010
0100
0010
0000
0000
,
0100
0010
0001
1000
0000
1001
0000
0000
,
1001
0000
0010
0100
0010
0100
0000
0000
,
0010
0100
0001
1000
0000
1001
0000
0000
,
1001
0100
1001
0010
,
1001
0100
1001
0010
,
1001
1001
1001
0100
,
0010
0100
0000
1001
1001
0000
0000
0000
,
1001
1001
1001
0100
,
0010
0100
0000
1001
1001
0000
0000
0000
,
1001
0000
0100
0010
0001
1000
0000
0000
,
0010
0100
0001
1000
0000
1001
0000
0000
,
0110
0000
1000
0001
0100
0010
0000
0000
,
1000
0001
0010
0100
0000
0110
0000
0000
,
1001
0000
0100
0010
1000
0001
0000
0000
,
0010
0100
1000
0001
0000
0110
0000
0000
,
1001
0000
0100
0010
0001
1000
0000
0000
,
0010
0100
0001
1000
0000
0110
0000
0000
,
1001
1001
1001
0100
,
0010
0100
0000
1001
1001
0000
0000
0000
,
1001
1001
1001
0100
,
0010
0100
0000
1001
1001
0000
0000
0000
,
1001
0110
1001
0100
,
0010
0100
0000
1001
1001
0000
0000
0000
,
1001
0110
1001
0100
,
0010
0100
0010
0100
0000
1001
2002
0000
,
3003
0000
0000
0000
;

//---------------dance-single - ----------------
#NOTES:
     dance-single:
     :
     Hard:
     11:
     0.403559,0.450784,0.841464,0.010017,0.220383,282.000000,198.000000,84.000000,1.000000,0.000000,0.000000,0.403559,0.450784,0.841464,0.010017,0.220383,282.000000,198.000000,84.000000,1.000000,0.000000,0.000000:
0000
0000
0000
0000
,
0000
0000
0000
0000
,
0000
0000
0000
0000
,
0010
0100
0000
1001
0000
1001
0000
1001
,
0100
0010
0001
0101
0101
0000
0000
0000
,
1000
0100
0010
0001
0100
0010
1000
0000
,
0100
0010
0001
1000
0000
1001
1001
0000
,
0010
0000
1001
0000
0000
0000
1001
1001
,
0100
0000
1001
0000
0000
0000
1001
1001
,
0010
0000
1001
0000
0000
0000
1001
1001
,
0100
0000
1001
0000
0000
0000
1001
1001
,
0010
0000
0000
0100
0000
0010
0000
0100
0000
0010
0000
0000
0000
0000
0000
0000
,
0010
0000
0000
0001
0000
0100
0000
0000
0000
0000
0000
0000
0000
0000
0000
0000
,
0010
0000
0000
0100
0000
0010
0000
0100
0000
0010
0000
0000
0000
0000
0000
0000
,
0010
0000
0000
1000
0000
0100
0000
0000
0000
0000
0000
0000
0000
0000
0000
0000
,
0010
0100
0000
0010
0000
0001
0000
0010
0000
0001
0000
0000
0000
0000
0000
0000
,
0100
0010
0000
1000
0000
0010
0000
0000
0000
0000
0000
0000
0000
0000
0000
0000
,
0010
0100
0000
0010
0000
1000
0000
0010
0000
1000
0000
0000
0000
0000
0000
0000
,
0100
0010
0000
0001
0000
0010
0000
0000
0000
0000
0000
0000
0000
0000
0000
0000
,
0010
0100
0000
1000
0000
0001
0000
0110
0000
0110
0000
0000
0000
0000
0000
0000
,
0001
1000
0000
0001
0000
0100
0000
0000
0000
0000
0000
0000
0000
0000
0000
0000
,
0010
0100
0000
0001
0000
1000
0000
0110
0000
0110
0000
0000
0000
0000
0000
0000
,
0001
1000
0000
0100
0000
0010
0000
0000
0000
0000
0000
0000
0000
0000
0000
0000
,
0010
0001
0100
0010
1000
0100
0010
0000
,
0001
1000
0100
0010
0000
1001
1001
0000
,
0010
0000
1001
0000
0000
0000
0110
1001
,
0100
0000
1001
0000
0000
0000
0110
1001
,
0010
0000
1001
0000
0000
0000
0110
1001
,
0100
0000
1001
0000
0000
0000
1001
1001
,
0100
0000
0010
0000
1001
1001
0000
0110
,
1001
0110
0000
0000
0000
0000
0000
1000
,
0100
0010
0000
1001
0000
1001
0000
1001
,
0100
0010
1000
1100
1100
0000
0000
0000
,
0011
0000
0011
0000
0101
0101
0000
1001
,
1100
1001
0000
0000
0000
0000
0000
0100
,
0010
1000
0000
0101
0000
0101
0000
0101
,
0010
1000
0100
0110
0110
0000
0000
0000
,
1001
0000
0110
0000
1100
0101
0000
1001
,
0110
1001
0000
0000
0000
0000
0000
0100
,
0010
0001
0000
1100
0000
0101
0000
1100
,
0010
0001
0100
0110
1001
0000
0000
0000
,
0110
0000
1001
0000
0110
1001
0000
1100
,
0101
1100
0000
0000
0000
0000
0000
0010
,
0100
0001
0000
1010
0000
0101
0000
1010
,
0100
0010
0001
0101
2100
0000
3100
0000
,
1100
0000
0000
0000
;

//---------------dance-double - ----------------
#NOTES:
     dance-double:
     :
     Easy:
     5:
     0.286212,0.315549,0.811412,0.020035,0.000000,200.000000,119.000000,81.000000,2.000000,0.000000,0.000000,0.286212,0.315549,0.811412,0.020035,0.000000,200.000000,119.000000,81.000000,2.000000,0.000000,0.000000:
00000000
00000000
00000000
00000000
,
00000000
00000000
00000000
00000000
,
00000000
00000000
00000000
00000000
,
10010000
00000000
01000000
00100000
,
00011000
00011000
00000100
00000010
,
00001001
00000000
00011000
00000000
,
00011000
00000000
10010000
00000000
,
10010000
10010000
00100000
01000000
,
01010000
01010000
00011000
00000000
,
00011000
00011000
00000100
00001000
,
00001001
00001001
00000101
00000000
,
00000011
00000000
00001010
00000000
,
00001100
00000000
00011000
00000000
,
01010000
00000000
00110000
00000000
,
10100000
00000000
11000000
00000000
,
10100000
00000000
11000000
00000000
,
00110000
00000000
11000000
00000000
,
10010000
00000000
00011000
00000000
,
00001001
00000000
00000110
00000000
,
00001000
00000100
00011000
00000000
,
00100000
00010000
10010000
00000000
,
00010000
01000000
00011000
00000000
,
00000010
00001000
00001001
00000000
,
00001100
00000000
00011000
00000000
,
00110000
00000000
10010000
00000000
,
01000000
00100000
01010000
00000000
,
00011000
00011000
00001010
00000000
,
00001100
00001010
00001100
00000000
,
00011000
00110000
01100000
00000000
,
00010000
00100000
00001000
00011000
,
00000000
00000000
00011000
00011000
,
00000100
00001000
00000010
00001001
,
00000000
00000000
00001100
00001100
,
00010000
00001000
00100000
01100000
,
00000000
00000000
01100000
01100000
,
00010000
01000000
00001000
00011000
,
00000000
00000000
00011000
00011000
,
00001001
00000000
00000110
00001001
,
00000100
00010000
00011000
00011000
,
00110000
00000000
10010000
11000000
,
00010000
00100000
00011000
00000000
,
00001001
00000000
00000110
00001001
,
00000100
00010000
00011000
00011000
,
01010000
00000000
10100000
01010000
,
00100000
00001000
00022000
00000000
,
00033000
00000000
00000000
00000000
;

//---------------dance-double - ----------------
#NOTES:
     dance-double:
     :
     Medium:
     8:
     0.377800,0.360628,1.081882,0.020035,0.000000,264.000000,156.000000,108.000000,2.000000,0.000000,0.000000,0.377800,0.360628,1.081882,0.020035,0.000000,264.000000,156.000000,108.000000,2.000000,0.000000,0.000000:
00000000
00000000
00000000
00000000
,
00000000
00000000
00000000
00000000
,
00000000
00000000
00000000
00000000
,
11000000
00110000
00011000
00000000
,
00000010
00001000
00000001
00000010
00000000
00000000
00001100
00000000
,
00011000
00100000
00011000
01000000
,
00011000
00000010
00011000
00000100
,
00011000
00110000
11000000
00000000
,
00010000
01000000
00100000
10000000
00000000
00000000
01010000
00000000
,
00011000
00001100
00000011
00000000
,
00001000
00000100
00000010
00000001
00000000
00000000
00001100
00000000
,
00011000
00000000
00000000
00101000
00000000
00101000
00000000
00000000
,
00011000
00000000
00000000
00010010
00000000
00010010
00000000
00000000
,
00011000
00000000
00000000
01001000
00000000
01001000
00000000
00000000
,
00011000
00000000
00000000
00010100
00000000
00010100
00000000
00000000
,
00011000
00000000
00000000
00110000
00000000
00101000
00000000
00000000
,
00011000
00000000
00000000
00001010
00000000
00010010
00000000
00000000
,
00011000
00000000
00000000
01010000
00000000
01001000
00000000
00000000
,
00011000
00000000
00000000
00001100
00000000
00010100
00000000
00000000
,
00011000
00000000
00000000
00101000
00000000
00011000
00000100
00000000
,
00011000
00000000
00000000
00010100
00000000
00011000
00100000
00000000
,
00011000
00000000
00000000
01001000
00000000
00011000
00000010
00000000
,
00011000
00000000
00000000
00010010
00000000
00011000
01000000
00000000
,
00011000
00000010
00011000
01000000
,
00011000
00000100
00011000
00100000
,
00110000
11000000
01010000
00000000
,
00001000
00010000
00000010
00001000
00000000
00000000
00000101
00000000
,
00001100
00011000
00110000
00000000
,
10000000
01000000
00100000
00010000
00000000
00000000
11000000
00000000
,
00110000
00011000
00001100
00000000
,
00000011
00001001
00000011
00001001
,
00001100
00011000
00110000
00000000
,
10010000
11000000
10010000
11000000
,
00110000
00011000
00001010
00000000
,
00000101
00001001
00000101
00001001
,
00001010
00011000
00110000
00000000
,
11000000
10010000
11000000
10010000
,
01010000
00011000
00001100
00000000
,
00000010
00000001
00000100
00000010
00000000
00000000
00001001
00000000
,
00001100
00011000
01010000
00000000
,
00100000
10000000
01000000
00100000
00000000
00000000
10010000
00000000
,
00011000
00110000
00001010
00000000
,
00000100
00000001
00000010
00000100
00000000
00000000
00001001
00000000
,
00011000
00001100
01010000
00000000
,
00100000
10000000
01000000
00100000
00000000
00000000
20020000
00000000
,
30030000
00000000
00000000
00000000
;

//---------------dance-double - ----------------
#NOTES:
     dance-double:
     :
     Hard:
     11:
     0.413577,0.428245,0.871516,0.020035,0.000000,289.000000,202.000000,87.000000,2.000000,0.000000,0.000000,0.413577,0.428245,0.871516,0.020035,0.000000,289.000000,202.000000,87.000000,2.000000,0.000000,0.000000:
00000000
00000000
00000000
00000000
,
00000000
00000000
00000000
00000000
,
00000000
00000000
00000000
00000000
,
00100000
00001000
00010000
00000000
10010000
00000000
00000000
00000000
,
01000000
00100000
10000000
00010000
01010000
00000000
00000000
00000000
,
00001000
00010000
00000100
00000000
00001000
00000001
00000100
00000000
,
00000010
00001000
00000100
00000000
00010000
00001000
00100000
00000000
,
00010000
01000000
00001000
00000000
00011000
00000000
00000000
00000000
,
00000100
00000010
00000001
00001000
00001010
00000000
00000000
00000000
,
00010000
00001000
01000000
00000000
10010000
00000000
00000000
00000000
,
00001000
00010000
00000010
00001000
00001001
00000000
00000000
00000000
,
00011000
00000000
00101000
00101000
00010100
00010100
00000000
00000000
,
00101000
00000000
11000000
11000000
00000000
00000000
00000000
00000000
,
00011000
00000000
00010100
00010100
00101000
00101000
00000000
00000000
,
00010100
00000000
00000011
00000011
00000000
00000000
00000000
00000000
,
00001001
00000000
00001100
00000101
00001100
00000101
00000000
00000000
,
00011000
00000000
00110000
01010000
00000000
00000000
00000000
00000000
,
00011000
00000000
00001010
00000101
00000011
00001100
00000000
00000000
,
00011000
00000000
00110000
11000000
00000000
00000000
00000000
00000000
,
10010000
00000000
00110000
00101000
00011000
00010100
00000000
00000000
,
00001100
00000000
00010100
00101000
00000000
00000000
00000000
00000000
,
10010000
00000000
00110000
00101000
00011000
00010100
00000000
00000000
,
00001100
00000000
00000011
00010100
00000000
00000000
00000000
00000000
,
00000010
00000001
00001100
00000000
00010000
00001000
00110000
00000000
,
10000000
00100000
01010000
00000000
00001000
00100000
00010100
00000000
,
00001000
00000001
00000100
00000000
00001100
00000000
00000000
00000000
,
00000010
00010000
00001000
00100000
01010000
00000000
00000000
00000000
,
00100000
10000000
01000000
00000000
01010000
00000000
00000000
00000000
,
00001000
00010000
00000100
00000010
00001001
00000000
00000000
00000000
,
00010000
00000100
00000001
00000100
00001000
00000000
00010100
00000000
,
00001000
00100000
00010000
10000000
00000000
01100000
01100000
00000000
,
00001000
00010000
00000010
00001000
00000001
00000000
00000110
00000000
,
00010000
00001000
00100000
00010000
00000000
11000000
11000000
00000000
,
00010000
01000000
00001000
00100000
00010000
00000000
00011000
00000000
,
00000100
00001000
00000001
00000100
00000000
00001100
00010010
00000000
,
00001000
00100000
01000000
10000000
00010000
00000000
01100000
00000000
,
00010000
10000000
01000000
00100000
00000000
00011000
00001001
00000000
,
00000010
00000100
00001000
00000000
00010010
00000000
00000000
00000000
,
00001000
00100000
00010000
10000000
01100000
00000000
00000000
00000000
,
00010000
00100000
00001000
00000000
00010100
00000000
00000000
00000000
,
00001000
00000010
00000100
00000001
00001100
00000000
00000000
00000000
,
00010000
00001000
00110000
00000000
11000000
00000000
00000000
00000000
,
00100000
01000000
00001000
00010100
00001001
00000000
00000000
00000000
,
00000010
00000100
00001001
00000000
00011000
00000000
00000000
00000000
,
00100000
00010000
10000000
01100000
10010000
00000000
00022000
00000000
,
00033000
00000000
00000000
00000000
;

//---------------dance-single - ----------------
#NOTES:
     dance-single:
     :
     Beginner:
     1:
     0.031483,0.045078,0.000000,0.000000,0.000000,22.000000,22.000000,0.000000,0.000000,0.000000,0.000000,0.031483,0.045078,0.000000,0.000000,0.000000,22.000000,22.000000,0.000000,0.000000,0.000000,0.000000:
0000
0000
0000
0000
,
0000
0000
0000
0000
,
0000
0000
0000
0000
,
1000
0000
0000
0000
,
0000
0000
0000
0000
,
0001
0000
0000
0000
,
0000
0000
0000
0000
,
0100
0000
0000
0000
,
0000
0000
0000
0000
,
0010
0000
0000
0000
,
0000
0000
0000
0000
,
1000
0000
0000
0000
,
0000
0000
0000
0000
,
0100
0000
0000
0000
,
0000
0000
0000
0000
,
0010
0000
0000
0000
,
0000
0000
0000
0000
,
0001
0000
0000
0000
,
0000
0000
0000
0000
,
0010
0000
0000
0000
,
0000
0000
0000
0000
,
0100
0000
0000
0000
,
0000
0000
0000
0000
,
1000
0000
0000
0000
,
0000
0000
0000
0000
,
0010
0000
0000
0000
,
0000
0000
0000
0000
,
0100
0000
0000
0000
,
0000
0000
0000
0000
,
0001
0000
0000
0000
,
0000
0000
0000
0000
,
1000
0000
0000
0000
,
0000
0000
0000
0000
,
0010
0000
0000
0000
,
0000
0000
0000
0000
,
0001
0000
0000
0000
,
0000
0000
0000
0000
,
0100
0000
0000
0000
,
0000
0000
0000
0000
,
1000
0000
0000
0000
,
0000
0000
0000
0000
,
0010
0000
0000
0000
,
0000
0000
0000
0000
,
0100
0000
0000
0000
,
0000
0000
0000
0000
,
0001
0000
0000
0000
;

//---------------dance-single - ----------------
#NOTES:
     dance-single:
     :
     Challenge:
     16:
     0.877241,0.856490,0.460802,0.000000,1.212109,613.000000,567.000000,46.000000,0.000000,0.000000,0.000000,0.877241,0.856490,0.460802,0.000000,1.212109,613.000000,567.000000,46.000000,0.000000,0.000000,0.000000:
// measure 0
0000
0000
0000
0000
,  // measure 1
0000
0000
0000
0000
,  // measure 2
0000
0000
0000
0000
0000
0000
0000
0100
,  // measure 3
0010
0100
0000
0110
0000
1001
0000
0001
,  // measure 4
0011
0000
0010
0000
0110
0000
0100
0000
1100
0000
1000
0000
1001
0000
0001
1000
,  // measure 5
0010
1000
0010
1000
0001
1000
0001
1000
0100
1000
0100
1000
0010
1000
0010
1000
,  // measure 6
0100
1000
0100
1000
0001
1000
0001
1000
0010
1000
0010
1000
0100
1000
0100
1000
,  // measure 7
0001
0010
0100
1000
0001
0000
1001
0000
1000
0100
0010
0100
1000
0000
1001
0000
,  // measure 8
0001
0100
0010
1000
0001
0000
1001
0000
1000
0010
0100
0001
1000
0000
1001
0000
,  // measure 9
0001
0010
0001
0010
0100
0000
1100
0000
1000
0010
0100
0010
0100
0000
0110
0000
,  // measure 10
0010
1000
0010
0100
0001
0000
1001
0000
0001
0010
0001
1000
0010
0000
0110
0000
,  // measure 11
0100
0000
0000
0100
0010
0100
0000
0100
0001
1000
0100
0010
0001
0001
0000
1000
,  // measure 12
1000
0001
0010
0100
1000
0001
0100
0010
1000
0010
0100
0001
1000
0001
0010
0001
,  // measure 13
1000
0100
1000
0100
0010
0100
0010
0100
1000
0001
0100
0001
0010
0001
0010
0001
,  // measure 14
1000
0010
1000
0010
0100
0001
0100
0001
1000
0010
0100
0001
1000
0100
0010
0001
,  // measure 15
0010
0000
0000
0001
0000
0000
0100
0000
0000
0010
0000
0000
1000
0000
0000
1000
0000
0000
0100
0000
0000
0010
0000
0000
0001
0000
0000
0010
0000
0000
0100
0000
0000
0100
0000
0000
0010
0000
0000
0001
0000
0000
0010
0000
0001
0000
0010
0000
,  // measure 16
0001
0000
0010
0000
0001
0000
0010
0000
0001
0000
0010
0000
0001
0000
0000
0010
0000
0000
0100
0000
0000
1000
0000
0000
0001
0000
0000
1000
0000
0000
0100
0000
0000
0010
0000
0000
0001
0000
0000
1000
0000
0000
0010
0000
0000
1000
0000
0000
,  // measure 17
0001
0000
0000
1000
0000
0000
0001
0000
0010
0000
0100
0000
1000
0000
0000
0001
0000
0000
1000
0000
0000
0001
0000
0000
0010
0000
0000
0100
0000
0000
1000
0000
0100
0000
1000
0000
0100
0000
0000
1000
0000
0000
0001
0000
0000
0100
0000
0000
,  // measure 18
0010
0010
0000
0100
0001
1000
0001
0100
0010
0000
1000
0000
0001
0000
0010
0000
,  // measure 19
0001
0010
0001
0010
0100
1000
0100
1000
0001
1000
0001
1000
0001
1000
0001
0010
,  // measure 20
0100
0000
1000
0000
0100
0000
1000
0000
0100
0000
1000
0000
0100
0000
0000
1000
0000
0000
0010
0000
0000
0100
0000
0000
0001
0000
0000
0010
0000
0000
0001
0000
0000
1000
0000
0000
0001
0000
0000
1000
0000
0000
0001
0000
0000
1000
0000
0000
,  // measure 21
0010
0100
0001
1000
0001
0000
1000
0001
0010
0001
1000
0010
0100
0001
0010
0001
,  // measure 22
0000
0001
1000
0010
0100
0001
1000
0100
0010
0100
1000
0001
0010
0010
0001
1000
,  // measure 23
0010
0010
0010
0000
0101
0000
0001
1000
0100
0100
0100
0000
1010
0000
1000
0100
,  // measure 24
0010
0010
0010
0001
0010
0010
0010
0100
0010
0010
0010
0001
0010
0010
0010
0000
,  // measure 25
0010
0001
1000
0010
0100
0000
0110
0000
0010
0100
1000
0001
0010
0000
0110
0000
,  // measure 26
0100
0001
1000
0100
0010
0000
0110
0000
0100
1000
0001
0100
0010
0000
0110
0000
,  // measure 27
0100
1000
0001
0010
0100
0000
1100
0000
1000
0010
0100
0001
0010
0000
0011
0000
,  // measure 28
0001
1000
0100
0010
0100
0000
0110
0000
0010
0100
1000
0001
0100
0000
0101
0000
,  // measure 29
0001
0001
1000
1000
0001
0000
1001
0001
0100
0010
0100
0010
0100
0000
0110
0000
,  // measure 30
0010
0010
1000
0001
1000
1000
0100
0010
0001
0010
0100
1000
0001
0000
1001
0000
,  // measure 31
0001
0100
0010
1000
0001
0100
0010
1000
0001
0010
0100
1000
0001
1000
0100
0010
,  // measure 32
0001
0100
1000
0100
0010
0100
1000
0100
0010
0000
0100
0000
1000
0000
0001
0000
,  // measure 33
0100
0010
0100
0010
1000
0001
1000
0001
0010
0001
0010
0001
1000
0010
1000
0010
,  // measure 34
0100
0001
0100
0001
1000
0100
0010
0100
1000
0001
1000
0001
0100
0010
0100
0010
,  // measure 35
1000
0010
0100
0001
1000
0100
0010
0001
0010
0100
1000
0001
1000
0001
0100
0010
,  // measure 36
1000
0010
0100
0001
1000
0100
0010
0100
1000
0010
0100
1000
0100
0010
0100
1000
,  // measure 37
0001
0000
0000
0100
0001
0000
0000
0001
1000
0000
1001
0000
0000
1000
0100
0000
,  // measure 38
0010
0000
0100
0000
1000
0000
0001
0100
1000
0100
0010
0100
0010
0000
0110
0000
,  // measure 39
0101
0011
1001
1010
0110
0101
1001
1001
,  // measure 40
0011
0000
0110
0000
1100
0000
1010
0000
1001
0000
0001
1000
0100
1000
0010
0100
,  // measure 41
0001
0000
0000
0010
0001
0000
0000
0100
0010
0000
1010
0000
1000
0001
0100
0010
,  // measure 42
1000
0001
0010
0001
0010
0000
0011
0000
0001
1000
0100
0010
0100
0000
1000
0001
,  // measure 43
0010
0000
0110
0000
0010
0100
0010
0100
1000
0000
1001
0000
0001
1000
0100
0010
,  // measure 44
0001
0000
0000
1000
0000
0000
0010
0000
0000
0100
0000
0000
0001
0010
0001
0010
0001
0010
0100
1000
0100
1000
0001
0100
,  // measure 45
0010
0000
0000
0000
;
