#VERSION:0.83;
#TITLE:AIN'T NO MOUNTAIN HIGH ENOUGH;
#SUBTITLE:;
#ARTIST:SLOTH MUSIC PROJECT feat.MALAYA;
#TITLETRANSLIT:;
#SUBTITLETRANSLIT:;
#ARTISTTRANSLIT:;
#GENRE:;
#ORIGIN:;
#CREDIT:;
#BANNER:AIN'T NO MOUNTAIN HIGH ENOUGH.png;
#BACKGROUND:AIN'T NO MOUNTAIN HIGH ENOUGH-bg.png;
#PREVIEWVID:;
#JACKET:AIN'T NO MOUNTAIN HIGH ENOUGH-jacket.png;
#CDIMAGE:;
#DISCIMAGE:;
#LYRICSPATH:;
#CDTITLE:;
#MUSIC:AIN'T NO MOUNTAIN HIGH ENOUGH.ogg;
#OFFSET:0.000000;
#SAMPLESTART:6.000000;
#SAMPLELENGTH:15.000000;
#SELECTABLE:YES;
#DISPLAYBPM:120.000000;
#BPMS:0.000=120.000;
#STOPS:;
#DELAYS:;
#WARPS:;
#TIMESIGNATURES:0.000=4=4;
#TICKCOUNTS:0.000=4;
#COMBOS:0.000=1;
#SPEEDS:0.000=1.000=0.000=0;
#SCROLLS:0.000=1.000;
#FAKES:;
#LABELS:0.000=Song Start;
#BGCHANGES:;
#KEYSOUNDS:;
#ATTACKS:
;

//---------------dance-single - ----------------
#NOTEDATA:;
#CHARTNAME:;
#STEPSTYPE:dance-single;
#DESCRIPTION:;
#CHARTSTYLE:;
#DIFFICULTY:Beginner;
#METER:1;
#RADARVALUES:0.060650,0.092458,0.018869,0.000000,0.000000,45.000000,43.000000,2.000000,0.000000,0.000000,0.000000,0.000000,0.000000,0.000000,0.060650,0.092458,0.018869,0.000000,0.000000,45.000000,43.000000,2.000000,0.000000,0.000000,0.000000,0.000000,0.000000,0.000000;
#CREDIT:;
#DISPLAYBPM:120.000000;
#NOTES:
0000
0000
0000
0000
,
0000
0000
0000
0000
,
0000
0000
0000
0000
,
1000
0000
0000
0000
,
1000
0000
0000
0000
,
1000
0000
0000
0000
,
1000
0000
0000
0000
,
1000
0000
0000
0000
,
0000
0000
0000
0000
,
0001
0000
0000
0000
,
0001
0000
0000
0000
,
0001
0000
0000
0000
,
0001
0000
0000
0000
,
1000
0000
0000
0000
,
1000
0000
0000
0000
,
1000
0000
0000
0000
,
1000
0000
0000
0000
,
0010
0000
0000
0000
,
0010
0000
0000
0000
,
0010
0000
0000
0000
,
0010
0000
0000
0000
,
0100
0000
0000
0000
,
0000
0000
1001
0000
,
0000
0000
0000
0000
,
0100
0000
0000
0000
,
0001
0000
0000
0000
,
1000
0000
0000
0000
,
0001
0000
0000
0000
,
1000
0000
0000
0000
,
0001
0000
0000
0000
,
0010
0000
0000
0000
,
0010
0000
0000
0000
,
0000
0000
0000
0000
,
0001
0000
0000
0000
,
0001
0000
0000
0000
,
0100
0000
0000
0000
,
0100
0000
0000
0000
,
1000
0000
0000
0000
,
1000
0000
0000
0000
,
0001
0000
0000
0000
,
0000
0000
0000
0000
,
1000
0000
0000
0000
,
1000
0000
0000
0000
,
0001
0000
0000
0000
,
0001
0000
0000
0000
,
0100
0000
0000
0000
,
0100
0000
0000
0000
,
0010
0000
0000
0000
,
0010
0000
0000
0000
,
1001
0000
0000
0000
,
0000
0000
0000
0000
;

//---------------dance-single - ----------------
#NOTEDATA:;
#CHARTNAME:;
#STEPSTYPE:dance-single;
#DESCRIPTION:;
#CHARTSTYLE:;
#DIFFICULTY:Easy;
#METER:3;
#RADARVALUES:0.111866,0.161802,0.056607,0.084910,0.000000,83.000000,77.000000,6.000000,9.000000,0.000000,0.000000,0.000000,0.000000,0.000000,0.111866,0.161802,0.056607,0.084910,0.000000,83.000000,77.000000,6.000000,9.000000,0.000000,0.000000,0.000000,0.000000,0.000000;
#CREDIT:;
#DISPLAYBPM:120.000000;
#NOTES:
0000
0000
0000
0000
,
0000
0000
0000
0000
,
0000
0000
0000
0000
,
1000
0000
0000
0000
,
0001
0000
0000
0000
,
1000
0000
0000
0000
,
0001
0000
0000
0000
,
1000
0000
0000
0001
,
0000
0000
0000
0000
,
0000
0000
0000
0000
,
0010
0000
0010
0010
,
1000
0000
1000
1000
,
0010
0000
0010
0010
,
0001
0000
0001
0001
,
1000
0000
1000
1000
,
0001
0000
0001
0001
,
0000
0000
0000
0000
,
1000
0000
1000
0000
,
1000
0000
1000
0000
,
0001
0000
0001
0000
,
0001
0000
0000
0000
,
0010
0000
0010
0000
,
0010
0000
1001
0000
,
0010
0000
0010
0000
,
0010
0000
0100
0100
,
0000
0000
0000
0000
,
1000
0000
0000
0000
,
1000
0000
0000
0000
,
1000
0000
0010
0100
,
1000
0000
0000
0000
,
0010
0000
0010
0100
,
0020
0000
0000
0030
,
0000
0000
0000
0000
,
0001
0000
0010
0000
,
0001
0000
0010
0000
,
0001
0000
0100
0000
,
0001
0000
0100
0000
,
0010
0000
0100
0000
,
0010
0000
1000
1000
,
1000
0000
0000
0000
,
0000
0000
0000
0000
,
2002
3003
0000
0000
,
2002
3003
0000
0000
,
2002
3003
0000
0000
,
2002
3003
0000
0000
,
0000
0100
0000
0100
,
0000
0000
0100
0000
0000
0100
0100
0000
,
0000
0010
0000
0010
,
0000
0010
0000
0000
,
1001
0000
0000
0000
,
0000
0000
0000
0000
;

//---------------dance-single - ----------------
#NOTEDATA:;
#CHARTNAME:;
#STEPSTYPE:dance-single;
#DESCRIPTION:;
#CHARTSTYLE:;
#DIFFICULTY:Medium;
#METER:7;
#RADARVALUES:0.258775,0.277374,0.066041,0.037738,0.000000,192.000000,185.000000,7.000000,4.000000,0.000000,0.000000,0.000000,0.000000,0.000000,0.258775,0.277374,0.066041,0.037738,0.000000,192.000000,185.000000,7.000000,4.000000,0.000000,0.000000,0.000000,0.000000,0.000000;
#CREDIT:;
#DISPLAYBPM:120.000000;
#NOTES:
0000
0000
0000
0000
,
0000
0000
0000
0000
,
0000
0000
0001
0000
,
1000
1000
0001
0100
,
0001
0000
0001
0000
1000
0001
0100
0000
,
0001
0001
1000
0100
,
1000
0000
1000
0000
0001
1000
0100
0000
,
0010
0000
0010
0000
0001
1000
0010
0100
,
0001
0000
0001
0000
0010
0100
1000
0000
,
0001
0100
1000
0100
,
0001
0100
1000
0100
,
0001
0000
0001
0000
1000
0000
0010
0100
,
0001
0000
0001
0100
0010
0000
0010
0000
,
1000
0100
0001
0100
,
1000
0100
0001
0100
,
0001
0000
0001
0000
0100
0010
1000
0000
,
0001
0000
0000
0000
1000
0000
0100
0100
,
1000
0000
0001
0001
1000
0000
0100
0100
,
1000
0001
1000
0100
,
1000
0001
1000
0100
,
1000
0000
1000
0000
0001
0000
0010
0010
,
0001
0000
0100
0100
0001
0000
0010
0010
,
0100
0000
1001
0000
,
0000
0000
1000
0010
0100
0010
1000
0200
,
0000
0000
0000
0000
0000
0300
0000
0000
,
1000
0001
1000
0100
,
1000
0000
0001
0000
0100
0001
0100
0000
,
0001
0001
0010
0100
,
1000
0001
0010
0100
,
2000
0000
0000
3000
,
0001
0001
0010
0100
,
2000
0000
0000
3000
,
0000
0000
0000
0000
,
0001
1000
0010
1000
,
0001
1000
0100
1000
,
0001
1000
0100
0100
,
1000
0001
0100
0100
,
0010
0100
0010
0100
,
0001
0010
0100
1000
,
0100
1000
1000
0001
,
0001
0000
0000
0110
,
1001
0100
0010
0010
,
1001
0010
0100
0100
,
1001
0100
0010
0001
,
1200
0010
0001
0310
,
1000
1000
1000
1000
,
0001
0000
0100
0000
0010
1000
1000
0000
,
0001
0010
0100
1000
,
0010
0010
0100
0100
,
1001
0000
0000
0000
,
0000
0000
0000
0000
;

//---------------dance-single - ----------------
#NOTEDATA:;
#CHARTNAME:;
#STEPSTYPE:dance-single;
#DESCRIPTION:;
#CHARTSTYLE:;
#DIFFICULTY:Hard;
#METER:9;
#RADARVALUES:0.311338,0.346718,0.113214,0.273600,0.004717,231.000000,219.000000,12.000000,29.000000,0.000000,0.000000,0.000000,0.000000,0.000000,0.311338,0.346718,0.113214,0.273600,0.004717,231.000000,219.000000,12.000000,29.000000,0.000000,0.000000,0.000000,0.000000,0.000000;
#CREDIT:;
#DISPLAYBPM:120.000000;
#NOTES:
0000
0000
0000
0000
,
0000
0000
0000
0000
,
0000
0000
0010
0000
,
2000
0001
0000
3001
,
0200
0000
0000
0300
0001
0000
0020
0000
0000
0000
0000
0000
0031
0000
0001
0000
,
2000
0001
0000
3001
,
0200
0300
0001
0020
0000
0000
0031
0001
,
0200
0000
0001
0000
0300
0000
0001
2000
,
0010
0000
0010
3000
0010
0000
0010
0100
,
0001
0000
0001
0010
0001
0010
0100
1000
,
0001
0000
0001
0000
0010
0100
0010
0001
,
1000
0000
1000
0000
1000
0100
0010
0001
,
0000
0000
0010
0001
0000
0000
0000
0000
,
0002
0000
0003
0100
0010
1000
0001
0200
,
0000
0000
0300
0000
0010
1000
0001
0200
,
0000
0000
0300
0000
0001
0100
0010
2000
,
3000
0100
0010
0002
1003
0000
0100
0100
,
1000
0000
0001
0001
1000
0000
0100
0100
,
0010
0000
0001
0001
0010
0000
0100
0000
,
1001
0001
0010
0200
0000
0000
0000
0300
,
1000
0020
0000
0030
2000
3000
0001
0001
,
1000
0000
0010
0010
1000
0000
0001
0001
,
0100
0010
1001
0010
,
0100
0000
0000
0010
0100
0010
0000
2000
,
0000
0200
0300
0002
0000
3003
0000
0000
,
0100
0010
0100
0000
0010
0100
0010
0000
,
0100
0010
0100
0001
1000
0100
0010
0001
,
0010
0100
0010
0000
0100
0010
0100
0000
,
0010
0100
0010
0000
0001
0010
0100
0010
,
2001
0000
0000
3000
,
0010
0000
1100
0011
,
2002
0000
0000
3003
,
0000
0000
0000
0000
,
0001
0000
1000
0000
0100
0010
0100
0000
,
1000
0000
0001
0000
0100
0010
0100
0000
,
0001
0000
1000
0000
0100
0010
0100
0000
,
0001
0000
0001
0000
1000
0010
0100
0010
,
1000
0100
1000
0100
,
1000
0000
0100
0000
0010
0001
0100
0000
,
0010
0000
0010
0000
0100
0000
0100
0010
,
1000
0000
0100
0000
0010
0001
0110
0000
,
2002
0000
3003
0000
1000
0010
0000
0100
,
2002
0000
0000
0000
3003
0000
0000
0000
0001
0000
0010
0000
0000
0010
0100
0000
,
2002
0000
3003
0000
0001
0010
0000
0100
,
2001
0100
0001
3010
,
0001
0100
0001
0100
0001
0100
0001
1000
,
0001
0000
0010
0000
0100
1000
1000
0000
,
0001
0000
0010
0000
0100
1000
0100
0000
,
0010
0100
0010
0001
1000
0100
0010
0000
,
1001
0000
0000
0000
,
0000
0000
0000
0000
;

//---------------dance-double - ----------------
#NOTEDATA:;
#CHARTNAME:;
#STEPSTYPE:dance-double;
#DESCRIPTION:;
#CHARTSTYLE:;
#DIFFICULTY:Easy;
#METER:4;
#RADARVALUES:0.128040,0.184916,0.066041,0.084910,0.000000,95.000000,88.000000,7.000000,9.000000,0.000000,0.000000,0.000000,0.000000,0.000000,0.128040,0.184916,0.066041,0.084910,0.000000,95.000000,88.000000,7.000000,9.000000,0.000000,0.000000,0.000000,0.000000,0.000000;
#CREDIT:;
#DISPLAYBPM:120.000000;
#NOTES:
00000000
00000000
00000000
00000000
,
00000000
00000000
00000000
00000000
,
00000000
00000000
00100000
00000000
,
00001000
00000000
00000000
00000000
,
00010000
00000000
00000000
00000000
,
00001000
00000000
00000000
00000000
,
00010000
00000000
00000000
00000000
,
00001000
00000000
00000000
00000000
00000000
00000000
00100000
00002000
,
00000000
00000000
00000000
00003000
00000000
00000000
00000000
00000000
,
00100000
00000000
00100000
00100000
,
00010000
00000000
00001000
00000000
,
00000010
00000000
00000010
00000010
,
00001000
00000000
00010000
00000000
,
01000000
00000000
10000000
10000000
,
00010000
00000000
00001000
00000000
,
00000001
00000000
00000001
00000001
,
00001000
00000000
00010000
00000000
,
00100000
00000000
00100000
00000000
,
00001000
00000000
00001000
00000000
,
00000010
00000000
00000010
00000000
,
00010000
00000000
00010000
00000000
,
00001000
00000000
00001000
00000000
,
01000000
00000000
10010000
00000000
,
00001000
00000000
00001000
00000000
,
00000100
00000000
00000100
00000000
,
00000010
00000000
00000100
00000000
,
00010000
00000000
00001000
00000000
,
00100000
00000000
01000000
00000000
,
00010000
00000000
00001000
00000000
,
00000010
00000000
00000000
00000000
,
00000100
00000000
00010000
00001000
,
01000000
00000000
00000000
00000000
,
00000000
00000000
00000000
00000000
,
00000001
00000000
00000010
00000000
,
00000100
00000000
00001000
00000000
,
00010000
00000000
01000000
00000000
,
10000000
00000000
00100000
00000000
,
00001000
00000000
00000100
00000000
,
00000001
00000000
00000010
00000000
,
00000100
00000000
00010000
00000000
,
11000000
00000000
00000000
00000000
,
20020000
30030000
00000000
00000000
,
00022000
00033000
00000000
00000000
,
00002002
00003003
00000000
00000000
,
00022000
00000000
00000000
00033000
,
00000000
00000100
00000000
00000100
,
00001000
00000000
00000100
00000000
00001000
00010000
00010000
00000000
,
00000000
00000100
00000000
00000100
,
00000000
00001000
00000000
00100000
,
10010000
00000000
00000000
00000000
,
00000000
00000000
00000000
00000000
;

//---------------dance-double - ----------------
#NOTEDATA:;
#CHARTNAME:;
#STEPSTYPE:dance-double;
#DESCRIPTION:;
#CHARTSTYLE:;
#DIFFICULTY:Medium;
#METER:6;
#RADARVALUES:0.223732,0.300489,0.056607,0.160386,0.000000,166.000000,160.000000,6.000000,17.000000,0.000000,0.000000,0.000000,0.000000,0.000000,0.223732,0.300489,0.056607,0.160386,0.000000,166.000000,160.000000,6.000000,17.000000,0.000000,0.000000,0.000000,0.000000,0.000000;
#CREDIT:;
#DISPLAYBPM:120.000000;
#NOTES:
00000000
00000000
00000000
00000000
,
00000000
00000000
00000000
00000000
,
00000000
00000000
00100000
00000000
,
00002000
00000000
00000000
00003000
,
00020000
00000000
00030000
00002000
00000000
00000000
00003000
00000000
,
00020000
00000000
00000000
00030000
,
00002000
00000000
00003000
00200000
00000000
00000000
00300000
00000000
,
00020000
00000000
00000000
00000000
00030000
00000000
00000100
00000020
,
00000000
00000000
00000000
00000030
00001000
00000000
00001000
00000000
,
00000010
00010000
00001000
00100000
,
00010000
00010000
00100000
00001000
,
00010000
00000000
00000010
00000000
00001000
00000000
00000001
00000100
,
00000000
00000000
00001000
00010000
00000000
00000000
00000000
00000000
,
00100000
00000000
00010000
00000000
00001000
00000000
00000100
00000001
,
00000010
00000000
00000010
00000000
00000100
00000000
00010000
00001000
,
01000000
01000000
00001000
00010000
,
00000100
00000000
00000010
00000000
00000000
00000000
00000001
00000001
,
00000010
00000000
00000100
00000100
00010000
00000000
00001000
00001000
,
00100000
00000000
00010000
00010000
10000000
00000000
01000000
00000000
,
00010000
00000000
00001000
00000200
00000000
00000000
00000000
00000300
,
00000001
00000020
00000000
00000030
00001000
00000000
00010000
00010000
,
01000000
00000000
00100000
00100000
00001000
00000000
00000100
00000100
,
00000010
00000000
00001001
00000000
,
00000000
00000000
00000000
00000000
00000000
00000000
00000000
00002000
,
00003000
00200000
00300000
02000000
00000000
03000000
00000000
00000000
,
00010000
00001000
00000100
00000001
,
00000100
00001000
00010000
01000000
,
10000000
00010000
01000000
00001000
,
00010000
00000010
00000100
00000001
,
00002000
00000000
00000000
00003000
,
00020000
00030000
00001000
00000100
,
00000002
00000000
00000000
00000003
,
00000000
00000000
00000000
00000000
,
00000001
00000010
00001000
00010000
,
01000000
10000000
01000000
01000000
,
10000000
00100000
00010000
00001000
,
00000100
00000001
00000010
00000010
,
00000100
00010000
00001000
01000000
,
00010000
00100000
01000000
01000000
,
00100000
00001000
00010000
00000010
,
00000110
00000000
00000000
00000110
,
00001001
00000100
00010000
00001000
,
01000000
00010000
10000000
01000000
,
00100000
00010000
00001000
00000010
,
00000201
00000010
00001000
00000310
,
00010000
00010000
00010000
00010000
,
00001000
00000000
01000000
00000000
00010000
00001000
00001000
00000000
,
00000010
00000010
00000010
00000100
,
00001000
00001000
00010000
01000000
,
10010000
00000000
00000000
00000000
,
00000000
00000000
00000000
00000000
;

//---------------dance-double - ----------------
#NOTEDATA:;
#CHARTNAME:;
#STEPSTYPE:dance-double;
#DESCRIPTION:;
#CHARTSTYLE:;
#DIFFICULTY:Hard;
#METER:10;
#RADARVALUES:0.300556,0.323603,0.132083,0.254731,0.004717,223.000000,209.000000,14.000000,27.000000,0.000000,0.000000,0.000000,0.000000,0.000000,0.300556,0.323603,0.132083,0.254731,0.004717,223.000000,209.000000,14.000000,27.000000,0.000000,0.000000,0.000000,0.000000,0.000000;
#CREDIT:;
#DISPLAYBPM:120.000000;
#NOTES:
00000000
00000000
00000000
00000000
,
00000000
00000000
00000000
00000000
,
00000000
00000000
00000001
00000000
,
00002000
00000010
00000000
00003010
,
00020000
00000000
00030010
00002000
00000000
00000000
00003010
00000000
,
00020000
00000100
00000000
00030100
,
00002000
00000000
01003000
00200000
00000000
00000000
01300000
00000000
,
00021000
00000000
00000000
00000000
00030000
00000000
00000100
00000020
,
00001000
00000000
00001000
00000030
00001000
00000000
00010000
00000000
,
00000010
00000000
00000010
00010000
00001000
01000000
00100000
10000000
,
00010000
00000000
00010000
00000000
01000000
00001000
00010000
00000010
,
00000100
00000000
00000001
00000000
00001000
00000100
00010000
00001000
,
00000000
00000000
01000000
00100000
00000000
00000000
00000000
00000000
,
10000000
00000000
00010000
01000000
00001000
00010000
00000100
00001000
,
00000010
00000000
00000010
00000000
00010000
00001000
01000000
00100000
,
10000000
00000000
10000000
00000000
00100000
00010000
00001000
00000010
,
00000000
00000001
00001000
00000100
00000000
00000000
00000001
00000001
,
00000010
00000000
00000100
00000100
00010000
00000000
00001000
00001000
,
00100000
00000000
00010000
00010000
10000000
00000000
01000000
00000000
,
00100000
00100000
00001000
00000200
00000000
00000000
00000000
00000300
,
00000001
00000020
00000000
00000030
00002000
00003000
00010000
00010000
,
01000000
00000000
00100000
00100000
00001000
00000000
00000100
00000100
,
00000010
00000100
00001001
00000010
,
00000100
00000000
00001000
00010000
00100000
10000000
00000000
02000000
,
03000000
00020000
00030000
00002000
00000000
00003000
00000100
00000000
,
00000010
00000010
00001000
00000000
00000100
00000010
00000100
00000000
,
00010000
00010000
00001000
00000000
01000000
00100000
01000000
00000000
,
00001000
00001000
00010000
00000000
00000100
00000010
00000100
00000000
,
00001000
00100000
10000000
00000000
,
20020000
00000000
00000000
30030000
,
02002000
03003000
00011000
00001100
,
00002002
00000000
00000000
00003003
,
00000000
00000000
00000000
00000000
,
00000001
00000000
00000010
00000000
00000100
00001000
00000100
00000000
,
00010000
00000000
01000000
00000000
10000000
00100000
10000000
00000000
,
00010000
00000000
01000000
00000000
00001000
00010000
00001000
00000000
,
00100000
00001000
00010000
00000010
,
00001000
00000000
00000001
00000000
00000010
00000100
00000010
00000000
,
00001000
00000000
00010000
00000000
00100000
01000000
00100000
00000000
,
01000000
00001000
00010000
00000100
,
00001001
00000000
00000000
00011000
,
02002000
00000000
03003000
00000000
00001000
00100000
00000000
00010000
,
00202000
00000000
00000000
00000000
00303000
00000000
00000000
00000000
00010000
00000000
00001000
00000000
00000000
00000100
00000010
00000000
,
00002002
00003003
00000100
00010000
,
01020000
10000000
00100000
00031000
,
00000100
00001000
00000100
00001000
00000100
00001000
00000100
00001000
,
00000001
00000000
00000010
00000000
00001000
00010000
00010000
00000000
,
01000000
00000000
00100000
00000000
00001000
00010000
00001000
00000000
,
00010000
00001000
00010000
00000100
00000010
00000001
00000100
00000000
,
00001001
00000000
00000000
00000000
,
00000000
00000000
00000000
00000000
;

//---------------dance-single - ----------------
#NOTEDATA:;
#CHARTNAME:;
#STEPSTYPE:dance-single;
#DESCRIPTION:;
#CHARTSTYLE:;
#DIFFICULTY:Challenge;
#METER:13;
#RADARVALUES:0.536418,0.571730,0.169821,0.207559,0.405683,398.000000,380.000000,18.000000,22.000000,0.000000,0.000000,0.000000,0.000000,0.000000,0.536418,0.571730,0.169821,0.207559,0.405683,398.000000,380.000000,18.000000,22.000000,0.000000,0.000000,0.000000,0.000000,0.000000;
#CREDIT:;
#DISPLAYBPM:120.000000;
#NOTES:
// measure 0
0000
0000
0000
0000
,  // measure 1
0000
0000
0000
0000
,  // measure 2
0000
0000
0110
1001
,  // measure 3
2100
0000
0000
0000
0001
0000
0000
0000
3010
0000
0000
0010
1000
0000
0100
0000
,  // measure 4
0120
0000
0031
0010
0000
0001
0010
0100
,  // measure 5
0102
0000
0000
0000
1000
0000
0000
0000
0013
0000
0000
0010
0001
0000
0010
0000
,  // measure 6
0210
0000
0000
0000
1300
0000
0100
0000
0001
0000
0000
1000
0100
0000
0010
0000
,  // measure 7
0002
0203
0320
2030
,  // measure 8
3100
0000
0000
0000
0010
0000
0000
0010
0001
0000
1000
0000
1001
0000
0001
0000
,  // measure 9
0100
0000
0010
0100
0010
0000
0100
0010
0000
0100
0001
0000
0000
0001
0010
0000
,  // measure 10
0200
0000
1000
0000
1300
0000
0100
0000
0010
0000
0000
0100
1000
0000
0001
0000
,  // measure 11
0100
0000
0010
0100
0010
0000
0001
1000
0000
0010
1000
0000
0000
1000
0100
0000
,  // measure 12
0020
0000
0000
0031
0000
0001
0010
0000
0000
0010
0001
0000
0100
0000
0010
0000
,  // measure 13
1000
0000
0100
1000
0100
0000
0010
0000
0001
0000
0100
0000
0010
1000
0000
0010
,  // measure 14
1000
0001
0100
0010
0001
0100
0010
1000
,  // measure 15
0100
0010
0001
0010
0100
0010
0001
1000
,  // measure 16
0100
0000
1000
0000
0010
0000
0100
0000
0001
0000
0000
0001
2000
0000
0001
0000
,  // measure 17
3001
0000
0000
0001
0020
0000
1000
0000
1030
0000
0000
1000
0002
0000
0100
0000
,  // measure 18
0103
0000
0000
0001
0200
0000
0010
0000
0310
0000
0000
0010
1000
0000
1000
0000
,  // measure 19
0100
0001
0100
1000
0100
0010
0001
0100
,  // measure 20
0010
0000
1000
0000
0000
1000
0100
0000
0010
0000
0001
0000
0101
0000
0100
0000
,  // measure 21
0010
0000
0000
0010
0100
0000
0001
0000
1000
0000
0000
1000
0001
0000
0100
0000
,  // measure 22
0010
0000
0000
0010
1000
0000
0100
0000
0002
0003
0000
0001
0010
0000
0100
0000
,  // measure 23
1000
0000
0000
1000
0001
0000
0100
0000
0010
0000
0000
0010
1000
0000
0001
0000
,  // measure 24
0101
0000
0000
0100
0000
0000
1100
0000
0000
0100
0010
0000
0001
0000
1000
0000
,  // measure 25
0001
0010
0001
0100
0001
0010
0100
1000
,  // measure 26
0100
0010
0100
0001
0100
0010
1000
0001
,  // measure 27
0010
0100
0010
1000
0001
0010
0100
1000
,  // measure 28
0001
0010
0001
0100
0001
1000
0100
0010
,  // measure 29
1000
0000
0010
0000
0100
0000
0001
0000
1000
0000
0000
0000
1100
0000
1000
0100
,  // measure 30
0000
0010
0001
0000
0100
0000
0010
0000
1000
0000
0001
0100
0001
0000
0100
0000
,  // measure 31
0010
0000
1000
0000
1010
0000
0000
1000
0100
0000
0010
0000
0001
0000
1000
0000
,  // measure 32
0001
0000
0100
0001
0100
0000
0010
0000
1000
0000
0001
0000
0010
0000
0001
0000
,  // measure 33
0100
0000
0000
0000
0000
0000
0000
0000
0000
0100
0000
0000
0010
0000
0000
0000
0000
0000
1000
0000
0000
0000
0000
0000
0001
0000
0000
0000
0000
0000
0000
0000
0000
0001
0000
0000
0010
0000
0000
0000
0100
0000
0000
0000
0010
0000
0000
0000
,  // measure 34
0100
0000
1000
0000
0100
0000
0010
0000
0000
0001
0000
0000
0010
0000
0100
0000
0010
0000
1000
0000
0001
0000
0010
0000
,  // measure 35
0100
0000
0000
0110
0000
0000
1000
0100
0010
0001
0100
0010
,  // measure 36
2000
0000
0000
3100
0010
0000
0001
0000
0100
0000
0000
0000
0101
0000
0000
0000
,  // measure 37
1001
0000
0000
0000
0000
0000
0001
0000
0010
0000
0100
0000
1000
0000
0000
0001
0000
0000
1000
0000
0100
0000
0010
0000
,  // measure 38
0001
0000
0000
1000
0000
0000
0001
0000
0100
0000
0010
0000
1000
0000
0000
0001
0000
0000
0100
0000
1000
0000
0100
0000
,  // measure 39
0010
0000
0000
0000
0000
0000
0001
0000
0000
0100
0000
0000
0010
0000
0000
0000
1000
0000
0000
0000
0010
0000
0000
0000
0001
0000
0000
0000
0100
0000
0000
0000
0010
0000
0000
0000
1000
0000
0000
0000
0000
0000
0001
0000
0000
0000
0000
0000
,  // measure 40
0100
0000
0000
0010
0000
0000
0100
0000
0000
0000
0000
0000
0010
0000
0000
0000
0001
0000
0000
0000
0100
0000
0000
0000
0010
0000
0000
0000
1000
0000
0000
0000
0001
0000
0000
0000
0010
0000
0000
0000
0100
0000
0000
0000
1000
0000
0000
0000
,  // measure 41
0100
0000
1000
0000
0100
0000
0010
0100
0000
0010
0001
0000
0100
0010
0100
0000
,  // measure 42
1000
0000
0001
0000
0010
0000
0001
0100
0000
0010
1000
0000
0100
0000
0010
0000
,  // measure 43
0001
0000
0100
0000
0010
0000
1000
0001
0000
0010
0100
0000
0010
0000
1000
0000
,  // measure 44
0001
0000
0010
0000
0001
0000
0100
0010
0000
0100
0010
0000
1000
0100
0010
0001
,  // measure 45
0020
0000
0032
0000
2003
0000
3010
0001
,  // measure 46
0200
0000
0010
0310
0000
0100
0110
0000
,  // measure 47
1000
0100
0010
0011
0000
0110
0100
0010
,  // measure 48
1000
0001
1000
0000
0100
0000
0010
0000
0001
0000
0100
0000
0010
1000
0020
0000
,  // measure 49
0200
0000
0000
0000
,  // measure 50
0000
0000
0330
0000
;
