#TITLE:AA;
#SUBTITLE:;
#ARTIST:D.J.Amuro;
#TITLETRANSLIT:;
#SUBTITLETRANSLIT:;
#ARTISTTRANSLIT:;
#GENRE:;
#CREDIT:;
#BANNER:AA.png;
#BACKGROUND:AA-bg.png;
#LYRICSPATH:;
#CDTITLE:;
#MUSIC:AA.ogg;
#OFFSET:0.000000;
#SAMPLESTART:14.025000;
#SAMPLELENGTH:15.000000;
#SELECTABLE:YES;
#BPMS:0.000000=154.000000
;
#STOPS:
;
#BGCHANGES:;
#KEYSOUNDS:;
#ATTACKS:;

//---------------dance-double - ----------------
#NOTES:
     dance-double:
     :
     Easy:
     5:
     0.306544,0.372361,0.189336,0.042075,0.000000,204.000000,186.000000,18.000000,4.000000,0.000000,0.000000,0.306544,0.372361,0.189336,0.042075,0.000000,204.000000,186.000000,18.000000,4.000000,0.000000,0.000000:
00000000
00000000
00000000
00000000
,
00000000
00000000
00000000
00000000
,
00000000
00000000
00000000
00000000
,
00000000
00000000
00000000
00000000
,
00000000
00000000
00000000
00000000
,
10000000
00000000
10000000
00000000
,
01000000
00000000
01000000
00000000
,
00010000
00000000
00010000
00000000
,
00001000
00000010
00000001
00001000
,
00000001
00000000
00000001
00000100
,
00001000
00000000
00001000
00010000
,
00100000
00000000
00100000
10000000
,
01000000
00100000
00010000
01010000
,
10000000
00000000
10000000
01000000
,
00010000
00000000
00010000
00001000
,
00000010
00000000
00000010
00000001
,
00000100
00000010
00001000
00001100
,
00000001
00000100
00001000
00001000
,
00010000
01000000
10000000
10000000
,
00100000
00010000
00001000
00001000
,
00000010
00000001
00001000
00001000
,
00000001
00000010
00001000
00001000
,
00010000
00100000
10000000
10000000
,
01000000
00010000
00001000
00001000
,
00000110
00000001
00000110
00001000
,
00022000
00000000
00000000
00033000
,
00100000
00000000
00100000
00000000
,
10000000
00000000
10000000
00000000
,
00100000
00000000
00100000
00000000
,
00010000
00000000
00010000
00000000
,
00001000
00001000
00000000
00000000
,
00000010
00000010
00000000
00000000
,
00000001
00000001
00001000
00001000
,
00001001
00000010
00001001
00000100
,
00000001
00000100
00001000
00010000
,
00010000
01000000
10000000
00100000
,
00100000
00010000
00001000
00010000
,
01000000
10010000
00100000
10010000
,
10000000
01000000
00010000
00001000
,
00001000
00000100
00000001
00000010
,
00000010
00001000
00010000
00001000
,
00000100
00001001
00000010
00001001
,
00000001
00000100
00001000
00001000
,
00010000
01000000
10000000
10000000
,
00100000
00010000
00001000
00001000
,
00000010
00000001
00001000
00001000
,
00000001
00000010
00001000
00001000
,
00010000
00100000
10000000
10000000
,
01000000
00010000
00001000
00001000
,
00000110
00000001
00000110
00001000
,
00000001
00000100
00001000
00010000
,
00010000
01000000
10000000
00100000
,
00100000
00010000
00001000
00010000
,
01000000
10010000
00100000
10010000
,
10000000
01000000
00010000
00001000
,
00001000
00000100
00000001
00000010
,
00000010
00001000
00010000
00001000
,
00000100
00001001
00000010
00001001
,
00000220
00000000
00000000
00000000
,
00000330
00000000
00000000
00000000
,
00000000
00000000
00000000
00000000
;

//---------------dance-double - ----------------
#NOTES:
     dance-double:
     :
     Medium:
     10:
     0.485362,0.496482,0.525934,0.042075,0.152521,323.000000,273.000000,50.000000,4.000000,0.000000,0.000000,0.485362,0.496482,0.525934,0.042075,0.152521,323.000000,273.000000,50.000000,4.000000,0.000000,0.000000:
00000000
00000000
00000000
00000000
,
00000000
00000000
00000000
00000000
,
00000000
00000000
00000000
00000000
,
00000000
00000000
00000000
00000000
,
00000000
00000000
00000000
00000000
,
10000000
10000000
10000000
10000000
,
01000000
01000000
01000000
01000000
,
00010000
00010000
00010000
00010000
,
00001000
00000000
00001000
00000000
00000010
00000001
00000010
00000100
,
00000010
00000001
00000010
00000000
00001001
00000000
00000101
00000000
,
00000100
00001000
00000100
00000000
00011000
00000000
00110000
00000000
,
00100000
10000000
00100000
00000000
10010000
00000000
11000000
00000000
,
01000000
00010000
01000000
00000000
01000000
10000000
01000000
00000000
,
00100000
10000000
00100000
00000000
10010000
00000000
11000000
00000000
,
01000000
00010000
01000000
00000000
00011000
00000000
00001010
00000000
,
00000010
00000001
00000010
00000000
00001001
00000000
00000101
00000000
,
00000100
00001000
00000100
00000000
00000100
00000001
00000100
00000000
,
00001000
00000000
00000000
00010000
00000000
00000000
00100000
00000000
10000000
00000000
00000000
01000000
00000000
00000000
10000000
00000000
,
00100000
00000000
00000000
00010000
00000000
00000000
00001000
00000000
00010000
00000000
00000000
01000000
00000000
00000000
01000000
00000000
,
00010000
00000000
00000000
00001000
00000000
00000000
00000010
00000000
00000001
00000000
00000000
00000100
00000000
00000000
00000001
00000000
,
00000010
00000000
00000000
00001000
00000000
00000000
00010000
00000000
00001000
00000000
00000000
00000100
00000000
00000000
00000100
00000000
,
00001000
00000000
00000000
00010000
00000000
00000000
01000000
00000000
10000000
00000000
00000000
00100000
00000000
00000000
10000000
00000000
,
01000000
00000000
00000000
00010000
00000000
00000000
00001000
00000000
00010000
00000000
00000000
00100000
00000000
00000000
00100000
00000000
,
00010000
00000000
00000000
00001000
00000000
00000000
00000100
00000000
00000001
00000000
00000000
00000010
00000000
00000000
00000001
00000000
,
00000100
00000010
00000100
00000000
00001000
00010000
00001000
00000000
,
00022000
00000000
00000000
00033000
,
00100000
00000000
00000000
00000000
00000000
00100000
00001000
00001000
,
00001000
00000000
00000000
00010000
00000000
00000000
00010000
00000000
00000000
00000000
01000000
00000000
00000000
00000000
00100000
00000000
,
00100000
00000000
00000000
10000000
00000000
00100000
00000000
01000000
,
00000000
10000000
00000000
00010000
00000000
01000000
00000000
00001000
,
00010000
00010000
00010000
00010000
,
00001000
00001000
00001000
00001000
,
00000010
00000001
00000010
00000000
00000100
00001000
00000100
00000000
,
00000011
00001001
00000110
00001100
,
00010000
00001000
00010000
00000000
00100000
10000000
00100000
00000000
,
10010000
11000000
00101000
00011000
,
00001000
00010000
00001000
00000000
00000010
00000001
00000010
00000000
,
00001001
00000101
00010010
00011000
,
00010000
00001000
00010000
00000000
01000000
10000000
01000000
00000000
,
10010000
10100000
01001000
00011000
,
00001000
00010000
00001000
00000000
00000100
00000001
00000100
00000000
,
00001001
00000011
00010100
00011000
,
00001000
00000000
00000000
00010000
00000000
00000000
00100000
00000000
10000000
00000000
00000000
01000000
00000000
00000000
10000000
00000000
,
00100000
00000000
00000000
00010000
00000000
00000000
00001000
00000000
00010000
00000000
00000000
01000000
00000000
00000000
01000000
00000000
,
00010000
00000000
00000000
00001000
00000000
00000000
00000010
00000000
00000001
00000000
00000000
00000100
00000000
00000000
00000001
00000000
,
00000010
00000000
00000000
00001000
00000000
00000000
00010000
00000000
00001000
00000000
00000000
00000100
00000000
00000000
00000100
00000000
,
00001000
00000000
00000000
00010000
00000000
00000000
01000000
00000000
10000000
00000000
00000000
00100000
00000000
00000000
10000000
00000000
,
01000000
00000000
00000000
00010000
00000000
00000000
00001000
00000000
00010000
00000000
00000000
00100000
00000000
00000000
00100000
00000000
,
00010000
00000000
00000000
00001000
00000000
00000000
00000100
00000000
00000001
00000000
00000000
00000010
00000000
00000000
00000001
00000000
,
00000100
00000010
00000100
00000000
00001000
00010000
00001000
00000000
,
00010000
00001000
00010000
00000000
01000000
00100000
01000000
00000000
,
10010000
10100000
01001000
00011000
,
00001000
00010000
00001000
00000000
00000100
00000010
00000100
00000000
,
00001001
00000011
00010100
00011000
,
00010000
00001000
00010000
00000000
00100000
01000000
00100000
00000000
,
10010000
11000000
00101000
00011000
,
00001000
00010000
00001000
00000000
00000010
00000100
00000010
00000000
,
00001001
00000101
00010010
00011000
,
00022000
00000000
00000000
00000000
,
00033000
00000000
00000000
00000000
,
00000000
00000000
00000000
00000000
;

//---------------dance-double - ----------------
#NOTES:
     dance-double:
     :
     Hard:
     13:
     0.572517,0.620602,0.157780,0.042075,0.320820,381.000000,366.000000,15.000000,4.000000,0.000000,0.000000,0.572517,0.620602,0.157780,0.042075,0.320820,381.000000,366.000000,15.000000,4.000000,0.000000,0.000000:
00000000
00000000
00000000
00000000
,
00000000
00000000
00000000
00000000
,
00000000
00000000
00000000
00000000
,
00000000
00000000
00000000
00000000
,
00000000
00000000
00000000
00000000
,
10000000
10000000
10000000
10000000
,
01000000
01000000
01000000
01000000
,
00010000
00010000
00010000
00010000
,
00001000
00000010
00000001
00000010
00000100
00010000
00001000
00010000
,
01000000
00100000
01000000
00000000
11000000
00000000
10010000
00000000
,
10000000
00100000
00010000
00000000
00011000
00000000
00010100
00000000
,
00000100
00000010
00000001
00000000
00001001
00000000
00000101
00000000
,
00000100
00001000
00010000
00100000
00010000
00001000
00000100
00000001
,
00000100
00000010
00000100
00000000
00000101
00000000
00001001
00000000
,
00000001
00000010
00001000
00000000
00011000
00000000
01001000
00000000
,
01000000
00100000
10000000
00000000
10010000
00000000
11000000
00000000
,
01000000
00010000
00001000
00000010
00001000
00010000
01000000
00100000
,
00001000
00010000
00000000
00001000
00000000
00000000
00000100
00000000
00000010
00000000
00000000
00001000
00000000
00000000
00000100
00000000
,
00010000
00001000
00000000
00010000
00000000
01000000
00100000
00000000
00010000
10000000
00000000
01000000
00000000
00000000
00100000
00000000
,
00001000
00010000
00000000
00001000
00000000
00000000
00000010
00000000
00000100
00000000
00000000
00001000
00000000
00000000
00000010
00000000
,
00010000
00001000
00000000
00010000
00000000
00100000
01000000
00000000
00010000
10000000
00000000
00100000
00000000
00000000
01000000
00000000
,
00001000
00010000
00000000
00001000
00000000
00000000
00000100
00000000
00000010
00000000
00000000
00001000
00000000
00000000
00000100
00000000
,
00010000
00001000
00000000
00010000
00000000
01000000
00100000
00000000
00010000
10000000
00000000
01000000
00000000
00000000
00100000
00000000
,
00001000
00010000
00000000
00001000
00000000
00000000
00000010
00000000
00000100
00000000
00000000
00001000
00000000
00000000
00000010
00000000
,
00000100
00000001
00000100
00000000
00000010
00001000
00000010
00000000
00010000
00000100
00010000
00000000
00001000
00000000
00010000
00000000
,
00022000
00000000
00000000
00033000
,
00100000
00000000
00000000
00000000
00000000
00100000
00001000
00001000
,
00001000
00000000
00000000
00010000
00000000
00000000
00010000
00000000
00000000
00000000
01000000
00000000
00000000
00000000
00100000
00000000
,
00100000
00000000
00000000
10000000
00000000
00100000
00000000
01000000
,
00000000
10000000
00000000
00010000
00000000
01000000
00000000
00001000
,
00001000
00000000
00000000
01000000
00100000
00010000
00001000
00000000
,
00000000
00000100
00000000
00000100
00000000
00000010
00001000
00000000
,
00000001
00000100
00000001
00000000
00000010
00001000
00000010
00000000
,
00000010
00000100
00001000
00010000
00001000
00000000
00011000
00000000
,
00010000
00100000
10000000
00100000
00010000
00001000
00000100
00000001
,
00000100
00001000
00010000
00100000
10000000
00100000
00010000
00001000
,
00010000
01000000
10000000
01000000
00010000
00001000
00000010
00000001
,
00000010
00001000
00010000
01000000
10000000
01000000
00010000
00010000
,
00001000
00000100
00000001
00000100
00001000
00010000
00100000
10000000
,
00100000
00010000
00001000
00000100
00000001
00000100
00001000
00010000
,
00001000
00000010
00000001
00000010
00001000
00010000
01000000
10000000
,
01000000
00010000
00001000
00000010
00000001
00000010
00001000
00001000
,
00010000
00001000
00000000
00010000
00000000
00000000
01000000
00000000
00100000
00000000
00000000
00010000
00000000
00000000
01000000
00000000
,
00001000
00010000
00000000
00001000
00000000
00000100
00000010
00000000
00001000
00000001
00000000
00000100
00000000
00000000
00000010
00000000
,
00010000
00001000
00000000
00010000
00000000
00000000
00100000
00000000
01000000
00000000
00000000
00010000
00000000
00000000
00100000
00000000
,
00001000
00010000
00000000
00001000
00000000
00000010
00000100
00000000
00001000
00000001
00000000
00000010
00000000
00000000
00000100
00000000
,
00010000
00001000
00000000
00010000
00000000
00000000
01000000
00000000
00100000
00000000
00000000
00010000
00000000
00000000
01000000
00000000
,
00001000
00010000
00000000
00001000
00000000
00000100
00000010
00000000
00001000
00000001
00000000
00000100
00000000
00000000
00000010
00000000
,
00010000
00001000
00000000
00010000
00000000
00000000
00100000
00000000
01000000
00000000
00000000
00010000
00000000
00000000
00100000
00000000
,
01000000
10000000
01000000
00000000
00100000
00010000
00100000
00000000
00001000
01000000
00001000
00000000
00010000
00000000
00001000
00000000
,
00010000
00100000
00010000
00001000
00010000
01000000
00010000
00001000
,
00010000
00100000
10000000
00100000
00010000
00001000
00010000
00010000
,
00001000
00000010
00001000
00010000
00001000
00000100
00001000
00010000
,
00001000
00000010
00000001
00000010
00001000
00010000
00001000
00001000
,
00010000
01000000
00010000
00001000
00010000
00100000
00010000
00001000
,
00010000
01000000
10000000
01000000
00010000
00001000
00010000
00010000
,
00001000
00000100
00001000
00010000
00001000
00000010
00001000
00010000
,
00001000
00000100
00000001
00000100
00001000
00010000
00001000
00001000
,
00022000
00000000
00000000
00000000
,
00033000
00000000
00000000
00000000
,
00000000
00000000
00000000
00000000
;

//---------------dance-double - ----------------
#NOTES:
     dance-double:
     :
     Challenge:
     17:
     0.921135,0.961933,0.105187,0.021037,1.251722,613.000000,603.000000,10.000000,2.000000,0.000000,0.000000,0.921135,0.961933,0.105187,0.021037,1.251722,613.000000,603.000000,10.000000,2.000000,0.000000,0.000000:
// measure 0
00000000
00000000
00000000
00000000
,  // measure 1
00000000
00000000
00000000
00000000
,  // measure 2
00000000
00000000
00000000
00000000
,  // measure 3
00000000
00000000
00000000
00000000
,  // measure 4
00000000
00000000
00000000
00000000
,  // measure 5
00001001
00001000
00000010
00001000
00000010
00001000
00000010
00001000
,  // measure 6
00001100
00000100
00010000
00000100
00010000
00000100
00010000
00000100
,  // measure 7
00011000
00001000
01000000
00001000
01000000
00001000
01000000
00001000
,  // measure 8
01000000
00010000
01000000
00010000
10000000
00100000
10000000
00010000
00100000
00001000
00010000
00000100
00001000
00000001
00000010
00000000
,  // measure 9
00000100
00001000
00000010
00000000
00001010
00000000
00001000
00000000
00000001
00000100
00001000
00000000
00010000
00000000
00001000
00000000
,  // measure 10
00100000
00010000
01000000
00000000
01010000
00000000
00010000
00000000
10000000
01000000
00010000
00000000
00001000
00000000
00000010
00000000
,  // measure 11
00000001
00001000
00000100
00000000
00010100
00000000
00010000
00000000
00001000
00100000
00010000
00000000
10000000
00000000
00010000
00000000
,  // measure 12
10000000
00100000
00000000
00100000
00010000
00001000
00000000
00001000
00000100
00000010
00000000
00000010
00001000
00000100
00000000
00000100
,  // measure 13
00001000
00000100
00010000
00000000
00011000
00000000
00001000
00000000
00100000
00010000
10000000
01000000
00100000
00000000
01000000
00000000
,  // measure 14
10000000
00010000
01000000
00000000
01001000
00000000
00001000
00000000
00010000
00000100
00001000
00000001
00000010
00000000
00000001
00000000
,  // measure 15
00001000
00000010
00010000
00000000
00011000
00000000
00001000
00000000
01000000
00010000
00100000
01000000
10000000
00000000
00010000
00000000
,  // measure 16
01000000
00001000
00010000
00000000
00011000
00000000
00001000
00000000
00000100
00000010
00000000
00000010
00001000
00000000
00000001
00000000
,  // measure 17
00000010
00000100
00001000
00000100
00010000
00000000
00001000
00000100
00000001
00000000
00000010
00001000
00010000
00000000
00001000
00000000
,  // measure 18
01000000
00010000
10000000
00010000
00000000
00100000
01000000
00000000
10000000
01000000
00000000
00010000
00000000
00001000
00010000
00000000
,  // measure 19
00000010
00001000
00000001
00000100
00000000
00001000
00000100
00000000
00000010
00000000
00000000
00010000
00000000
00001000
00010000
00000000
,  // measure 20
00001000
00100000
00010000
00100000
00000000
10000000
00100000
00000000
01000000
00100000
00000000
00010000
10000000
01000000
00100000
00000000
,  // measure 21
01000000
00100000
00010000
00100000
00001000
00000000
00010000
00100000
10000000
00000000
01000000
00010000
00001000
00000000
00010000
00000000
,  // measure 22
00000010
00001000
00000001
00001000
00000000
00000100
00000010
00000000
00000001
00000010
00000000
00001000
00000000
00010000
00001000
00000000
,  // measure 23
01000000
00010000
10000000
00100000
00000000
00010000
00100000
00000000
01000000
00000000
00000000
00001000
00010000
00001000
00010000
00000000
,  // measure 24
00000010
00001000
00000100
00001000
00000001
00001000
00000100
00010000
00001000
01000000
00010000
01000000
00100000
01000000
00010000
10000000
,  // measure 25
02000000
00000000
00000000
00000000
00000000
00000000
00000000
00000000
00000000
00000000
00000000
00000000
13000000
01000000
00100000
00010000
,  // measure 26
00001000
00000000
00000000
00000000
00000000
00000010
00000100
00000100
,  // measure 27
00000100
00000000
00000000
00000001
00000000
00000000
00000001
00000000
00000000
00000000
00001000
00000000
00000000
00000000
00000100
00010000
,  // measure 28
00000100
00000000
00010000
00001000
00000000
00100000
00000000
00010000
,  // measure 29
00000000
00000000
10000000
00000000
00000000
00000000
01000000
00000000
00000000
00000000
00010000
00000000
00000000
00000000
00001000
00010000
,  // measure 30
00001000
00000000
00000000
00010000
00000010
00001000
00000100
00000010
,  // measure 31
00000000
00000001
00000000
00000001
00000000
00000000
00000000
00001000
,  // measure 32
00000001
00000100
00000001
00000100
00000010
00001000
00000010
00000000
00010000
00001000
00010000
00001000
00100000
00010000
00100000
00000000
,  // measure 33
01000000
10000000
01000000
00100000
01000000
00100000
00010000
00100000
00010000
00100000
00001000
00010000
00001000
00010000
00000100
00000000
,  // measure 34
00001000
00000001
00000100
00000001
00000100
00000010
00001000
00000000
00000010
00010000
00001000
00010000
00001000
00100000
00010000
00000000
,  // measure 35
10000000
00100000
01000000
00010000
01000000
00010000
10000000
00000000
01000000
00100000
01000000
00100000
00010000
00100000
00001000
00000000
,  // measure 36
00010000
00000010
00001000
00000001
00000100
00000001
00000100
00000000
00000001
00001000
00000100
00001000
00000100
00010000
00001000
00000000
,  // measure 37
00100000
00010000
10000000
00010000
01000000
00100000
10000000
00010000
10000000
01000000
00010000
00001000
00000010
00000001
00001000
00000000
,  // measure 38
00000100
00010000
00001000
01000000
00010000
10000000
00100000
00000000
01000000
00010000
10000000
01000000
00100000
00010000
00100000
00000000
,  // measure 39
00001000
00010000
00000010
00001000
00000001
00000100
00000010
00000000
00001000
00000100
00000010
00000001
00001000
00000010
00000100
00000000
,  // measure 40
00000001
00000010
00000100
00001000
00000010
00010000
00001000
00000000
00100000
00010000
10000000
01000000
00100000
00010000
01000000
00000000
,  // measure 41
00001000
00010000
00001000
00000100
00000010
00001000
00000100
00010000
00001000
00010000
00000000
00010000
01000000
00000000
01000000
00000000
,  // measure 42
10000000
00010000
00100000
10000000
00100000
00000000
01000000
00010000
00001000
00000000
00010000
00001000
00000010
00000000
00000001
00000000
,  // measure 43
00001000
00000010
00000100
00000001
00000000
00001000
00000100
00000000
00000001
00000100
00000000
00000010
00000000
00001000
00010000
00000000
,  // measure 44
00001000
00010000
01000000
10000000
00000000
01000000
00100000
00000000
00010000
00000000
00000000
01000000
00000000
00001000
00010000
00000000
,  // measure 45
00001000
00000100
00000001
00000100
00000000
00000010
00000100
00000000
00001000
00000100
00000000
00000001
00000010
00000100
00001000
00000000
,  // measure 46
00000001
00001000
00000100
00000001
00000100
00000000
00000010
00001000
00010000
00000000
00001000
00010000
01000000
00000000
10000000
00000000
,  // measure 47
00010000
01000000
00100000
10000000
00000000
00010000
00100000
00000000
10000000
00100000
00000000
01000000
00000000
00010000
00001000
00000000
,  // measure 48
00010000
00001000
00000010
00000001
00000000
00000010
00000100
00000000
00001000
00000000
00000000
00000010
00000000
00010000
00001000
00000000
,  // measure 49
00100000
00001000
00010000
00000010
00010000
00001000
00100000
00010000
10000000
01000000
00100000
00010000
00001000
00000100
00000010
00000000
,  // measure 50
00000001
00001000
00000100
00001000
00000100
00010000
00000100
00000000
00010000
00001000
01000000
00010000
01000000
00010000
10000000
00000000
,  // measure 51
01000000
00100000
01000000
10000000
00010000
01000000
00010000
00000000
10000000
00100000
01000000
00010000
01000000
00001000
00010000
00000000
,  // measure 52
00000010
00001000
00000001
00000010
00000001
00000010
00000100
00000000
00001000
00000010
00010000
00001000
00100000
00010000
00100000
00000000
,  // measure 53
01000000
10000000
01000000
00100000
01000000
10000000
01000000
00100000
01000000
00010000
00001000
00000010
00000001
00000010
00000100
00000000
,  // measure 54
00001000
00000001
00000100
00000001
00001000
00000100
00010000
00000000
00001000
01000000
00010000
01000000
00100000
10000000
00100000
00000000
,  // measure 55
10000000
01000000
00100000
00010000
00100000
00001000
00010000
00000000
00000010
00001000
00000100
00000010
00000100
00001000
00000001
00000000
,  // measure 56
00000100
00000010
00000100
00001000
00010000
00100000
01000000
00000000
00010000
00100000
01000000
10000000
00010000
00100000
00001000
00000000
,  // measure 57
00010000
00000100
00010000
00000010
00001000
00000100
00001000
00000010
00010000
00001000
00010000
01000000
00100000
01000000
00010000
00001000
,  // measure 58
00020000
00000000
00000000
00000000
,  // measure 59
00030000
00000000
00000000
00000000
;
