#VERSION:0.83;
#TITLE:A MINUTE (EXTENDED MIX);
#SUBTITLE:;
#ARTIST:X-TREME;
#TITLETRANSLIT:;
#SUBTITLETRANSLIT:;
#ARTISTTRANSLIT:;
#GENRE:;
#ORIGIN:;
#CREDIT:;
#BANNER:A MINUTE (EXTENDED MIX).png;
#BACKGROUND:A MINUTE (EXTENDED MIX)-bg.png;
#PREVIEWVID:;
#JACKET:A MINUTE (EXTENDED MIX)-jacket.png;
#CDIMAGE:;
#DISCIMAGE:;
#LYRICSPATH:;
#CDTITLE:;
#MUSIC:A MINUTE (EXTENDED MIX).ogg;
#OFFSET:0.000000;
#SAMPLESTART:22.266001;
#SAMPLELENGTH:15.000000;
#SELECTABLE:YES;
#BPMS:0.000=128.000;
#STOPS:;
#DELAYS:;
#WARPS:;
#TIMESIGNATURES:0.000=4=4;
#TICKCOUNTS:0.000=4;
#COMBOS:0.000=1;
#SPEEDS:0.000=1.000=0.000=0;
#SCROLLS:0.000=1.000;
#FAKES:;
#LABELS:0.000=Song Start;
#BGCHANGES:;
#KEYSOUNDS:;
#ATTACKS:
;

//---------------dance-single - ----------------
#NOTEDATA:;
#CHARTNAME:;
#STEPSTYPE:dance-single;
#DESCRIPTION:;
#CHARTSTYLE:;
#DIFFICULTY:Easy;
#METER:3;
#RADARVALUES:0.115107,0.177186,0.116622,0.148428,0.000000,76.000000,65.000000,11.000000,14.000000,0.000000,0.000000,0.000000,0.000000,0.000000,0.115107,0.177186,0.116622,0.148428,0.000000,76.000000,65.000000,11.000000,14.000000,0.000000,0.000000,0.000000,0.000000,0.000000;
#CREDIT:;
#NOTES:
0000
0000
0000
0000
,
0000
0000
0000
0000
,
0000
0000
0000
0000
,
0000
0000
0000
0000
,
0000
0000
0000
0000
,
0001
0000
0000
0000
,
1000
0000
0000
0000
,
0001
0000
1000
0000
,
2002
0000
0000
0000
,
0000
0000
0000
3003
,
0000
0000
0000
0000
,
1001
0000
1001
0000
,
1000
0000
0010
0100
,
0000
0000
0000
0000
,
1000
0000
0100
0000
,
0001
0000
0010
0000
,
1000
0000
1000
0001
,
0000
0000
0000
0000
,
0001
0000
0100
0000
,
1000
0000
0010
0000
,
2000
0000
0000
0000
,
0000
3000
0001
0100
,
0002
0000
0000
0000
,
0000
0003
0010
1000
,
0000
0100
0000
0100
,
0000
0010
0000
0010
,
0000
2002
0000
0000
,
0000
0000
0000
3003
,
0000
0000
0001
1000
,
0000
0000
0000
0000
,
0001
0000
0100
0000
,
1000
0000
0010
0000
,
0110
0000
0010
0100
,
0000
0000
0000
0000
,
1000
0000
0100
0000
,
0001
0000
0010
0000
,
0001
0000
1000
0000
,
1001
0000
0000
0000
,
0220
0000
0330
0000
,
0220
0000
0330
0000
,
0001
0000
1000
0000
,
0110
0000
0000
0000
,
2002
0000
3003
0000
,
2002
0000
3003
0000
,
0100
0000
0001
0000
,
1000
0000
0100
1000
,
0010
0000
1000
0000
,
0001
0000
0010
0001
;

//---------------dance-single - ----------------
#NOTEDATA:;
#CHARTNAME:;
#STEPSTYPE:dance-single;
#DESCRIPTION:;
#CHARTSTYLE:;
#DIFFICULTY:Medium;
#METER:7;
#RADARVALUES:0.308972,0.361793,0.254448,0.127224,0.000000,204.000000,180.000000,24.000000,12.000000,0.000000,0.000000,0.000000,0.000000,0.000000,0.308972,0.361793,0.254448,0.127224,0.000000,204.000000,180.000000,24.000000,12.000000,0.000000,0.000000,0.000000,0.000000,0.000000;
#CREDIT:;
#NOTES:
0000
0000
0000
0000
,
0000
0000
0000
0000
,
0000
0000
0000
0000
,
0000
0000
0000
0000
,
0000
0001
0000
1000
,
0000
0010
0000
0010
,
0000
0100
0000
0100
,
0000
0010
0000
0100
,
2002
0000
0000
3003
,
0000
0001
0000
0001
,
0000
1000
0000
1000
,
0010
1000
0001
0100
,
0001
0000
1000
0000
0001
1000
0001
0000
,
0000
1001
0000
1001
,
0001
0100
0001
0000
1000
0010
1000
0000
,
0001
0010
0001
0000
1000
0100
1000
0000
,
1000
0000
0001
0000
1000
0001
1000
0000
,
0000
1001
0000
1001
,
0001
0010
0001
0000
1000
0100
1000
0000
,
0001
0100
0001
0000
1000
0010
1000
0000
,
1010
0101
0000
1001
,
0020
1000
0001
0130
,
0001
1000
0100
0000
1000
0001
0010
0000
,
0002
0103
2000
3100
,
0011
1100
0000
1001
,
0200
0010
0001
1300
,
0001
0100
1000
0100
,
0002
2003
3020
0230
,
0301
0000
1000
0000
0001
1000
0001
0000
,
0000
1001
0000
0110
,
0010
1000
0010
0000
0100
0001
0100
0000
,
1000
0010
1000
0000
0001
0100
0001
0000
,
1000
0000
0001
0000
1000
0001
1000
0000
,
0000
0110
0000
1001
,
1000
1000
0100
0000
0010
0010
0001
0000
,
0001
0001
0010
0000
0100
0100
1000
0000
,
1000
0000
0001
0000
1000
0001
1000
0000
,
0000
0110
0000
1001
,
0010
0001
0010
0000
0100
1000
0100
0000
,
0001
0010
0001
0000
1000
0100
1000
0000
,
0001
0000
1000
0000
0001
1000
0001
0000
,
0000
1001
0000
0110
,
0001
0001
0010
0000
0100
0100
1000
0000
,
1000
1000
0100
0000
0010
0010
0001
0000
,
0001
0001
1000
1000
,
0001
1000
0101
1100
,
1000
1000
0001
0001
,
1000
0001
1010
0011
,
2002
0000
0000
3003
;

//---------------dance-single - ----------------
#NOTEDATA:;
#CHARTNAME:;
#STEPSTYPE:dance-single;
#DESCRIPTION:;
#CHARTSTYLE:;
#DIFFICULTY:Hard;
#METER:10;
#RADARVALUES:0.434681,0.491004,0.307457,0.275651,0.000000,287.000000,258.000000,29.000000,26.000000,0.000000,0.000000,0.000000,0.000000,0.000000,0.434681,0.491004,0.307457,0.275651,0.000000,287.000000,258.000000,29.000000,26.000000,0.000000,0.000000,0.000000,0.000000,0.000000;
#CREDIT:;
#NOTES:
0000
0000
0000
0000
,
0000
0000
0000
0000
,
0000
0000
0000
0000
,
0000
0000
0000
0000
,
2000
0000
3000
0000
0010
0010
2000
0000
,
3000
0000
0001
0001
1000
1000
0200
0010
,
0320
0000
0030
0000
0001
0001
0200
0000
,
0300
0000
0010
0010
1000
1000
0001
0000
,
2002
0000
3003
0000
1001
1001
0200
0000
,
0300
0000
0001
0010
0001
1000
0100
0000
,
0010
0001
0100
0001
1000
0100
1000
0001
,
0010
0010
1000
1000
0100
0100
1001
0000
,
0001
0001
1000
1000
0010
1000
0100
0000
,
0010
1001
0002
2003
,
3010
1000
0100
0000
0010
0001
0100
0000
,
0010
1000
0001
0100
0010
1000
0001
0000
,
0010
0110
0020
0230
,
0300
0000
0100
0001
1000
0001
0100
0000
,
1000
0100
0001
0000
0001
0100
1000
0000
,
0001
0100
1000
0100
0001
0100
1000
0000
,
1000
0010
0100
0001
0010
0001
1000
1000
,
0001
0001
1000
0100
0001
1000
0100
0000
,
0011
1000
0101
0000
1010
0001
1100
0000
,
0100
1000
0100
0001
1100
0000
0101
0000
,
0001
0010
0100
1000
0100
1000
0001
0001
,
1000
1000
0001
1000
0100
0001
1000
0000
,
0011
0000
1001
0000
1100
0000
0010
1001
,
0000
0101
0000
0100
0101
0000
1100
0000
,
0001
0001
1000
1000
0100
1000
0010
0000
,
0000
1001
0002
2003
,
3100
1000
0010
0000
0100
0001
0010
0000
,
0100
1000
0001
0010
0100
1000
0001
0000
,
0000
0110
0200
0320
,
0030
0000
0010
0001
1000
0001
0010
0000
,
1000
0100
0001
0000
0001
0100
1000
0000
,
0001
0100
1000
0100
0001
0100
1000
0001
,
0100
0100
0001
0001
1000
0001
0100
0000
,
0001
1000
0010
1000
0001
0000
1001
0000
,
2000
0100
3100
0000
0002
0010
0013
0000
,
2000
0100
3100
0000
0002
0010
0013
0000
,
2000
3002
0023
0230
,
0000
0300
0110
1001
,
0001
0100
0100
0000
1000
0100
0100
0000
,
0001
0010
0100
1000
1000
0100
0001
0000
,
0010
1000
0001
1000
0001
1000
0100
0010
,
0001
1000
0001
1000
0011
0000
1100
0000
,
0100
0001
1000
0001
1000
0001
0010
0100
,
1000
0001
1000
0001
1100
0000
0011
0000
,
2002
0000
0000
3003
;

//---------------dance-double - ----------------
#NOTEDATA:;
#CHARTNAME:;
#STEPSTYPE:dance-double;
#DESCRIPTION:;
#CHARTSTYLE:;
#DIFFICULTY:Easy;
#METER:2;
#RADARVALUES:0.152971,0.178113,0.084816,0.106020,0.000000,101.000000,93.000000,8.000000,10.000000,0.000000,0.000000,0.000000,0.000000,0.000000,0.152971,0.178113,0.084816,0.106020,0.000000,101.000000,93.000000,8.000000,10.000000,0.000000,0.000000,0.000000,0.000000,0.000000;
#CREDIT:;
#NOTES:
00000000
00000000
00000000
00000000
,
00000000
00000000
00000000
00000000
,
00000000
00000000
00000000
00000000
,
00000000
00000000
00000000
00000000
,
00022000
00000000
00033000
00000100
,
00000000
00010000
00000000
00001000
,
00000000
00100000
00000000
00010000
,
00000000
01000000
00000000
00000000
,
00022000
00000000
00033000
00000100
,
00000000
00001000
00000000
00000001
,
00000000
00001000
00000100
00010000
,
00000000
00001000
00000000
00010000
,
00000020
00000000
00010030
00001000
,
00000000
01000000
00000000
00000000
,
00100000
00010000
00000000
00000000
,
00010000
00001000
00000000
00000000
,
00020000
00000000
00030010
00001000
,
00000000
00000100
00000000
00000000
,
00010000
00001000
00000000
00000000
,
00010000
00000010
00001000
00000000
,
00000001
00000000
00001000
00000000
,
00010000
00000000
10000000
00000000
,
10000000
00000000
00010000
00000000
,
00001000
00000000
00000001
00000000
,
00000100
00000000
00000010
00000000
,
00001000
00000000
00010000
00000000
,
01000000
00000000
00100000
00000000
,
00010000
00001000
00000010
00000000
,
00000002
00000000
00001003
00000000
,
00000010
00000000
00000100
00000000
,
00001000
00010000
00000000
00000000
,
00010000
00100000
00000000
00000000
,
20000000
00000000
30010000
00000000
,
00100000
00000000
01000000
00000000
,
00010000
00001000
00000000
00000000
,
00000110
00000000
00011000
00000000
,
02000000
00000000
03100000
10000000
,
00000000
00010000
00000000
00000000
,
00100000
00001000
00000000
00000000
,
00001000
00000100
00000000
00000000
,
00000020
00000000
00000130
00000001
,
00000000
00001000
00000000
00000000
,
00000001
00000100
00000000
00000000
,
00001001
00000000
00011000
00000000
,
00010000
00000000
00100000
00000000
,
10000000
00000000
01000000
00011000
,
00001000
00000000
00000010
00000000
,
00000001
00000000
00000100
00001000
,
00011000
00000000
00000000
00000000
;

//---------------dance-double - ----------------
#NOTEDATA:;
#CHARTNAME:;
#STEPSTYPE:dance-double;
#DESCRIPTION:;
#CHARTSTYLE:;
#DIFFICULTY:Medium;
#METER:5;
#RADARVALUES:0.372584,0.407116,0.137826,0.031806,0.000000,246.000000,233.000000,13.000000,3.000000,0.000000,0.000000,0.000000,0.000000,0.000000,0.372584,0.407116,0.137826,0.031806,0.000000,246.000000,233.000000,13.000000,3.000000,0.000000,0.000000,0.000000,0.000000,0.000000;
#CREDIT:;
#NOTES:
00000000
00000000
00000000
00000000
,
00000000
00000000
00000000
00000000
,
00000000
00000000
00000000
00000000
,
00000000
00000000
00000000
00000000
,
00001100
00000000
00000010
00000000
00000001
00001000
00000100
00000000
,
00000001
00000000
00000100
00000000
00001000
00000010
00010000
00000000
,
01000000
00000000
00100000
00000000
00010000
10000000
01000000
00000000
,
10000000
00000000
00010000
00000000
01000000
00001000
00010000
00000000
,
00000110
00000000
00000001
00000000
00000100
00001000
00010000
00000000
,
00011000
00000000
00010000
00000000
01000000
10000000
00100000
00000000
,
10010000
00000000
00000000
01000000
00010000
00100000
00010000
00000000
,
00011000
00000000
00010000
00000000
00001000
00000010
00000010
00000000
,
00000001
00001000
00000001
00001000
00000010
00000010
00001000
00000000
,
00000100
00001000
00000010
00000100
,
00010000
00001000
01000000
00000000
00010000
00000000
01000000
00000000
,
00100000
10000000
01000000
00000000
00100000
00010000
00000000
00000000
,
10000000
00010000
10000000
00010000
00100000
00100000
00010000
00000000
,
01000000
00010000
00100000
01000000
,
00001000
00010000
00000100
00000000
00001000
00000000
00000100
00000000
,
00000012
00001000
00000013
00000100
,
00001000
00000001
00000100
00000000
00000001
00001000
00000100
00000000
,
00000000
00000000
00010000
00001000
00010000
00001000
01000000
00000000
,
00010000
00000000
00100000
00000000
10000000
00100000
00010000
00000000
,
01000000
00000000
00010000
00000000
00100000
01000000
00010000
00000000
,
00001000
00000100
00000010
00000000
00010000
00000100
00001000
00000100
,
00010000
00001000
01000000
00000000
00010000
00000000
01100000
00000000
,
00110000
00000000
00001000
00000100
00000010
00000100
00000001
00000100
,
00010000
00001000
00010000
00000000
00100000
00000000
10010000
00000000
,
10000000
00010000
10000000
00010000
00100000
00100000
00010000
00000000
,
01000000
00010000
00100000
01000000
,
00001000
00010000
00000100
00000000
00001000
00000000
00000100
00000000
,
00000010
00000001
00000100
00000000
00000001
00001000
00000000
00000000
,
00000001
00001000
00000001
00001000
00000010
00000010
00001000
00000000
,
00000100
00001000
00000010
00000100
,
00010000
00001000
01000000
00000000
00010000
00000000
01000000
00000000
,
20100000
00010000
00100000
31000000
,
00100000
00010000
00001000
00000100
00000010
00000010
00000001
00000000
,
00000010
00001000
00010000
01000000
,
00100000
00001000
00010000
00000000
00000010
00000000
00000100
00000000
,
00000001
00001000
00000100
00000000
00000100
00001000
00000000
00000000
,
00000010
00001000
00010000
01000000
00100000
00100000
10000000
00000000
,
00100000
00010000
00001000
00000100
,
00000010
00010000
00001000
00000000
00100000
00000000
01000000
00000000
,
20100000
00010000
00100000
31000000
,
00100000
00010000
00000000
01000000
00001000
00010000
00001000
00010000
,
00000010
00001000
00000000
00000100
00010000
00000000
00011000
00000000
,
00100000
00010000
00000000
01000000
00001000
00010000
00001000
00010000
,
00000010
00001000
00000000
00000100
00010000
00000000
00001000
00000000
,
00000110
00000000
00000000
00000000
;

//---------------dance-double - ----------------
#NOTEDATA:;
#CHARTNAME:;
#STEPSTYPE:dance-double;
#DESCRIPTION:;
#CHARTSTYLE:;
#DIFFICULTY:Hard;
#METER:7;
#RADARVALUES:0.477089,0.460391,0.424079,0.063612,0.015903,315.000000,275.000000,40.000000,6.000000,0.000000,0.000000,0.000000,0.000000,0.000000,0.477089,0.460391,0.424079,0.063612,0.015903,315.000000,275.000000,40.000000,6.000000,0.000000,0.000000,0.000000,0.000000,0.000000;
#CREDIT:;
#NOTES:
00000000
00000000
00000000
00000000
,
00000000
00000000
00000000
00000000
,
00000000
00000000
00000000
00000000
,
00000000
00000000
00000000
00000000
,
00000000
10010000
00000000
01000000
00000000
00010000
00001000
00000000
,
00000000
00000100
00000000
00000001
00000010
00000100
00002000
00000000
,
00000000
00003002
00000000
00000103
00000000
00001000
00020000
00000000
,
00000000
01000000
00000000
00001000
00000000
01030000
01000000
00000000
,
00011000
00000100
00000010
00001001
00000000
00000100
00001000
00000000
,
00110000
01000000
00100000
10010000
00000000
01000000
00010000
00000000
,
00001000
00001000
00000010
00000010
00000001
00000001
00000100
00000100
,
00001000
00001000
00100000
00100000
00010000
10000000
01100000
00000000
,
00100000
00001000
00010000
01000000
10000000
00100000
00010000
00001000
,
00000000
00011000
00000000
00001010
00000000
00000001
00000100
00001000
,
00100000
00100000
02000000
00000000
00000000
00010000
03000000
00010000
,
00001000
00000000
00000010
00000000
00000100
00000000
00001000
00000100
00000010
00000000
00000010
00000000
00000000
00000000
00001001
00000000
,
00000010
00001000
00010000
01000000
00100000
00100000
00010000
00010000
,
00000000
01100000
00000000
10010000
00000000
00100000
01000000
00010000
,
00001000
00000010
00000100
00000000
00000000
00000001
00001000
00000020
,
00000000
00010030
00000000
00002000
00000000
00000000
00103000
00000000
,
10010000
00000000
00100000
01000000
00001000
00010000
00000010
00001000
,
00001001
00000000
00000010
00000001
00000100
00000100
00001000
00010000
,
00011000
00000000
00100000
10000000
01000000
00010000
01000000
10000000
,
10100000
00000000
00010000
00001000
00000100
00000100
00000001
00000010
,
00000110
00000000
00001000
00000001
00000100
00010000
00001000
00100000
,
01100000
00000000
00010000
01000000
10000000
10000000
01000000
00010000
,
00011000
00000000
00001000
00000010
00000001
00000100
00000010
00000100
,
00011000
00000000
00100000
10000000
01000000
00010000
00001000
00010000
,
00000000
00110000
00000000
00001100
00010000
00001000
00100000
01000000
,
00000000
11000000
00000000
00100000
00001000
00010000
00000010
00001000
,
00000001
00000010
00000100
00000000
00001100
00000000
00011000
00000000
,
00100000
00000000
01000000
00000000
10000000
00000000
00010000
10000000
01000000
00000000
00100000
00000000
00000000
00000000
11000000
00000000
,
00000000
00110000
00000000
01010000
00001000
00010000
00000010
00001000
,
00000000
00000101
00000000
00000010
00010000
00001000
00100000
00000000
,
10000000
00100000
01000000
01010000
00000000
00011000
00000000
00001010
,
00001000
00001000
00000100
00000100
00010000
00010000
00001000
00001000
,
00000010
00000100
00000001
00000100
00001000
00000100
00010000
00000000
,
00110000
01100000
00010000
00011000
,
00000010
00000001
00000100
00000000
00001000
00000000
00010000
00000000
,
00100000
00000000
01000000
00000000
00010000
00000000
10000000
01000000
00100000
00000000
00010000
00000000
00000000
00000000
00000000
00000000
,
00100000
01000000
10000000
01000000
00010000
00010000
00001000
00000000
,
00001010
00000110
00001000
00011000
,
00010000
00010000
01000000
01000000
10000000
10000000
00010000
00010000
,
00010000
00010000
00000010
00000010
00001000
00001000
00000001
00000001
,
00000100
00001000
00000000
00100000
00100000
01000000
10000000
01000000
,
00010000
00001000
00000000
00000100
00000010
00000000
00011000
00000000
,
00010000
00001000
00000000
00000100
00000010
00000100
00000001
00000100
,
00001000
00010000
00000000
01000000
00100000
00000000
11000000
00000000
,
00110000
01000000
00010000
00000000
00000000
00000000
00000000
00000000
;

//---------------dance-single - ----------------
#NOTEDATA:;
#CHARTNAME:;
#STEPSTYPE:dance-single;
#DESCRIPTION:;
#CHARTSTYLE:;
#DIFFICULTY:Beginner;
#METER:3;
#RADARVALUES:0.127224,0.258423,0.063612,0.148428,0.000000,84.000000,78.000000,6.000000,14.000000,0.000000,0.000000,0.000000,0.000000,0.000000,0.127224,0.258423,0.063612,0.148428,0.000000,84.000000,78.000000,6.000000,14.000000,0.000000,0.000000,0.000000,0.000000,0.000000;
#CREDIT:;
#NOTES:
0000
0000
0000
0000
,
0000
0000
0000
0000
,
0000
0000
0000
0000
,
0000
0000
0000
0000
,
0001
0000
0000
0000
,
0100
0000
0000
0000
,
1000
0000
0000
0000
,
0010
0000
0000
0000
,
0200
0000
0000
0000
,
0300
0000
0000
0000
,
2002
0000
0000
0000
,
3003
0000
0000
0000
,
0010
0010
0010
0020
,
0030
0000
0000
0100
,
0001
1000
0000
0010
,
1000
0001
0000
0000
,
0001
0001
0001
0002
,
0003
0000
0000
0010
,
0100
0001
0000
0010
,
1000
0100
0000
0000
,
1000
0000
0000
0000
,
0100
0000
0000
0000
,
0010
0000
0000
0000
,
0001
0000
0000
0000
,
0010
0000
0000
0000
,
0100
0000
0000
0000
,
1000
0000
0000
0000
,
0001
0000
0000
0000
,
0100
0100
0100
0200
,
0300
0000
0000
0010
,
0001
1000
0000
0001
,
0010
1000
0000
0000
,
1000
1000
1000
2000
,
3000
0000
0000
0010
,
0100
0010
0000
1000
,
0001
1000
0000
0000
,
0100
0001
1000
2002
,
3003
0000
0000
0110
,
0100
0110
0000
1000
,
1001
0001
0000
0010
,
0100
0001
0010
0220
,
0330
0000
0000
0010
,
1000
0001
0000
0010
,
0001
1000
0000
0000
,
0020
0000
0000
0000
,
0030
0000
0000
0000
,
0020
0000
0000
0000
,
0030
0000
0000
0000
,
0020
0000
0000
0030
;

//---------------dance-single - ----------------
#NOTEDATA:;
#CHARTNAME:;
#STEPSTYPE:dance-single;
#DESCRIPTION:;
#CHARTSTYLE:;
#DIFFICULTY:Challenge;
#METER:14;
#RADARVALUES:0.642177,0.852797,0.371069,0.084816,0.593711,424.000000,389.000000,35.000000,8.000000,0.000000,0.000000,0.000000,0.000000,0.000000,0.642177,0.852797,0.371069,0.084816,0.593711,424.000000,389.000000,35.000000,8.000000,0.000000,0.000000,0.000000,0.000000,0.000000;
#CREDIT:;
#NOTES:
// measure 0
0000
0000
0000
0000
,  // measure 1
0000
0000
0000
0000
,  // measure 2
0000
0000
0000
0000
,  // measure 3
0000
0000
0000
0000
,  // measure 4
1000
0100
0010
0001
1000
0001
0100
0001
1000
0100
0010
0001
1000
0010
0100
0001
,  // measure 5
1000
0010
0100
0001
1000
0100
0010
0001
1000
0010
0100
0001
1000
0100
0010
0001
,  // measure 6
0100
0010
1000
0001
0100
0010
1000
0001
0010
0100
1000
0001
0100
0010
1000
0100
,  // measure 7
0010
0001
1000
0010
0100
0001
1000
0100
0010
0001
0010
0100
1000
0001
0100
0010
,  // measure 8
1000
0000
2200
3300
0001
1000
2002
3003
,  // measure 9
0101
0000
0000
0100
0010
0000
1000
0000
0001
0000
0100
0000
0220
0000
0330
0000
,  // measure 10
0010
1000
0000
0000
0010
1000
0000
0000
0001
0100
0000
0000
0001
0100
0000
0000
0001
0010
0000
0000
0001
0010
0000
0000
0100
1000
0000
0000
0100
1000
0000
0000
,  // measure 11
0010
0100
0000
0000
0010
0100
0000
0000
1000
0001
0000
0000
1000
0001
0000
0000
2000
0000
0000
0000
0100
0000
0000
0000
3100
0000
1000
0000
0001
0000
0100
0000
,  // measure 12
0010
0000
0001
1000
0001
0100
1000
0000
,  // measure 13
1000
1000
0100
0000
0001
0001
0100
0000
,  // measure 14
0010
1000
0010
0000
0101
0000
1001
0000
,  // measure 15
0010
0001
0010
0000
1100
0001
0000
0000
,  // measure 16
0010
0000
0001
1000
0001
0100
1000
0000
,  // measure 17
1000
0100
0001
0000
1000
0100
0001
0000
,  // measure 18
0010
0001
0010
0000
1100
0000
1001
0000
,  // measure 19
1010
0000
0110
0000
0101
0000
1001
0001
,  // measure 20
0100
0001
1000
0001
0100
0000
0010
0000
0001
1000
0100
1000
0001
0000
0020
0000
,  // measure 21
0100
0000
0130
0000
0010
0000
0100
0000
0001
1000
0100
0010
0001
0000
1000
0000
,  // measure 22
0001
0000
0100
0001
0000
0000
0100
0000
0010
1000
0000
0010
0100
0001
1000
0001
,  // measure 23
0100
0000
0010
0001
0100
0010
1000
0010
0100
0001
1000
0010
0100
0001
0010
0100
,  // measure 24
1000
0100
0000
0100
1000
0000
0100
0000
0010
0001
0000
0001
0010
0000
0001
0000
,  // measure 25
0100
0010
0000
0010
0100
0000
0010
0000
1000
0010
0000
0010
0100
0000
0010
0000
,  // measure 26
0001
0010
0000
0010
0100
0000
1000
0100
0000
0100
0010
0000
0001
0100
0010
1000
,  // measure 27
0100
0010
0000
0010
0100
0000
0001
1000
0000
1000
0001
0100
0010
1000
0100
0000
,  // measure 28
0010
0000
0001
1000
0001
0100
1000
0000
,  // measure 29
1000
1000
0001
0000
0001
0001
1000
0000
,  // measure 30
0010
1000
0010
0000
0101
0000
1001
0000
,  // measure 31
0010
0001
0010
0000
1100
0001
0000
0000
,  // measure 32
0010
0000
1000
0001
1000
0100
0001
0000
,  // measure 33
0001
0001
1000
0000
1000
1000
0001
0000
,  // measure 34
0010
1000
0010
0000
0101
0000
1001
0000
,  // measure 35
0011
0000
0110
0000
1000
0100
0001
0000
,  // measure 36
1001
0110
1000
0010
0001
0100
1001
0000
,  // measure 37
1000
1000
1000
0000
1001
0110
0000
0000
,  // measure 38
0001
0100
1000
0000
0001
0100
1000
0000
,  // measure 39
1000
0100
0001
0000
0101
1000
0000
0000
,  // measure 40
0010
0000
0001
1000
0001
0100
1000
0000
,  // measure 41
0001
0001
0001
0000
1100
0000
0001
0000
,  // measure 42
0010
1000
0010
0000
0101
0000
1000
0000
,  // measure 43
0011
0000
1100
0000
1000
0001
0100
0000
,  // measure 44
1001
0001
0100
0010
1000
0100
0010
0001
1000
0001
0100
0010
1000
0000
0000
0000
,  // measure 45
1001
1000
0001
0100
0010
1000
0010
0100
0001
1000
0000
0000
1001
0000
0000
0000
,  // measure 46
0110
0010
1000
0001
0100
0010
1000
0010
0100
0001
1000
0100
0010
0000
0000
0000
,  // measure 47
0101
0001
0100
0010
1000
0100
0010
0001
1000
0001
0100
0010
1000
0000
0000
0000
,  // measure 48
0010
0001
0000
0001
0100
0000
0010
0000
1000
0100
0000
0100
0010
0000
0000
0000
;
