#TITLE:A LOVE LIKE THIS;
#SUBTITLE:;
#ARTIST:PANDORA;
#TITLETRANSLIT:;
#SUBTITLETRANSLIT:;
#ARTISTTRANSLIT:;
#GENRE:;
#CREDIT:;
#BANNER:A LOVE LIKE THIS.png;
#BACKGROUND:A LOVE LIKE THIS-bg.png;
#LYRICSPATH:;
#CDTITLE:;
#MUSIC:A LOVE LIKE THIS.ogg;
#OFFSET:0.000000;
#SAMPLESTART:39.450001;
#SAMPLELENGTH:15.000000;
#SELECTABLE:YES;
#DISPLAYBPM:127.000000;
#BPMS:0.000000=126.300003
,4.000000=126.999992
;
#STOPS:
;
#BGCHANGES:;
#KEYSOUNDS:;
#ATTACKS:;

//---------------dance-single - ----------------
#NOTES:
     dance-single:
     :
     Beginner:
     2:
     0.136702,0.207707,0.112578,0.000000,0.000000,85.000000,75.000000,10.000000,0.000000,0.000000,0.000000,0.136702,0.207707,0.112578,0.000000,0.000000,85.000000,75.000000,10.000000,0.000000,0.000000,0.000000:
0000
0000
0000
0000
,
0000
0000
0000
0000
,
0000
0000
0000
0100
,
0000
0000
0000
0100
,
0000
0000
0000
0000
,
1000
0000
1000
0000
,
0001
0000
0001
0000
,
1000
0000
0100
0000
,
0001
0000
0100
0000
,
1000
0000
1000
0000
,
0001
0000
0001
0000
,
1000
0000
0010
0000
,
0001
0000
0010
0000
,
1000
0000
0000
1001
,
0000
1000
0000
1001
,
0000
0100
0000
1001
,
0000
0010
0000
1001
,
0000
0001
0000
0000
,
0001
0000
0010
0000
,
1000
0000
0100
0000
,
0010
0000
0100
0000
,
0010
0000
0100
0000
,
0010
0000
0100
0000
,
1000
0000
0001
0000
,
0001
0000
0110
0000
,
0010
0000
0100
0000
,
0010
0000
0100
0000
,
1000
0000
0001
0000
,
1000
0000
0010
0000
,
0100
0000
0010
0000
,
0100
0100
0100
0000
,
0100
0000
0010
0000
,
0100
0000
0001
0000
,
1000
0000
0010
0000
,
0001
0000
0010
0000
,
0100
0000
0010
0000
,
0100
0000
1000
0000
,
0110
0000
1001
0000
,
0110
0000
1001
0000
,
0100
0000
0001
0000
,
0010
0000
0100
0000
,
0110
0000
0000
0000
,
0000
0000
0000
0000
;

//---------------dance-single - ----------------
#NOTES:
     dance-single:
     :
     Easy:
     5:
     0.220332,0.276943,0.281446,0.000000,0.000000,137.000000,112.000000,25.000000,0.000000,0.000000,0.000000,0.220332,0.276943,0.281446,0.000000,0.000000,137.000000,112.000000,25.000000,0.000000,0.000000,0.000000:
0000
0000
0000
0000
,
0000
0000
0000
0000
,
0001
0000
0000
0100
,
0010
0000
0000
0100
,
1001
0000
0000
0000
,
1000
0000
1000
0000
,
0001
0000
0001
0000
,
1000
0000
0100
0000
,
0001
0010
0100
0000
,
1000
0000
1000
0000
,
0001
0000
0001
0000
,
1000
0000
0010
0000
,
0001
0100
0010
0000
,
1000
0001
0000
1001
,
0001
1000
0000
1001
,
0010
0100
0000
1001
,
0100
0010
0000
1001
,
1000
0001
0100
0000
,
0001
1000
0010
0000
,
1000
0001
0100
0000
,
0010
0000
0100
0000
,
0010
1001
0100
0000
,
0010
1001
0100
0000
,
1000
0110
0001
1000
,
0001
1000
0110
0000
,
0010
1001
0100
0000
,
0010
1001
0100
0000
,
1000
0110
0001
0110
,
1000
0001
0010
1001
,
0100
0000
0010
0000
,
0100
0100
0100
0000
,
0100
1001
0010
1001
,
0100
0010
0001
0000
,
1000
0100
0010
0000
,
0001
0100
0010
0000
,
0100
1001
0010
1001
,
0100
0010
1000
0001
,
0110
0000
1001
0000
,
0110
0000
1001
0000
,
0100
0010
0001
1000
,
0010
1001
0100
1001
,
0110
0000
0000
0000
,
0000
0000
0000
0000
;

//---------------dance-single - ----------------
#NOTES:
     dance-single:
     :
     Medium:
     8:
     0.340952,0.369257,0.146352,0.000000,0.000000,212.000000,199.000000,13.000000,0.000000,0.000000,0.000000,0.340952,0.369257,0.146352,0.000000,0.000000,212.000000,199.000000,13.000000,0.000000,0.000000,0.000000:
0000
0000
0000
0000
,
0000
0000
0000
0000
,
0001
0000
0000
0100
0000
0000
0000
0000
,
1000
0000
0000
0100
0000
0000
0000
0000
,
0001
1000
0000
0000
0000
0000
0000
0000
,
0100
0000
0100
0000
0010
0001
0010
0000
,
0100
0000
0100
0000
1000
0010
1000
0000
,
0100
0000
0100
0000
0010
0001
0100
0010
,
1000
0000
1000
0000
1000
0000
0100
0010
,
0001
0000
0001
0000
1000
0010
1000
0000
,
0100
0000
0100
0000
0010
0001
0010
0000
,
0100
0000
0100
0000
1000
0010
0100
0001
,
1000
0000
1000
0000
1000
0000
0100
0010
,
0001
0000
1000
0000
0001
0100
0000
0100
,
0000
0010
1000
0000
0001
0000
1000
0000
,
0100
0000
0010
0000
0100
1000
0000
1000
,
0000
0001
0100
0000
0010
0000
1000
0000
,
0001
0010
0100
0000
,
1000
0000
0001
0100
0001
0000
0000
0000
,
1000
0100
0001
0100
1000
0000
0000
0000
,
0001
0000
0100
0010
0000
0010
0100
0000
,
0001
1000
0100
0010
0100
0000
1001
0000
,
0100
0010
1000
0001
1000
0000
0110
0000
,
0001
0000
1000
0100
1000
0010
0100
0000
,
0001
0010
0100
1000
0100
0000
0101
0000
,
1000
0100
0010
0001
0100
0000
1010
0000
,
0001
0010
0100
1000
0010
0000
0101
0000
,
1000
0000
0100
0010
0000
0010
0100
0000
,
1000
0000
0001
1000
0000
1000
0001
0000
,
0100
0010
1000
0100
0010
0000
1001
0000
,
0010
0100
0001
0010
0100
0000
1001
0000
,
0100
0000
0010
1000
0000
0001
0010
0000
,
0100
1000
0001
0100
0010
0000
1001
0000
,
0010
0100
1000
0001
0100
0000
1010
0000
,
0100
0010
0001
1000
0010
0000
0101
0000
,
1000
0000
0100
0001
0000
1000
0010
0000
,
0100
0000
0001
0010
0000
1000
0010
0100
,
0001
0000
1100
0000
0010
0001
0100
0000
,
0010
0000
1001
0000
0100
0010
0001
0000
,
1000
0010
0001
0000
1000
0100
0001
0000
,
1000
0010
0100
0001
1000
0100
0010
0000
,
1001
0000
0000
0000
,
0000
0000
0000
0000
;

//---------------dance-single - ----------------
#NOTES:
     dance-single:
     :
     Hard:
     11:
     0.387591,0.392336,0.382766,0.000000,0.129465,241.000000,207.000000,34.000000,0.000000,0.000000,0.000000,0.387591,0.392336,0.382766,0.000000,0.129465,241.000000,207.000000,34.000000,0.000000,0.000000,0.000000:
0000
0000
0000
0000
,
0000
0000
0000
0000
,
0001
0000
0000
1000
0000
0000
0100
0000
0000
0000
0010
0000
0100
0000
0000
0000
,
1000
0000
0000
0001
0000
0000
0100
0000
0000
0000
0010
0000
1000
0000
0001
0000
,
0110
1001
0000
0000
0000
0000
0000
0000
,
0010
0001
0100
0001
0000
1000
0100
1000
,
0000
0001
0100
0001
0000
1000
0010
1000
,
0001
0010
0100
0000
,
1001
0000
0000
0110
0000
0000
1001
0000
0000
0000
0000
0000
0000
0000
0000
0000
,
0010
1000
0100
1000
0000
0001
0100
0001
,
0000
1000
0100
1000
0000
0001
0100
0010
,
1000
0100
0010
0000
,
1001
0000
0000
0110
0000
0000
1001
0000
0000
0000
0000
0000
0100
0000
0000
0000
,
0000
1000
0100
1000
0000
0001
0010
0001
,
0000
1000
0100
1000
0000
0001
0010
0001
,
0000
1000
0010
0100
0000
0001
0010
0100
,
1000
0000
0000
0001
0000
0000
0100
0000
0000
0000
0000
0000
0000
0000
0000
0000
,
0010
1000
0001
0010
0000
0100
1000
0001
,
0000
1000
0001
0100
0000
0010
1000
0001
,
0000
0001
1000
0100
0000
0010
0001
1000
,
0010
0000
0000
0100
0000
0000
0001
0000
0000
0000
0000
0000
0000
0000
1000
0100
,
1000
0000
0000
0101
0000
0000
1100
0000
0000
0000
0000
0000
0000
0000
0001
0100
,
0001
0000
0000
1100
0000
0000
0101
0000
0000
0000
0000
0000
0000
0000
1000
0100
,
1000
0000
0000
0001
0000
0000
0100
0000
0000
0000
0010
0000
1000
0000
0100
0000
,
0000
0000
0010
0000
0000
0000
0100
0000
0000
0000
0000
0000
0000
0000
1000
0100
,
0010
0000
0000
1001
0000
0000
0110
0000
0000
0000
0000
0000
0000
0000
0001
0100
,
0010
0000
0000
1001
0000
0000
0110
0000
0000
0000
1000
0000
0100
0000
0000
0000
,
0010
0001
1000
0100
0000
0100
0010
0100
,
0000
0010
0001
0010
0000
0100
1000
0000
,
0101
0000
0000
1100
0000
0000
0101
0000
0000
0000
1000
0000
0100
0000
0000
0000
,
0101
0000
0000
1100
0000
0000
0101
0000
0000
0000
1000
0000
0010
0000
0000
0000
,
0100
0001
0010
0100
0000
1000
0010
1000
,
0000
0001
0010
0001
0000
1000
0100
0000
,
0101
0000
0000
1010
0000
0000
1100
0000
0000
0000
0000
0000
0000
0000
0010
0001
,
0100
0000
0000
1010
0000
0000
1100
0000
0000
0000
0010
0000
0001
0000
0000
0000
,
1000
0010
0100
0001
0000
1000
0100
1000
,
0000
0010
0001
0010
0000
1000
0100
0000
,
0011
0000
0000
1100
0000
0000
0011
0000
0000
0000
1000
0000
0100
0000
0000
0000
,
0011
0000
0000
0101
0000
0000
1010
0000
0000
0000
0001
0000
0100
0000
0000
0000
,
0010
1000
0100
0010
0000
0010
0001
0000
,
0001
0100
0010
1000
0000
1000
0100
0010
,
1001
0000
0000
0000
,
0000
0000
0000
0000
;

//---------------dance-double - ----------------
#NOTES:
     dance-double:
     :
     Easy:
     5:
     0.188167,0.230786,0.168868,0.000000,0.000000,117.000000,102.000000,15.000000,0.000000,0.000000,0.000000,0.188167,0.230786,0.168868,0.000000,0.000000,117.000000,102.000000,15.000000,0.000000,0.000000,0.000000:
00000000
00000000
00000000
00000000
,
00000000
00000000
00000000
00000000
,
00010000
00000000
00000000
00000000
,
00001000
00000000
00000000
00000000
,
00001001
00000000
00000000
00000000
,
00000010
00000000
00000010
00000000
,
00000100
00001000
00000010
00000000
,
00010000
00000000
00010000
00000000
,
00001000
00000000
00001000
00000000
,
01000000
00000000
01000000
00000000
,
00100000
10000000
01000000
00000000
,
00010000
00000000
00010000
00000000
,
00001000
00000000
00001000
00010000
,
00100000
00000000
10000000
00000000
,
01000000
00000000
00010000
00000000
,
00001000
00000000
00000100
00000000
,
00000001
00000010
00000100
00000000
,
00010000
00000000
00001000
00010000
,
00000010
00000000
00000100
00000010
,
00010000
00000000
00001000
00000000
,
00100000
01000000
10000000
00000000
,
00100000
01000000
10010000
00000000
,
01000000
00100000
10010000
00000000
,
01000000
00001000
00010000
00000010
,
00001000
00000001
00000110
00000000
,
00000010
00000100
00001001
00000000
,
00000100
00000010
00001001
00000000
,
00000100
00010000
00001000
00100000
,
01000000
10000000
00010000
01000000
,
10010000
00000000
01000000
00000000
,
00010000
00001000
00010000
00000000
,
00000010
00001000
01000000
00010000
,
00000010
00000100
00001001
00000000
,
00000100
00000000
00011000
00000000
,
00100000
00000000
10010000
00000000
,
01000000
00100000
00010000
01000000
,
10010000
00000000
01100000
00000000
,
00010000
00000000
00011000
00000000
,
00000100
00000001
00000010
00000000
,
00000100
00000000
00001001
00000000
,
00000100
00001000
00010000
00000000
,
10010000
00000000
00000000
00000000
,
00000000
00000000
00000000
00000000
;

//---------------dance-double - ----------------
#NOTES:
     dance-double:
     :
     Medium:
     7:
     0.331302,0.346179,0.382766,0.000000,0.000000,206.000000,172.000000,34.000000,0.000000,0.000000,0.000000,0.331302,0.346179,0.382766,0.000000,0.000000,206.000000,172.000000,34.000000,0.000000,0.000000,0.000000:
00000000
00000000
00000000
00000000
,
00000000
00000000
00000000
00000000
,
00001000
00000100
00000001
00000000
,
00000001
00000100
00001000
00000000
,
00010000
00001000
00000000
00000000
00000000
00000000
00000000
00000000
,
00100000
01000000
10000000
00100000
,
01000000
00010000
00100000
01000000
,
00010000
00001000
00000100
00000001
,
00000010
00000000
00000100
00000000
00001000
00000000
00000001
00000100
,
00000001
00000010
00001000
00010000
,
00100000
10000000
01000000
00010000
,
00001000
00000100
00000001
00001000
,
00000010
00000100
00001000
00010000
,
01000000
10010000
01000000
00100000
,
01000000
10010000
00100000
00001000
,
00010000
00001010
00000100
00001000
,
00010000
00110000
01000000
10000000
,
00010000
01100000
10000000
01100000
,
00010000
00011000
00000010
00001001
,
00000100
00001001
00000100
00011000
,
00100000
01000000
10000000
01010000
,
00100000
01000000
00010000
00000000
00001000
00000000
00001010
00000000
,
00000001
00000010
00000100
00000000
00001000
00000000
00000101
00000000
,
00000010
00000100
00001000
00000000
00000001
00000000
00000110
00000000
,
00001001
00010100
00101000
01000000
,
10000000
00100000
01000000
00000000
00010000
00000000
11000000
00000000
,
00100000
01000000
00010000
00000000
10000000
00000000
01100000
00000000
,
10000000
00010000
10000000
00000000
00010000
10000000
00010000
00000000
,
01000000
00011000
00000010
00001001
,
00000010
00000100
00001000
00000101
,
00000010
00000100
00001000
00000101
,
00000010
00001100
00010000
00001010
,
00000100
00010000
00001000
00000000
00100000
00001000
00010000
00000000
,
00000100
00000000
00001001
00000000
00000010
00000100
00001000
00000000
,
00000001
00000000
00000110
00000000
00001000
00000100
00010000
00000000
,
00001000
00100000
00010000
00000000
01000000
00000000
11000000
00000000
,
00100000
00000000
00010000
01000000
00100000
00000000
10010000
00000000
,
01000000
00000000
00011000
00000000
00000010
00000100
00000001
00000000
,
00000010
00000000
00001100
00000000
00010000
00001000
00100000
00000000
,
00010000
11000000
00100000
01010000
,
00001000
00000100
00000001
00000010
00000100
00001000
00000001
00000000
,
00000110
00000000
00000000
00000000
,
00000000
00000000
00000000
00000000
;

//---------------dance-double - ----------------
#NOTES:
     dance-double:
     :
     Hard:
     11:
     0.373117,0.392336,0.000000,0.000000,0.157610,232.000000,232.000000,0.000000,0.000000,0.000000,0.000000,0.373117,0.392336,0.000000,0.000000,0.157610,232.000000,232.000000,0.000000,0.000000,0.000000,0.000000:
00000000
00000000
00000000
00000000
,
00000000
00000000
00000000
00000000
,
00000010
00000000
00000000
00010000
00000000
00000000
00001000
00000000
00000000
00000000
00000000
00000000
01000000
00000000
00000000
00000000
,
00100000
00000000
00000000
00001000
00000000
00000000
00010000
00000000
00000000
00000000
00000100
00000000
00000010
00000100
00000000
00000000
,
00001000
00000001
00000000
00000000
00000000
00000000
00001000
00000000
,
00000001
00000100
00001000
00000010
,
00000001
00000100
00001000
00000010
,
00000001
00000100
00001000
00010000
,
01000000
00000000
00000000
10000000
00000000
00000000
00010000
00000000
10000000
00000000
00100000
00000000
10000000
01000000
00000000
10000000
,
01000000
00000000
00100000
00010000
00000000
00010000
01000000
00010000
,
00000000
01000000
00010000
01000000
00000000
00001000
00010000
00001000
,
00010000
00000000
00000000
00000100
00000000
00000000
00000010
00000000
00000001
00000000
00000000
00000000
00000100
00000000
00000000
00000000
,
00000010
00000000
00000000
00001000
00000000
00000000
00000100
00000000
00000010
00000000
00000001
00000000
00000010
00000000
00000000
00000000
,
00000100
00000000
00000000
00000000
00010000
00000000
00000000
00000000
00001000
00000000
00000000
00100000
00000000
00000000
00001000
00000000
,
01000000
00001000
00010000
00000000
00000100
00000000
00001000
00000010
,
00000100
00000000
00000000
00001000
00000000
00000000
00010000
00000000
00000100
00000000
00000010
00000000
00000001
00000000
00000000
00000000
,
00001000
00000000
00000000
00000100
00000000
00000000
00010000
00000000
00001000
00000000
00100000
00000000
01000000
00000000
10000000
00000000
,
00010000
00000000
00000000
01000000
00000000
00000000
00100000
00000000
10000000
00000000
00000000
00000000
00010000
00000000
00000000
00000000
,
00100000
00000000
00000000
01000000
00000000
00000000
10000000
00000000
00010000
00000000
00000000
00000000
01000000
00000000
00000000
00000000
,
00001000
00000000
00000000
00000010
00000000
00000000
00000100
00000000
00001000
00000000
00000000
00000000
00000001
00000000
00000000
00000000
,
00000100
00000000
00000000
00000010
00000000
00000000
00001000
00000000
00000001
00000000
00000010
00000100
00000010
00000000
00001000
00000000
,
00000001
00000000
00000000
00000100
00000001
00000000
00000000
00000000
00000001
00000000
00001000
00000000
00000100
00000000
00000000
00000000
,
00010000
00000000
00000000
00001000
00100000
00000000
00000000
00000000
00010000
00000000
10000000
00000000
01000000
00000000
00000000
00000000
,
00010000
00000000
00000000
00001000
00100000
00000000
00010000
00000000
00000000
00000000
10000000
00000000
01000000
00000000
00010000
00000000
,
00000000
00001000
00000000
00000100
00000001
00000010
00000100
00001000
,
00000001
00000000
00000000
00000100
00000010
00000000
00001000
00000000
00000001
00000000
00000100
00000000
00000010
00000000
00000000
00000000
,
00001000
00000000
00000000
00000100
00010000
00000000
00000000
00000000
00001000
00000000
00100000
00000000
01000000
00000000
00000000
00000000
,
10000000
00000000
00000000
00010000
01000000
00000000
00100000
00000000
10000000
00000000
01000000
00000000
00010000
00000000
00001000
00000000
,
00100000
10000000
00100000
00010000
01000000
10000000
01000000
00010000
,
00100000
00000000
00000000
01000000
00010000
00000000
00001000
00000000
00000100
00000000
00000000
00000000
00000001
00000000
00000000
00000000
,
00001000
00000000
00000000
00000100
00000001
00000000
00000100
00000000
00001000
00000000
00000000
00000000
00000001
00000000
00000000
00000000
,
00000100
00000000
00000000
00001000
00010000
00000000
01000000
00000000
00000000
00000000
10000000
00000000
00010000
00000000
01000000
00000000
,
00000000
00000000
00001000
00000000
00000000
00000000
00010000
00000000
00000100
00000000
00010000
00001000
00100000
00000000
00001000
00000000
,
00000100
00000000
00000000
00000001
00001000
00000000
00000100
00000000
00010000
00000000
00000000
00000000
00001000
00000000
00000000
00000000
,
00100000
00000000
00000000
00010000
10000000
00000000
00000000
00000000
01000000
00000000
00010000
00000000
00001000
00000000
00000000
00000000
,
01000000
00000000
00100000
10000000
01000000
00100000
00010000
01000000
,
00100000
00000000
10000000
00000000
01000000
00010000
00001000
00010000
,
00100000
00010000
00001000
00000010
,
00000001
00000000
00001000
00000100
00000001
00000000
00001000
00000000
,
00000001
00000000
00000100
00001000
00010000
01000000
00010000
00001000
,
00000100
00000001
00001000
00000100
00000000
00010000
00100000
10000000
,
01000000
00000000
00000000
00000000
,
00000000
00000000
00000000
00000000
;

//---------------dance-single - ----------------
#NOTES:
     dance-single:
     :
     Challenge:
     12:
     0.509819,0.605109,0.315219,0.067547,0.394024,317.000000,289.000000,28.000000,6.000000,0.000000,0.000000,0.509819,0.605109,0.315219,0.067547,0.394024,317.000000,289.000000,28.000000,6.000000,0.000000,0.000000:
// measure 0
0000
0000
0000
0000
,  // measure 1
0000
0000
0000
0000
,  // measure 2
0000
0000
0000
0000
,  // measure 3
0000
0000
0000
0000
,  // measure 4
1000
0100
0001
0100
0000
0100
1000
0100
,  // measure 5
0000
0100
0001
0100
0000
0100
1000
0100
,  // measure 6
0000
0100
0001
0100
0000
0100
1000
0100
,  // measure 7
0001
0000
0010
1000
0000
0010
1000
0000
0000
0000
0100
0000
0010
0000
0100
0000
,  // measure 8
0001
0000
1000
0010
0000
1000
0010
0000
0000
0000
0010
0000
0001
0000
0100
0000
,  // measure 9
1000
0010
0001
0010
0000
0010
0001
0010
,  // measure 10
0000
0010
1000
0010
0000
0010
0001
0010
,  // measure 11
1000
0000
0010
0100
0000
0001
0100
0000
0000
0000
0010
0000
0001
0000
0010
0000
,  // measure 12
0100
0000
1000
0100
0000
0010
0001
0000
0000
0020
0200
0000
0000
0000
0030
0000
,  // measure 13
0310
0000
0001
0100
0000
0001
0100
0000
0010
0000
1000
0100
0000
1000
0100
0000
,  // measure 14
1000
0000
0100
0000
0001
0000
0001
0000
0010
0000
1000
0100
1000
0000
0100
0000
,  // measure 15
0010
0000
0001
0100
0000
0001
0100
0000
0000
0000
0010
0000
0001
0000
0100
0000
,  // measure 16
0010
0000
1000
0100
0000
1000
0100
0000
0000
0000
0010
0000
0001
0000
1000
0010
,  // measure 17
1000
0000
0000
1010
0000
0000
1100
0000
0000
0000
0010
0000
0001
0000
0010
0001
,  // measure 18
0010
0000
0000
0011
0000
0000
0101
0000
0000
0000
0010
0000
1000
0000
0100
0000
,  // measure 19
0010
0000
0001
1000
0000
0001
1000
0000
0000
0000
0010
0000
0100
0000
0010
0100
,  // measure 20
0010
0000
0001
0100
0000
0010
0100
0000
0000
0000
0010
0000
1000
0000
0001
0100
,  // measure 21
0001
0000
0000
0011
0000
0000
0101
0000
0000
0000
0010
0000
0110
0000
0100
1000
,  // measure 22
0100
0000
0000
1010
0000
0000
1100
0000
0000
0000
1000
0000
1001
0000
0001
0100
,  // measure 23
0001
0000
0000
1001
0000
0000
1100
0000
0000
0000
0010
0000
0001
0000
0100
0001
,  // measure 24
0000
0000
1000
0010
0000
0000
0010
0200
0000
0000
0001
0000
0301
0000
0100
0001
,  // measure 25
0100
0000
0000
0110
0000
0000
0011
0000
0000
0000
1000
0000
0100
0000
1000
0100
,  // measure 26
1000
0000
0000
1001
0000
0000
0011
0000
0000
0000
0010
0000
1000
0000
0001
0100
,  // measure 27
0001
0000
0010
0001
0000
0001
0100
0010
,  // measure 28
0000
0010
1000
0100
0000
0100
0001
0010
,  // measure 29
1000
0000
0000
0101
0000
0000
1100
0000
0000
0000
0010
0000
1010
0000
1000
0001
,  // measure 30
1000
0000
0000
1001
0000
0000
0011
0000
0000
0000
0010
0000
1010
0000
1000
0001
,  // measure 31
1000
0000
0000
1001
0000
0000
1100
0000
0000
0000
0010
0000
0001
0000
0100
0001
,  // measure 32
0000
0000
0010
1000
0000
0000
1000
0002
0000
0000
1000
0000
1003
0000
0001
1000
,  // measure 33
0001
0000
0000
0101
0000
0000
1010
0000
0000
0000
0001
0000
0010
0000
1000
0010
,  // measure 34
1000
0000
0000
1001
0000
0000
0110
0000
0000
0000
0010
0000
0001
0000
0100
0010
,  // measure 35
0100
0000
0010
1000
0000
1000
0100
0010
,  // measure 36
0000
0001
0010
1000
0000
1000
0100
0001
,  // measure 37
0010
0000
0001
0010
1000
0000
1000
0100
0001
0000
1000
0100
0001
0010
1000
0000
,  // measure 38
0100
0000
1000
0100
0001
0000
0001
0010
1000
0000
1000
0010
0001
0100
1000
0000
,  // measure 39
1000
0000
0001
0100
1000
0000
0001
0010
1000
0000
0001
0010
1000
0100
0001
0000
,  // measure 40
0010
0000
1000
0010
0001
0000
1000
0100
0001
0000
1000
0100
0001
0010
0200
0000
,  // measure 41
0000
2000
0000
0000
0000
0000
0000
0000
,  // measure 42
0000
0000
0000
0000
,  // measure 43
3300
0000
0000
0000
;
