#VERSION:0.83;
#TITLE:360;
#SUBTITLE:;
#ARTIST:Charli XCX;
#TITLETRANSLIT:;
#SUBTITLETRANSLIT:;
#ARTISTTRANSLIT:;
#GENRE:;
#ORIGIN:;
#CREDIT:;
#BANNER:360-banner.jpg;
#BACKGROUND:360-bg.png;
#PREVIEWVID:;
#JACKET:360-jacket.png;
#CDIMAGE:;
#DISCIMAGE:;
#LYRICSPATH:;
#CDTITLE:;
#MUSIC:360.ogg;
#OFFSET:0.000000;
#SAMPLESTART:0.000000;
#SAMPLELENGTH:12.000000;
#SELECTABLE:YES;
#BPMS:0.000=122.000,
4.000=120.000;
#STOPS:131.500=0.250;
#DELAYS:;
#WARPS:;
#TIMESIGNATURES:0.000=4=4;
#TICKCOUNTS:0.000=4;
#COMBOS:0.000=1;
#SPEEDS:0.000=1.000=0.000=0;
#SCROLLS:0.000=1.000;
#FAKES:;
#LABELS:0.000=Song Start;
#BGCHANGES:0.000=360.mp4=1.000=0=0=0=StretchNoLoop====,
99999=-nosongbg-=1.000=0=0=0 // don't automatically add -songbackground-
;
#KEYSOUNDS:;
#ATTACKS:
;

//---------------dance-single - ----------------
#NOTEDATA:;
#CHARTNAME:;
#STEPSTYPE:dance-single;
#DESCRIPTION:;
#CHARTSTYLE:;
#DIFFICULTY:Beginner;
#METER:4;
#RADARVALUES:0.079482,0.148868,0.067667,0.195483,0.000000,74.000000,65.000000,9.000000,26.000000,0.000000,0.000000,0.000000,0.000000,0.000000,0.079482,0.148868,0.067667,0.195483,0.000000,74.000000,65.000000,9.000000,26.000000,0.000000,0.000000,0.000000,0.000000,0.000000;
#CREDIT:;
#NOTES:
0000
0000
0000
0000
,
0000
0000
0000
0000
,
0000
0000
0000
0000
,
0000
0000
0000
0000
,
0000
0000
0000
0000
,
0000
1000
0000
0000
0000
0000
0000
0000
,
0000
1000
0000
0000
0000
0000
0000
0000
,
0000
0100
0000
0000
0000
0000
0000
0000
,
0000
0000
0000
0020
0000
0030
0000
0000
,
0000
0100
0000
0000
0000
0000
0000
0000
,
0000
0001
0000
0000
0000
0000
0000
0000
,
0000
1000
0000
0000
0000
0000
0000
0000
,
0000
0010
0000
0000
0000
0000
0000
0200
,
0000
0300
0000
0000
0000
0200
0000
0000
,
0300
0000
0000
0000
0000
0000
0000
0020
,
0030
0000
0000
0000
0000
0002
0000
0000
,
0003
0000
0000
0000
0000
0000
0000
0010
,
0000
0000
0000
0000
0000
0200
0000
0000
,
0300
0000
0000
0000
0000
0000
0000
1000
,
0000
0000
0000
0000
0000
0001
0000
0000
,
0000
0000
0000
0010
0000
0000
0000
0000
,
0000
1001
0000
0000
0000
0000
0000
0000
,
0000
0100
0000
0000
0000
0000
0000
0000
,
0000
0010
0000
0000
0000
0000
0000
0000
,
0000
1000
0000
0000
0000
0200
0000
0000
,
0000
0300
0000
0000
0000
0010
0000
0000
,
0000
0010
0000
0000
0000
0000
0000
0000
,
0000
0010
0000
0000
0000
0000
0000
1000
,
0000
0000
0000
0000
0000
0200
0000
0000
,
0000
0300
0000
0000
0000
0000
0000
0002
,
0003
0000
0000
0000
0000
0000
0000
2000
,
3000
0000
0000
0000
0000
0000
0000
0020
,
0030
0000
0000
0000
0000
0000
0000
1001
,
0001
0000
0000
0000
,
1000
0000
0000
0000
,
0010
0000
0000
0000
,
0200
0000
0300
0000
,
0010
0000
0000
0000
,
1000
0000
0000
1001
,
0000
0000
0000
0000
,
0020
0000
0000
0000
0000
0000
0000
0030
,
0000
0000
0000
0000
0200
0000
0000
0300
,
0000
0000
0000
0000
0000
0000
0020
0030
,
0000
0000
0000
0000
2000
0000
0000
3000
,
0000
0000
0001
0000
,
0000
0000
0000
0000
0200
0000
0000
0300
,
0000
0000
0010
0000
,
0000
0000
1000
0000
,
0000
0000
0200
0300
0000
0000
0000
0000
,
1001
0000
0000
0000
,
0100
0000
0000
0000
,
1000
0000
0000
0000
,
0000
0000
0000
0000
0020
0000
0000
0030
,
0000
0100
0000
0000
,
0100
0000
0000
0000
,
0001
0000
0000
0000
,
1000
0000
0000
0000
0200
0000
0000
0300
,
0000
0000
0000
0000
0000
0000
2000
3000
,
0000
0000
0000
0000
0000
0000
0002
0003
,
0000
0000
0000
0000
0000
0000
2000
3000
,
0000
0000
0000
0000
0020
0000
0000
0030
,
0000
0000
0000
1001
,
0000
0000
0000
1001
,
0000
0000
0000
1001
,
0000
0000
1001
0000
,
2002
0000
0000
0000
,
3003
0000
0000
0000
;

//---------------dance-single - ----------------
#NOTEDATA:;
#CHARTNAME:;
#STEPSTYPE:dance-single;
#DESCRIPTION:;
#CHARTSTYLE:;
#DIFFICULTY:Easy;
#METER:7;
#RADARVALUES:0.226631,0.347358,0.142853,0.270669,0.000000,211.000000,192.000000,19.000000,36.000000,0.000000,0.000000,0.000000,0.000000,0.000000,0.226631,0.347358,0.142853,0.270669,0.000000,211.000000,192.000000,19.000000,36.000000,0.000000,0.000000,0.000000,0.000000,0.000000;
#CREDIT:;
#NOTES:
0000
0000
0000
0000
,
0000
0000
0000
0000
,
0000
0000
0000
0000
,
0000
0000
0000
0000
,
0000
0000
0000
0000
,
0000
0001
0000
1000
0000
0001
0000
0000
,
0000
1000
0000
0001
0000
1000
0000
0000
,
0000
0010
0000
0010
0000
0100
0000
0000
,
0000
0000
0000
0200
0000
0300
0000
0200
,
0000
0300
0000
0010
0000
0000
0000
0010
,
0000
0100
0000
0000
0000
0100
0000
0000
,
0000
0001
0000
0000
0000
0001
0000
0000
,
0000
1000
0000
0000
0000
1000
0000
0020
,
0000
0000
0000
0030
0000
0200
0000
0000
,
0300
0000
0000
0001
0000
1000
0000
0002
,
0003
0000
0000
1000
0000
0200
0000
0000
,
0300
0000
0000
0001
0000
0010
0000
2000
,
0000
3001
0000
0000
0000
0200
0000
0000
,
0300
0000
0000
1000
0000
0010
0000
0002
,
0000
0003
0000
0010
0000
0002
0000
0000
,
0003
0000
0000
1001
0000
0000
0000
0100
,
0000
0110
0000
0010
0000
1000
0000
0001
,
0000
0200
0300
0001
0000
0100
0000
0010
,
0000
2000
3000
0100
0000
0010
0000
1000
,
0000
0001
0000
0000
0000
2000
0000
0000
,
0000
3000
0000
0010
0000
1000
0000
1000
,
0000
2000
3000
0100
0000
0100
0000
0100
,
0000
0002
0003
0010
0000
1000
0000
0001
,
0000
0100
0000
0010
0000
0200
0000
0300
,
0000
0001
0000
1000
0000
0100
0000
0002
,
0003
1000
0000
0010
0000
0100
0000
2000
,
3000
0001
0000
0010
0000
1000
0000
0020
,
0030
0100
0000
0001
0000
1000
0000
1001
,
1000
0000
0200
0300
0000
0000
0100
0000
,
0010
1000
0001
0100
,
0010
1000
0100
0001
,
2002
0000
3003
0000
,
0001
0001
0100
0100
,
1000
1000
0100
0100
,
0001
0001
1000
1000
,
0110
0110
0110
0110
,
0110
0000
0000
0000
0200
0000
0000
0300
,
0000
0000
0001
0000
0010
0000
0200
0300
,
0000
0000
0000
0000
2000
0000
0000
3000
,
0000
0010
0100
0001
,
1000
0000
0000
0000
0200
0000
0000
0300
,
0000
0001
0010
1000
,
0000
1000
0100
0010
,
0001
1001
0000
0100
,
0100
0010
1000
0001
,
0200
0300
0010
0000
1000
0000
0001
0000
,
0200
0300
0010
0000
1000
0000
0100
0000
,
0010
0001
0200
0300
,
1001
0001
0010
0100
,
1100
1000
0010
0100
,
0101
0001
1000
0010
,
0110
0000
0200
0300
,
0002
1000
1000
0103
,
2000
0001
0001
3100
,
0002
0100
0100
0013
,
2000
0100
0100
3010
,
1010
0010
0100
0001
,
1001
1000
0100
0010
,
0011
0001
0010
1000
,
1100
0100
0001
1000
,
2020
0000
0000
0000
,
3030
0000
0000
0000
;

//---------------dance-single - ----------------
#NOTEDATA:;
#CHARTNAME:;
#STEPSTYPE:dance-single;
#DESCRIPTION:;
#CHARTSTYLE:;
#DIFFICULTY:Medium;
#METER:10;
#RADARVALUES:0.373780,0.421792,0.105260,0.293224,0.037593,348.000000,334.000000,14.000000,39.000000,0.000000,0.000000,0.000000,0.000000,0.000000,0.373780,0.421792,0.105260,0.293224,0.037593,348.000000,334.000000,14.000000,39.000000,0.000000,0.000000,0.000000,0.000000,0.000000;
#CREDIT:;
#NOTES:
0000
0000
0000
0000
,
0000
0000
0000
0000
,
0000
0000
0000
0000
,
0000
0000
0000
0000
,
0000
0000
0000
0000
0000
0000
0000
0002
,
0003
1000
0001
1000
0000
1000
0001
2000
,
3000
0010
0100
0010
0000
0010
0100
0020
,
0030
0100
0001
0100
0000
0100
0010
0200
,
0300
0002
0000
1003
0100
0010
0000
1000
,
0100
0010
0100
0010
0000
0010
0100
0020
,
0030
1000
0001
1000
0000
1000
0100
2000
,
3000
0001
1000
0001
0000
0001
0100
0002
,
0003
0100
0010
1000
0000
0200
0000
0310
,
1000
0001
0000
0000
0010
0200
0000
0000
,
0300
0000
0000
0000
0010
1000
0001
0100
,
0101
0000
0000
0000
1000
0002
0000
0000
,
0003
0000
0000
0000
0010
1000
0001
0100
,
0101
0001
0000
0000
0010
0200
0000
0000
,
0300
0000
0000
0000
0010
1000
0001
1000
,
1100
0000
0000
0000
0001
2000
0000
0000
,
3100
0000
0000
0101
0000
0000
0001
0010
,
0100
1000
0000
1000
0100
1000
0010
1000
,
0100
1000
0000
0001
0100
0001
0010
0001
,
0100
0001
0000
0001
0100
0010
1000
0100
,
0010
0001
0000
0000
0100
0020
0000
0000
,
0000
0030
0000
0001
0010
0001
0100
0100
,
0100
0100
0000
0010
0010
0010
0001
1000
,
0001
0100
0000
0010
1000
0010
0100
0010
,
0001
0010
0000
0000
0100
2000
0000
3000
,
0000
0000
0010
0000
1000
0000
0000
0100
0000
0000
0010
0000
0000
0000
0001
0000
,
0002
0000
0103
0000
0001
0000
0000
0010
0000
0000
0100
0000
0000
0000
1000
0000
,
2000
0000
3100
0000
1000
0000
0000
0100
0000
0000
0001
0000
0000
0000
0010
0000
,
0020
0000
0130
0000
0010
0000
0000
1000
0000
0000
0001
0000
0000
0000
2002
3003
,
0001
0010
0001
0200
0300
0010
1000
0001
,
0100
0010
1000
0100
0010
1000
0001
0100
,
0010
1000
0001
0010
0100
1000
0001
0100
,
0010
1000
0100
0010
0200
0310
0200
0310
,
0001
1000
0001
0000
0101
0000
0101
0000
,
1000
0001
1000
0001
0100
0001
0101
0000
,
0001
0010
0100
1000
1000
0100
0010
0001
,
0100
0001
0000
0000
0100
0001
1000
0001
,
0100
0000
0000
0010
0200
0000
0000
0300
,
0000
0000
0000
0010
1000
0001
0101
0101
,
0000
0000
0000
0001
0020
0000
0000
0030
,
0000
0000
0000
0010
0100
0001
1000
0100
,
0010
0000
0000
0010
0200
0000
0000
0300
,
0000
0000
0000
0100
1000
0001
0100
0110
,
0010
0000
0000
0010
0002
0000
0000
0103
,
0000
0000
1100
0000
0000
0010
0100
0001
,
1000
0000
0001
0100
0001
0010
0001
0100
,
0001
0000
1000
0100
1000
0010
1000
0100
,
1000
0000
0010
1000
0010
0001
0010
0100
,
0010
0000
0000
0010
0002
0000
0000
0003
,
1001
0000
0001
0100
0001
1000
0100
0010
,
0001
0000
0100
0100
0100
0010
1000
1000
,
1000
0000
0010
1000
0100
0010
0001
1000
,
0010
0000
0000
0010
0002
0000
0000
0003
,
1000
0000
0010
0000
0000
0001
0000
0000
0010
0000
0000
0000
0010
0000
0020
0000
,
0031
0000
0010
0000
0000
1000
0000
0000
0010
0000
0000
0000
0010
0000
0020
0000
,
0031
0000
0100
0000
0000
1000
0000
0000
0100
0000
0000
0000
0100
0000
0200
0000
,
1300
0100
0000
0001
0200
0000
0310
0100
,
0010
0000
1000
0000
0000
0001
0000
0000
1000
0000
0000
0000
1000
0000
2000
0000
,
3010
0000
0001
0000
0000
1000
0000
0000
0001
0000
0000
0000
0001
0000
0002
0000
,
0013
0000
0100
0000
0000
0001
0000
0000
1000
0000
0000
0000
0100
0000
0200
0000
,
0310
1000
0000
0010
0002
0000
0013
0100
,
0220
0000
0000
0000
,
0330
0000
0000
0000
;

//---------------dance-single - ----------------
#NOTEDATA:;
#CHARTNAME:;
#STEPSTYPE:dance-single;
#DESCRIPTION:;
#CHARTSTYLE:;
#DIFFICULTY:Hard;
#METER:16;
#RADARVALUES:0.708894,0.719527,0.172927,0.195483,0.755616,660.000000,637.000000,23.000000,26.000000,0.000000,0.000000,0.000000,0.000000,0.000000,0.708894,0.719527,0.172927,0.195483,0.755616,660.000000,637.000000,23.000000,26.000000,0.000000,0.000000,0.000000,0.000000,0.000000;
#CREDIT:;
#NOTES:
// measure 0
0000
0000
0000
0000
,  // measure 1
0000
0000
0000
0000
,  // measure 2
0000
0000
0000
0000
,  // measure 3
0000
0000
0000
0000
,  // measure 4
0000
0000
0000
0000
0000
0000
0000
2000
,  // measure 5
3000
0000
0001
0100
0001
0000
0010
0000
0100
0000
1000
0100
1000
0000
0010
0000
,  // measure 6
0100
0000
0010
1000
0010
0000
0100
0000
0001
0000
0010
0001
0010
0000
0100
0000
,  // measure 7
1000
0000
0001
0100
0001
0000
0010
0000
0100
0000
1000
0100
1000
0000
0010
0000
,  // measure 8
0100
0000
0001
0000
0000
0000
0100
0001
0100
0001
0200
0000
0300
0000
0001
1000
,  // measure 9
0001
1000
0001
0010
0001
0000
0100
0000
0010
0000
1000
0010
1000
0000
0100
0000
,  // measure 10
0010
0000
0001
0010
0001
0000
0100
0000
0010
0000
1000
0010
1000
0000
0100
0000
,  // measure 11
0010
0000
0001
0010
0001
0000
0100
0000
0010
0000
1000
0010
1000
0000
0100
0000
,  // measure 12
0010
0000
1000
0001
1000
0000
0001
0000
0100
0000
0010
1000
0010
0000
0100
0001
,  // measure 13
0100
0001
0100
0000
0000
0000
0010
0000
0200
0000
0010
0000
0010
0000
0310
0100
,  // measure 14
0010
0000
0010
0000
1000
0000
0001
0000
0100
0001
1000
0001
0100
0000
0101
0000
,  // measure 15
1100
0000
1000
0100
1000
0000
0010
0000
0001
0100
0001
0010
0001
0100
0001
0010
,  // measure 16
0002
0000
0103
0000
0010
0000
1000
0000
0010
0001
0010
0001
0010
0001
0100
0010
,  // measure 17
0100
0010
1000
0000
0010
0000
0100
1000
0200
0000
0010
0000
0010
0000
0310
0100
,  // measure 18
0010
0000
0001
0000
1000
0000
0010
0000
0100
0001
0100
0001
1000
0001
1000
0002
,  // measure 19
1003
0000
0001
0010
0001
0000
0010
0000
1000
0100
1000
0100
0010
0001
0010
0001
,  // measure 20
1000
0100
0010
0001
0200
0000
0310
0000
0000
0000
0000
0000
0110
0000
0110
0000
,  // measure 21
0110
0000
0110
0000
0000
0000
0010
1000
0010
0100
0010
1000
0010
0100
0010
1000
,  // measure 22
0010
0100
0010
0000
0000
0000
0100
0001
0100
0010
0100
0001
0100
0010
0100
0001
,  // measure 23
0100
0010
0100
0000
0000
0000
0001
0010
0001
0100
0001
0010
0001
0100
0001
0010
,  // measure 24
0100
1000
0020
0000
0001
0000
0130
0000
1000
0100
0020
0000
0000
0000
0031
0100
,  // measure 25
0010
1000
0100
0000
0010
0000
0001
0100
1000
0100
0001
0100
1000
0100
0001
0100
,  // measure 26
1000
0000
0000
0000
1100
0000
0000
0000
0000
0000
0000
0000
0001
0100
0000
0000
1000
0100
0000
0000
0001
0100
0000
0000
0010
0000
0001
0000
1000
0000
0000
0000
,  // measure 27
0100
0000
0010
0100
0001
0000
0001
1000
0100
0010
0001
0000
0100
0010
1000
0001
,  // measure 28
0100
0010
2000
0000
0100
0000
3001
0000
0100
0000
0001
0010
0100
1000
0010
0000
,  // measure 29
0110
0000
0100
0000
0001
0000
1000
0100
0000
0001
0100
0000
1000
0000
0001
0010
,  // measure 30
0001
0000
0010
0000
0110
0000
1000
0010
0000
0010
0001
0000
0100
0000
1000
0100
,  // measure 31
1000
0000
0100
0000
1100
0000
1000
0010
0000
0010
0100
0000
0001
0000
0100
0001
,  // measure 32
0100
0000
0010
0000
1000
0000
0010
1000
0000
0001
0010
0000
0100
0000
2002
3003
,  // measure 33
0010
0000
0100
0000
0001
0000
0100
0001
0010
0000
1000
0000
0010
0000
0100
0000
,  // measure 34
0001
1000
0100
0010
0100
0100
0010
1000
,  // measure 35
0001
0010
1000
0100
0010
0001
1000
0010
,  // measure 36
0100
0010
0001
0000
1000
0000
0100
0000
0020
0000
0031
0000
0020
0000
1030
0000
,  // measure 37
0100
0001
0100
0000
0010
0000
1000
0000
0100
1000
0100
1000
0100
0000
1100
0000
,  // measure 38
0100
0010
0100
0000
0010
0000
1000
0000
0001
1000
0001
1000
0001
0000
1001
0000
,  // measure 39
0001
0010
0100
1000
0010
0000
0110
0000
0100
1000
0010
0100
0001
0000
1001
0000
,  // measure 40
0200
0010
0001
1000
0010
0001
0010
1300
,  // measure 41
0100
1000
0100
0000
0010
0000
0001
0000
0200
0000
0000
0000
0000
0000
0300
0000
,  // measure 42
0010
1000
0010
0000
0001
0000
0100
0000
0010
1000
0001
0010
0100
0000
0101
0000
,  // measure 43
1000
0100
0010
0000
1000
0000
0001
0000
2000
0000
0000
0000
0000
0000
3100
0000
,  // measure 44
0010
1000
0001
0000
0100
0000
0010
0000
1000
0100
0010
0000
0001
0100
0001
0010
,  // measure 45
0001
1000
0001
0000
0100
0000
0010
0000
0200
0000
0000
0000
0000
0000
0300
0000
,  // measure 46
1000
0100
0010
0000
1000
0000
0001
0100
0010
0100
0001
0000
0101
0000
1100
0000
,  // measure 47
1000
0010
0001
0000
0100
0000
0010
0000
0001
0010
1000
0010
0100
0010
0001
0000
,  // measure 48
2001
0000
3100
0000
0000
0201
0010
1000
,  // measure 49
0301
0000
0000
0000
0010
0001
0010
0100
0010
0001
0010
0100
0010
0001
0010
0100
,  // measure 50
0010
0000
0000
0000
0100
0010
0100
1000
0100
0010
0100
1000
0100
0010
0100
1000
,  // measure 51
0100
0000
0000
0000
1000
0100
0010
0100
1000
0100
0010
0100
1000
0100
0010
0100
,  // measure 52
1000
0000
0100
0000
0010
0100
0001
0000
0100
0001
1000
0001
0200
0000
0010
0000
,  // measure 53
0310
0001
1000
0000
0001
0010
0001
0100
0010
1000
0001
0010
0100
1000
0100
0001
,  // measure 54
0110
0000
0000
0000
0000
0000
0000
0000
1000
0100
0000
0000
0001
0100
0000
0000
1000
0100
0000
0000
0010
0000
1000
0000
0001
0000
0000
0000
0101
0000
0000
0000
,  // measure 55
1000
0100
0010
0000
1000
0000
0001
0000
0010
1000
0001
1000
0010
0000
0100
0000
,  // measure 56
1000
0100
0010
0001
0010
0100
1000
0001
0100
0010
1000
0100
0020
0000
0130
0000
,  // measure 57
0010
0001
0000
0010
1000
0000
0010
1000
0000
0010
0001
0000
0010
0010
0010
0000
,  // measure 58
0010
1000
0000
0010
0001
0000
0010
0001
0000
0010
1000
0000
0010
0010
0010
0000
,  // measure 59
0010
1000
0000
0010
0001
0000
0010
1000
0000
0010
0001
0000
0010
0010
0010
0000
,  // measure 60
0100
0001
0000
0100
1000
0000
0100
1000
0020
0000
0000
0000
0100
0000
0100
0000
,  // measure 61
0130
1000
0000
0100
0001
0000
0100
1000
0000
0100
0001
0000
0100
0100
0100
0000
,  // measure 62
0100
0001
0000
0100
1000
0000
0100
1000
0000
0100
0001
0000
0100
0100
0100
0000
,  // measure 63
0100
1000
0000
0100
0001
0000
0100
1000
0000
0100
0001
0000
0100
0100
0100
0000
,  // measure 64
0001
0010
0000
0100
1000
0000
1000
0100
0002
0000
0000
0000
0010
0000
0103
0000
,  // measure 65
0202
0000
0000
0000
,  // measure 66
0303
0000
0000
0000
;
