#VERSION:0.83;
#TITLE:20,NOVEMBER (D.D.R. version);
#SUBTITLE:;
#ARTIST:N.M.R. feat. DJ.nagureo;
#TITLETRANSLIT:;
#SUBTITLETRANSLIT:;
#ARTISTTRANSLIT:;
#GENRE:;
#ORIGIN:;
#CREDIT:;
#BANNER:20,NOVEMBER (D.D.R. version).png;
#BACKGROUND:20,NOVEMBER (D.D.R. version)-bg.png;
#PREVIEWVID:;
#JACKET:20,NOVEMBER (D.D.R. version)-jacket.png;
#CDIMAGE:;
#DISCIMAGE:;
#LYRICSPATH:;
#CDTITLE:;
#MUSIC:20,NOVEMBER (D.D.R. version).ogg;
#OFFSET:0.000000;
#SAMPLESTART:53.499001;
#SAMPLELENGTH:15.000000;
#SELECTABLE:YES;
#DISPLAYBPM:130.000000;
#BPMS:0.000=130.095;
#STOPS:;
#DELAYS:;
#WARPS:;
#TIMESIGNATURES:0.000=4=4;
#TICKCOUNTS:0.000=4;
#COMBOS:0.000=1;
#SPEEDS:0.000=1.000=0.000=0;
#SCROLLS:0.000=1.000;
#FAKES:;
#LABELS:0.000=Song Start;
#BGCHANGES:;
#KEYSOUNDS:;
#ATTACKS:
;

//---------------dance-single - ----------------
#NOTEDATA:;
#CHARTNAME:;
#STEPSTYPE:dance-single;
#DESCRIPTION:;
#CHARTSTYLE:;
#DIFFICULTY:Beginner;
#METER:3;
#RADARVALUES:0.163478,0.209090,0.127149,0.000000,0.000000,81.000000,72.000000,9.000000,0.000000,0.000000,0.000000,0.000000,0.000000,0.000000,0.163478,0.209090,0.127149,0.000000,0.000000,81.000000,72.000000,9.000000,0.000000,0.000000,0.000000,0.000000,0.000000,0.000000;
#CREDIT:;
#DISPLAYBPM:130.000000;
#NOTES:
0000
0000
0000
0000
,
0000
0000
0000
0000
,
0000
0000
0000
0000
,
0000
0000
0000
0000
,
0000
0000
0000
0000
,
1000
1000
0000
0000
,
1000
1000
0000
0000
,
0001
0001
0000
0000
,
0001
0001
0000
0000
,
1000
1000
0000
0000
,
1000
1000
0000
0000
,
0001
0001
0000
0000
,
0001
0001
0000
0000
,
0010
0000
0000
0000
,
0010
0000
0110
0000
,
0100
0000
0000
0000
,
0100
0000
0110
0000
,
0010
0000
0000
0000
,
0010
0000
0110
0000
,
0100
0000
0000
0000
,
0100
0000
0110
0000
,
0001
0001
0001
0000
,
0001
0000
1001
0000
,
1000
1000
1000
0000
,
1000
0000
1001
0000
,
0010
0010
0010
0000
,
0010
0000
0110
0000
,
0100
0100
0100
0000
,
0100
0000
0110
0000
,
0001
0001
0001
0000
,
0001
0001
0001
0000
,
1000
1000
1000
0000
,
1000
1000
1000
0000
,
0010
0010
0010
0000
,
0010
0010
0010
0000
,
0100
0100
0100
0000
,
0100
0000
1001
0000
,
0010
0000
0000
0000
;

//---------------dance-single - ----------------
#NOTEDATA:;
#CHARTNAME:;
#STEPSTYPE:dance-single;
#DESCRIPTION:;
#CHARTSTYLE:;
#DIFFICULTY:Easy;
#METER:4;
#RADARVALUES:0.209897,0.261362,0.014128,0.000000,0.000000,104.000000,103.000000,1.000000,0.000000,0.000000,0.000000,0.000000,0.000000,0.000000,0.209897,0.261362,0.014128,0.000000,0.000000,104.000000,103.000000,1.000000,0.000000,0.000000,0.000000,0.000000,0.000000,0.000000;
#CREDIT:;
#DISPLAYBPM:130.000000;
#NOTES:
0000
0000
0000
0000
,
0000
0000
0000
0000
,
0000
0000
0000
0000
,
0000
0000
0000
0000
,
0000
0000
0000
0000
,
1000
1000
0000
0000
,
0001
0001
0000
0000
,
0100
0100
0000
0000
,
0010
0010
0000
0000
,
1000
1000
0000
0000
,
0001
0001
0000
0000
,
0100
0100
0000
0000
,
0010
0001
0100
1000
,
1000
1000
0000
0000
0010
0000
0010
0000
,
0100
0100
1000
0001
,
0001
0001
0000
0000
1000
0000
1000
0000
,
0001
0001
0010
0100
,
0100
0100
0000
0000
0010
0000
0010
0000
,
0010
0010
0010
0010
,
0010
0010
0010
0010
,
0010
0010
0001
1000
,
0100
1000
0100
0001
,
0000
0000
0000
0000
,
0010
0001
0010
1000
,
0000
0000
0000
0000
,
0010
0001
0010
0100
,
0000
0000
0000
0000
,
0010
1000
0010
0100
,
0100
0100
0100
0100
,
1000
0100
0010
0001
,
0001
0010
0100
1000
,
0001
0100
0010
1000
,
1000
0010
0100
0001
,
1000
0001
0100
0010
,
0010
0100
0001
1000
,
0001
1000
0010
0100
,
0100
0100
0010
0010
,
1001
0000
0000
0000
;

//---------------dance-single - ----------------
#NOTEDATA:;
#CHARTNAME:;
#STEPSTYPE:dance-single;
#DESCRIPTION:;
#CHARTSTYLE:;
#DIFFICULTY:Medium;
#METER:7;
#RADARVALUES:0.304754,0.365907,0.014128,0.000000,0.000000,151.000000,150.000000,1.000000,0.000000,0.000000,0.000000,0.000000,0.000000,0.000000,0.304754,0.365907,0.014128,0.000000,0.000000,151.000000,150.000000,1.000000,0.000000,0.000000,0.000000,0.000000,0.000000,0.000000;
#CREDIT:;
#DISPLAYBPM:130.000000;
#NOTES:
0000
0000
0000
0000
,
0000
0000
0000
0000
,
0000
0000
0000
0000
,
0000
0000
0000
0000
,
0000
0000
0000
0000
,
1000
0100
1000
0100
,
0001
0010
0001
0010
,
1000
0001
1000
0001
,
0100
0010
0100
0010
,
0001
0100
0001
0100
,
1000
0010
1000
0010
,
0010
0100
0010
0100
,
0001
1000
0100
0100
,
0100
0100
0000
0000
0010
0000
0010
0000
,
0100
0100
1000
0001
,
0100
0100
0000
0000
0010
0000
1000
0000
,
0010
0001
1000
0001
,
0001
0001
0100
0000
0001
0001
1000
0000
,
0001
0001
0010
0000
0001
0001
1000
0000
,
1000
1000
0100
0000
1000
1000
0001
0000
,
1000
1000
0010
0000
0100
0100
0100
0000
,
0100
0001
1000
0001
,
0100
0000
0100
0000
0001
1000
0001
0000
,
0010
1000
0001
1000
,
0010
0000
0010
0000
1000
0001
1000
0000
,
0010
1000
0010
0100
,
0010
0000
0010
0000
1000
0010
0100
0000
,
0100
0001
0100
0010
,
1000
0100
0010
0001
0010
0100
1000
0000
,
1000
1000
0100
0010
0001
0000
0000
0000
,
0001
0001
0100
0010
1000
0000
0000
0000
,
1000
1000
0100
0010
0001
0000
0000
0000
,
0001
0001
0100
0010
1000
0000
0000
0000
,
1000
1000
0010
0100
0001
0000
0000
0000
,
0001
0001
0010
0100
1000
0000
0000
0000
,
1000
1000
0001
1000
0001
0000
0000
0000
,
0010
0100
0010
0100
,
1001
0000
0000
0000
;

//---------------dance-single - ----------------
#NOTEDATA:;
#CHARTNAME:;
#STEPSTYPE:dance-single;
#DESCRIPTION:;
#CHARTSTYLE:;
#DIFFICULTY:Hard;
#METER:11;
#RADARVALUES:0.355210,0.447318,0.014128,0.169532,0.296681,176.000000,175.000000,1.000000,12.000000,0.000000,0.000000,0.000000,0.000000,0.000000,0.355210,0.447318,0.014128,0.169532,0.296681,176.000000,175.000000,1.000000,12.000000,0.000000,0.000000,0.000000,0.000000,0.000000;
#CREDIT:;
#DISPLAYBPM:130.000000;
#NOTES:
0000
0000
0000
0000
,
0000
0000
0000
0000
,
0000
0000
0000
0000
,
0000
0000
0000
0000
,
0000
0000
0000
0000
,
1000
0000
0100
0000
0000
0000
1000
1000
0000
0000
0001
0000
0000
0000
0001
0000
,
0000
0000
0100
0000
0000
0000
0001
0001
0000
0000
1000
0000
0000
0000
1000
0000
,
0000
0000
0100
0000
0000
0000
1000
1000
0000
0000
1000
0000
0000
0000
0001
0000
,
0000
0000
0100
0000
0000
0000
0001
0001
0000
0000
0001
0000
0000
0000
1000
0000
,
0000
0000
1000
0000
0000
0000
0100
0100
0000
0000
1000
0000
0000
0000
0001
0000
,
0000
0000
0001
0000
0000
0000
0100
0100
0000
0000
0001
0000
0000
0000
1000
0000
,
0000
0000
0010
0000
0000
0000
0010
0010
0000
0000
0001
0000
0000
0000
1000
0000
,
0000
1000
0000
1000
0000
0001
0000
0001
,
0100
1000
0001
0000
0001
0000
0001
0000
,
0100
0100
0002
1003
,
0100
0001
2000
3000
1000
0000
1000
0000
,
0010
0010
2000
3001
,
0001
0000
0100
0000
0001
0100
0000
0000
0001
0000
0100
0000
0001
0100
0000
0000
,
0010
0000
1000
0000
0010
1000
0000
0000
0010
0000
1000
0000
0010
1000
0000
0000
,
0001
0000
0100
0000
0001
0100
0000
0000
0010
0000
1000
0000
0010
1000
0000
0000
,
0001
0000
0100
0000
0010
1000
0000
0000
0010
0000
1000
0000
0001
0000
0000
0000
,
0001
0010
0001
0010
,
0100
0000
0100
0000
0100
1000
0100
0100
,
1000
0010
1000
0010
,
0100
0000
0100
0000
0100
0001
0100
0100
,
0001
0000
1000
0000
0001
0001
1000
0000
,
0010
0000
0010
0000
0010
1000
1000
1000
,
0001
0001
0001
0001
,
1000
0001
0100
0010
1000
0001
0100
0000
,
0100
0010
0000
0010
0000
0100
0000
0020
0000
0000
0000
0000
0000
0030
0000
0000
,
1000
0001
0000
0001
0000
1000
0000
0002
0000
0000
0000
0000
0000
0003
0000
0000
,
1000
0100
0000
0001
0000
0100
0000
0002
0000
0000
0000
0000
0000
0003
0000
0000
,
0100
0001
0000
0010
0000
0001
0000
0020
0000
0000
0000
0000
0000
0030
0000
0000
,
0001
0010
0000
1000
0000
0010
0000
2000
0000
0000
0000
0000
0000
3000
0000
0000
,
0010
1000
0000
0100
0000
1000
0000
0200
0000
0000
0000
0000
0000
0300
0000
0000
,
1000
0100
0000
0001
0000
0100
0000
0002
0000
0000
0000
0000
0000
0003
0000
0000
,
1000
0100
0010
0001
1000
0100
0010
0001
,
2200
3300
0000
0000
;

//---------------dance-double - ----------------
#NOTEDATA:;
#CHARTNAME:;
#STEPSTYPE:dance-double;
#DESCRIPTION:;
#CHARTSTYLE:;
#DIFFICULTY:Easy;
#METER:3;
#RADARVALUES:0.213934,0.261362,0.113021,0.000000,0.000000,106.000000,98.000000,8.000000,0.000000,0.000000,0.000000,0.000000,0.000000,0.000000,0.213934,0.261362,0.113021,0.000000,0.000000,106.000000,98.000000,8.000000,0.000000,0.000000,0.000000,0.000000,0.000000,0.000000;
#CREDIT:;
#DISPLAYBPM:130.000000;
#NOTES:
00000000
00000000
00000000
00000000
,
00000000
00000000
00000000
00000000
,
00000000
00000000
00000000
00000000
,
00000000
00000000
00000000
00000000
,
00000000
00000000
00000000
00000000
,
00000001
00001000
00000000
00000000
,
00010000
10000000
00000000
00000000
,
10000000
00010000
00000000
00000000
,
10000000
00010000
00000000
00000000
,
00001000
00000001
00000000
00000000
,
00000001
00001000
00000000
00000000
,
00000001
00001000
00000000
00000000
,
00000001
00001000
00010000
10000000
,
00010000
00010000
00000000
00000000
10000000
00000000
00010000
00000000
,
00010000
00001000
00001000
00000001
,
00000001
00000001
00000000
00000000
00000001
00000000
00001000
00000000
,
00001000
00010000
00010000
10000000
,
00010000
00010000
00000000
00000000
00100000
00000000
00010000
00000000
,
00001000
00000100
00001000
00010000
,
00100000
00010000
00001000
00000100
,
00001000
00010000
10000000
00010000
,
01000000
01000000
01000000
00000000
,
00010000
00001000
00000000
00000000
,
00000010
00000010
00000010
00000000
,
00001000
00010000
00000000
00000000
,
10000000
10000000
10000000
00000000
,
00010000
00001000
00000000
00000000
,
00000001
00000001
00000001
00000000
,
00000100
00000100
00000100
00000100
,
00001000
00010000
00011000
00000000
,
00010000
10000000
10010000
00000000
,
00010000
00001000
00011000
00000000
,
00001000
00000001
00001001
00000000
,
00001000
00010000
10010000
00000000
,
00010000
00001000
00001001
00000000
,
00001000
00010000
10010000
00000000
,
00100000
00010000
00001000
00000100
,
00001001
00000000
00000000
00000000
;

//---------------dance-double - ----------------
#NOTEDATA:;
#CHARTNAME:;
#STEPSTYPE:dance-double;
#DESCRIPTION:;
#CHARTSTYLE:;
#DIFFICULTY:Medium;
#METER:5;
#RADARVALUES:0.284572,0.339771,0.127149,0.000000,0.000000,141.000000,132.000000,9.000000,0.000000,0.000000,0.000000,0.000000,0.000000,0.000000,0.284572,0.339771,0.127149,0.000000,0.000000,141.000000,132.000000,9.000000,0.000000,0.000000,0.000000,0.000000,0.000000,0.000000;
#CREDIT:;
#DISPLAYBPM:130.000000;
#NOTES:
00000000
00000000
00000000
00000000
,
00000000
00000000
00000000
00000000
,
00000000
00000000
00000000
00000000
,
00000000
00000000
00000000
00000000
,
00000000
00000000
00000000
00000000
,
00000001
00000100
00000001
00001000
,
00000010
00001000
00000010
00010000
,
00001000
00010000
00001000
01000000
,
00010000
01000000
00010000
10000000
,
10000000
00100000
10000000
00010000
,
01000000
00010000
01000000
00001000
,
00010000
00001000
00010000
00000010
,
00001000
00000010
00001000
00000001
,
00000100
00000100
00000000
00000000
00001000
00000000
00010000
00000000
,
10000000
00010000
10000000
10000000
,
01000000
01000000
00000000
00000000
00010000
00000000
00001000
00000000
,
00000001
00001000
00000001
00000001
,
00000100
00000100
00000000
00000000
00000010
00000100
00000010
00000000
,
00000010
00000100
00001000
00000000
00000100
00001000
00000100
00000000
,
00000100
00001000
00010000
00000000
00001000
00000000
00001000
00000000
,
00001000
00010000
00100000
00000000
01000000
00000000
10010000
00000000
,
00000000
00010000
00000000
10000000
,
01000000
00000000
00000000
00000000
00010000
00001000
00010000
00001000
,
00000000
00000010
00000001
00001000
,
00000100
00000000
00000000
00000000
00010000
00001000
00010000
00001000
,
00000000
01000000
10000000
00010000
,
00100000
00000000
00000000
00000000
00010000
00001000
00010000
00001000
,
00000000
00000000
00000000
00000000
,
00000100
00001000
00001000
00010000
00010000
01000000
00010000
00000000
,
00001000
00001000
00010000
00000000
00011000
00000000
00000000
00000000
,
00001000
00001000
00010000
00000000
01010000
00000000
00000000
00000000
,
00001000
00001000
00010000
00000000
00110000
00000000
00000000
00000000
,
00001000
00001000
00010000
00000000
10010000
00000000
00000000
00000000
,
00001000
00001000
00010000
00000000
00001100
00000000
00000000
00000000
,
00001000
00001000
00010000
00000000
00001010
00000000
00000000
00000000
,
00001000
00001000
00010000
00000000
00001001
00000000
00000000
00000000
,
00000001
00001000
00010000
10000000
,
11000000
00000000
00000000
00000000
;

//---------------dance-double - ----------------
#NOTEDATA:;
#CHARTNAME:;
#STEPSTYPE:dance-double;
#DESCRIPTION:;
#CHARTSTYLE:;
#DIFFICULTY:Hard;
#METER:7;
#RADARVALUES:0.351174,0.444316,0.098894,0.000000,0.247235,174.000000,167.000000,7.000000,0.000000,0.000000,0.000000,0.000000,0.000000,0.000000,0.351174,0.444316,0.098894,0.000000,0.247235,174.000000,167.000000,7.000000,0.000000,0.000000,0.000000,0.000000,0.000000,0.000000;
#CREDIT:;
#DISPLAYBPM:130.000000;
#NOTES:
00000000
00000000
00000000
00000000
,
00000000
00000000
00000000
00000000
,
00000000
00000000
00000000
00000000
,
00000000
00000000
00000000
00000000
,
00000000
00000000
00000000
00000000
,
10000000
00000000
00000000
00000000
00000000
00000000
00010000
00000000
00000000
00000000
00000000
00000000
00000000
00000000
01000000
00010000
,
01000000
00000000
00010000
10000000
00000000
00000000
10000000
01000000
,
00100000
00000000
00000000
00000000
00000000
00000000
00001000
00000000
00000000
00000000
00000000
00000000
00000000
00000000
00001000
00000100
,
00001000
00000100
00001000
00000001
00000000
00000000
00000000
00000000
,
00000001
00000000
00000000
00000000
00000000
00000000
00001000
00000000
00000000
00000000
00000000
00000000
00000000
00000000
00001000
00000100
,
00001000
00000000
00010000
00001000
00000000
00000000
10000000
10000000
,
00010000
00000000
00000000
00000000
00000000
00000000
10000000
00000000
00000000
00000000
00000000
00000000
00000000
00000000
01000000
10000000
,
01000000
00010000
00001000
00000010
,
00000001
00000001
00000000
00000000
00001000
00000000
00010000
00000000
,
01000000
01000000
10010000
01100000
,
10000000
10000000
00000000
00000000
00010000
00000000
00001000
00000000
,
00000010
00000010
00001001
00000110
,
00000001
00000001
00000001
00001000
00000010
00001000
00000010
00010000
,
00001000
00001000
00001000
00010000
00001000
00010000
00001000
01000000
,
00010000
00010000
00010000
10000000
00010000
10000000
00010000
00000000
,
10000000
10000000
10000000
00000000
01100000
00000000
10010000
00000000
,
01000000
00000000
01000000
00000000
10000000
00010000
01000000
00000000
,
00010000
00100000
00000000
00000000
00010000
00000000
00000000
00000000
00001000
00000000
00001000
00000000
00010000
00000000
00001000
00000000
,
00100000
00000000
00100000
00000000
00010000
10000000
00100000
00000000
,
10000000
01000000
00000000
00000000
10000000
00000000
00000000
00000000
00010000
00000000
00010000
00000000
01000000
00000000
01000000
00000000
,
00100000
00000000
00100000
00000000
10000000
00010000
00100000
00000000
,
00010000
01000000
00000000
00000000
00010000
00000000
00000000
00000000
00001000
00000000
00010000
00000000
00010000
00000000
00001000
00000000
,
00000100
00000000
00000100
00000000
00001000
00000100
00001000
00000001
,
00001000
00000010
00001000
00000001
00001000
00000100
00010000
00000000
,
00010000
00001000
00000000
00010000
00000000
00001000
00000000
00010000
00000000
00000000
00000000
00000000
00000000
00000000
00000000
00000000
,
00001000
00000100
00000000
00010000
00000000
00001000
00000000
00100000
00000000
00000000
00000000
00000000
00000000
00000000
00000000
00000000
,
00010000
00100000
00000000
00001000
00000000
00010000
00000000
00000100
00000000
00000000
00000000
00000000
00000000
00000000
00000000
00000000
,
01000000
00010000
00000000
01000000
00000000
00001000
00000000
00010000
00000000
00000000
00000000
00000000
00000000
00000000
00000000
00000000
,
00000010
00001000
00000000
00000010
00000000
00010000
00000000
00001000
00000000
00000000
00000000
00000000
00000000
00000000
00000000
00000000
,
10000000
00010000
00000000
01000000
00000000
00010000
00000000
00001000
00000000
00000000
00000000
00000000
00000000
00000000
00000000
00000000
,
00000001
00001000
00000000
00000100
00000000
00001000
00000000
00010000
00000000
00000000
00000000
00000000
00000000
00000000
00000000
00000000
,
01000000
00001000
00010000
00000010
,
00011000
00000000
00000000
00000000
;

//---------------dance-couple - ----------------
#NOTEDATA:;
#CHARTNAME:;
#STEPSTYPE:dance-couple;
#DESCRIPTION:;
#CHARTSTYLE:;
#DIFFICULTY:Challenge;
#METER:7;
#RADARVALUES:0.246225,0.418180,0.183660,0.000000,0.000000,122.000000,109.000000,13.000000,0.000000,0.000000,0.000000,0.000000,0.000000,0.000000,0.246225,0.365907,0.183660,0.000000,0.000000,122.000000,109.000000,13.000000,0.000000,0.000000,0.000000,0.000000,0.000000,0.000000;
#CREDIT:;
#DISPLAYBPM:130.000000;
#NOTES:
00000000
00000000
00000000
00000000
,
00000000
00000000
00000000
00000000
,
00000000
00000000
00000000
00000000
,
00000000
00000000
00000000
00000000
,
00000000
00000000
00000000
00000000
,
10000000
00000000
00010001
00000000
10000000
10000000
00010001
00000000
,
10000000
00000000
01000001
00000000
10000000
10000000
01000001
00000000
,
00010000
00000000
10000001
00000000
00010000
00010000
10000001
00000000
,
00010000
00000000
01000001
00000000
00010000
00010000
01000001
00000000
,
00000001
00000000
10001000
00000000
00000001
00000001
10001000
00000000
,
00000001
00000000
10000100
00000000
00000001
00000001
10000100
00000000
,
00001000
00000000
10000001
00000000
00001000
00001000
10000001
00000000
,
00001000
00000000
10000100
00000000
00001000
00001000
10000100
00000000
,
01100000
01100000
01100001
00000000
10000000
00000000
00010001
00000000
,
10000000
00000000
00010001
00000000
10000000
00010000
01000001
00000000
,
00000110
00000110
10000110
00000000
00000001
00000000
10001000
00000000
,
00000001
00000000
10001000
00000000
00000001
00001000
10000100
00000000
,
00000001
00000100
00001000
00000000
00000001
00000100
00001000
00000000
,
10000000
01000000
00010000
00000000
10000000
01000000
00010000
00000000
,
00000001
00000001
00000100
00000000
00001000
00001000
00000100
00000000
,
00010000
00010000
01000000
00000000
10000000
10000000
01000000
00000000
,
00001000
00000001
10000100
00000000
00000001
00001000
10000100
00000000
,
00001000
00000001
10000100
00000000
00001001
00000000
10001100
00000000
,
00010000
10000000
01000001
00000000
10000000
00010000
01000001
00000000
,
00010000
10000000
01000001
00000000
10010000
00000000
01010001
00000000
,
00000001
00000001
00001000
00001000
00000100
00000100
00000100
00000000
,
10000000
10000000
00010000
00010000
01000000
01000000
01000000
00000000
,
00000001
00001000
00000001
00001000
00000101
00000101
00000101
00000000
,
10000000
00010000
10000000
00010000
11000000
11000000
11000000
00000000
,
10011001
00000000
01000100
00000000
10001000
00010001
10001000
00000000
,
00000011
00000000
00000100
00000000
00001000
00000100
00001000
00000000
,
10100000
00000000
01000000
00000000
00010000
01000000
00010000
00000000
,
00001010
00000000
00000101
00000000
00000001
00001000
00000100
00000000
,
00110000
00000000
11000000
00000000
10000000
00010000
01000000
00000000
,
00000001
00000001
00000010
00000100
00001000
00000000
00001000
00000000
,
00010000
00010000
00100000
01000000
10000000
00000000
10000000
00000000
,
10000001
00011000
01000100
01000100
,
10011001
00000000
00000000
00000000
;

//---------------dance-solo - ----------------
#NOTEDATA:;
#CHARTNAME:;
#STEPSTYPE:dance-solo;
#DESCRIPTION:;
#CHARTSTYLE:;
#DIFFICULTY:Easy;
#METER:4;
#RADARVALUES:0.205861,0.261362,0.014128,0.000000,0.000000,102.000000,101.000000,1.000000,0.000000,0.000000,0.000000,0.000000,0.000000,0.000000,0.205861,0.261362,0.014128,0.000000,0.000000,102.000000,101.000000,1.000000,0.000000,0.000000,0.000000,0.000000,0.000000,0.000000;
#CREDIT:;
#DISPLAYBPM:130.000000;
#NOTES:
000000
000000
000000
000000
,
000000
000000
000000
000000
,
000000
000000
000000
000000
,
000000
000000
000000
000000
,
000000
000000
000000
000000
,
010000
010000
000000
000000
,
000001
000001
000000
000000
,
100000
100000
000000
000000
,
000010
000010
000000
000000
,
001000
001000
000000
000000
,
000001
000001
000000
000000
,
100000
100000
000000
000000
,
000100
000001
001000
100000
,
010000
000000
000001
000001
,
010000
010000
001000
100000
,
000010
000000
100000
100000
,
000010
000010
001000
000001
,
010000
000000
000100
000100
,
100000
100000
100000
100000
,
000001
000001
000001
000001
,
001000
001000
000001
100000
,
001000
000010
001000
000010
,
100000
000000
000000
000000
,
000100
000001
100000
001000
,
000000
000000
000000
000000
,
000100
000001
100000
001000
,
000000
000000
000000
000000
,
000100
100000
000100
010000
,
010000
010000
010000
010000
,
100000
000100
001000
000001
,
000001
001000
000100
100000
,
000010
001000
000010
100000
,
000001
010000
001000
010000
,
000100
001000
000100
001000
,
000001
100000
000100
001000
,
001000
000100
100000
000001
,
001000
001000
000100
000100
,
100001
000000
000000
000000
;

//---------------dance-solo - ----------------
#NOTEDATA:;
#CHARTNAME:;
#STEPSTYPE:dance-solo;
#DESCRIPTION:;
#CHARTSTYLE:;
#DIFFICULTY:Medium;
#METER:5;
#RADARVALUES:0.304754,0.365907,0.014128,0.000000,0.000000,151.000000,150.000000,1.000000,0.000000,0.000000,0.000000,0.000000,0.000000,0.000000,0.304754,0.365907,0.014128,0.000000,0.000000,151.000000,150.000000,1.000000,0.000000,0.000000,0.000000,0.000000,0.000000,0.000000;
#CREDIT:;
#DISPLAYBPM:130.000000;
#NOTES:
000000
000000
000000
000000
,
000000
000000
000000
000000
,
000000
000000
000000
000000
,
000000
000000
000000
000000
,
000000
000000
000000
000000
,
010000
100000
010000
100000
,
000010
000100
000010
000100
,
000001
100000
000001
100000
,
000100
001000
000100
001000
,
000010
001000
000010
001000
,
000100
100000
000100
100000
,
001000
010000
001000
010000
,
000001
100000
001000
001000
,
001000
001000
000000
000000
000100
000000
000100
000000
,
100000
100000
000001
001000
,
000010
000010
000000
000000
100000
000000
000001
000000
,
100000
000001
001000
000001
,
010000
010000
001000
000000
100000
100000
000010
000000
,
001000
001000
000001
000000
001000
001000
000010
000000
,
100000
100000
000001
000000
100000
100000
001000
000000
,
100000
100000
000100
000000
001000
001000
001000
000000
,
000001
100000
000001
010000
,
000100
000000
000100
000000
001000
000010
001000
000000
,
000001
010000
000001
100000
,
000100
000000
000100
000000
010000
000001
010000
000000
,
000100
100000
000100
001000
,
000001
000000
000001
000000
100000
000100
001000
000000
,
000010
001000
000010
100000
,
000100
001000
000001
100000
000001
001000
000100
000000
,
000100
000100
001000
010000
100000
000000
000000
000000
,
000100
000100
001000
000010
000001
000000
000000
000000
,
000100
000100
001000
010000
100000
000000
000000
000000
,
000100
000100
001000
000010
000001
000000
000000
000000
,
100000
100000
000100
001000
000001
000000
000000
000000
,
000001
000001
000100
001000
100000
000000
000000
000000
,
001000
001000
000100
001000
000100
000000
000000
000000
,
000001
100000
000001
100000
,
001100
000000
000000
000000
;

//---------------dance-solo - ----------------
#NOTEDATA:;
#CHARTNAME:;
#STEPSTYPE:dance-solo;
#DESCRIPTION:;
#CHARTSTYLE:;
#DIFFICULTY:Hard;
#METER:7;
#RADARVALUES:0.353192,0.444316,0.014128,0.000000,0.296681,175.000000,174.000000,1.000000,0.000000,0.000000,0.000000,0.000000,0.000000,0.000000,0.353192,0.444316,0.014128,0.000000,0.296681,175.000000,174.000000,1.000000,0.000000,0.000000,0.000000,0.000000,0.000000,0.000000;
#CREDIT:;
#DISPLAYBPM:130.000000;
#NOTES:
000000
000000
000000
000000
,
000000
000000
000000
000000
,
000000
000000
000000
000000
,
000000
000000
000000
000000
,
000000
000000
000000
000000
,
100000
000000
001000
000000
000000
000000
010000
010000
000000
000000
000001
000000
000000
000000
000001
000000
,
000000
000000
001000
000000
000000
000000
000010
000010
000000
000000
100000
000000
000000
000000
100000
000000
,
000000
000000
001000
000000
000000
000000
000001
000001
000000
000000
100000
000000
000000
000000
000001
000000
,
000000
000000
001000
000000
000000
000000
010000
010000
000000
000000
100000
000000
000000
000000
000001
000000
,
000000
000000
000001
000000
000000
000000
001000
001000
000000
000000
000001
000000
000000
000000
100000
000000
,
000000
000000
100000
000000
000000
000000
000100
000100
000000
000000
001000
000000
000000
000000
000001
000000
,
000000
000000
100000
000000
000000
000000
100000
100000
000000
000000
000100
000000
000000
000000
001000
000000
,
000000
001000
000000
001000
000000
000001
000000
000001
,
001000
100000
001000
000000
000010
000000
000010
000000
,
001000
001000
000100
010000
,
000001
001000
100000
000000
001000
000000
001000
000000
,
000100
000100
010000
000001
,
001000
000000
000010
000000
001000
000010
000000
000000
001000
000000
000010
000000
001000
000010
000000
000000
,
000100
000000
000001
000000
000100
000001
000000
000000
000100
000000
000001
000000
000100
000001
000000
000000
,
000001
000000
010000
000000
000001
010000
000000
000000
000001
000000
010000
000000
000001
010000
000000
000000
,
001000
000000
000100
000000
000001
000100
000000
000000
010000
000000
000001
000000
010000
000000
000000
000000
,
000001
000100
000001
000100
,
001000
000000
001000
000000
001000
010000
001000
001000
,
100000
000100
100000
000100
,
001000
000000
001000
000000
001000
000010
001000
001000
,
000001
000100
000001
000100
,
000010
000000
000010
000000
000010
100000
100000
100000
,
001000
001000
001000
001000
,
100000
000010
100000
000001
010000
000001
001000
000000
,
000100
001000
000000
001000
000000
000100
000000
001000
000000
000000
000000
000000
000000
000000
000000
000000
,
100000
000001
000000
000001
000000
100000
000000
000001
000000
000000
000000
000000
000000
000000
000000
000000
,
001000
000010
000000
001000
000000
000010
000000
001000
000000
000000
000000
000000
000000
000000
000000
000000
,
010000
000100
000000
100000
000000
000100
000000
100000
000000
000000
000000
000000
000000
000000
000000
000000
,
000001
001000
000000
000010
000000
001000
000000
000010
000000
000000
000000
000000
000000
000000
000000
000000
,
100000
000010
000000
001000
000000
000010
000000
001000
000000
000000
000000
000000
000000
000000
000000
000000
,
010000
000001
000000
100000
000000
000001
000000
100000
000000
000000
000000
000000
000000
000000
000000
000000
,
100000
001000
000100
000001
010000
000010
010000
000010
,
100010
000000
000000
000000
;

//---------------dance-single - ----------------
#NOTEDATA:;
#CHARTNAME:;
#STEPSTYPE:dance-single;
#DESCRIPTION:;
#CHARTSTYLE:;
#DIFFICULTY:Challenge;
#METER:13;
#RADARVALUES:0.684184,0.763072,0.664001,0.254298,0.628682,339.000000,292.000000,47.000000,18.000000,0.000000,0.000000,0.000000,0.000000,0.000000,0.684184,0.763072,0.664001,0.254298,0.628682,339.000000,292.000000,47.000000,18.000000,0.000000,0.000000,0.000000,0.000000,0.000000;
#CREDIT:;
#DISPLAYBPM:130.000000;
#NOTES:
// measure 0
0000
0000
0000
0000
,  // measure 1
0000
0000
0000
0000
,  // measure 2
0000
0000
0000
0000
,  // measure 3
0000
0000
0000
0000
,  // measure 4
0000
0000
0000
0000
,  // measure 5
1000
0100
0010
0000
0011
0000
0001
0010
0100
0000
1100
0000
1000
0010
0100
0000
,  // measure 6
0010
0100
0001
0000
0101
0000
0100
0010
1000
0000
1010
0000
1000
0100
0010
0000
,  // measure 7
0010
0100
0001
0000
1001
0000
1000
0100
0010
0000
0011
0000
0001
0010
0100
0000
,  // measure 8
0010
0100
1000
0000
1010
0000
0010
1000
0001
0000
0101
0000
0100
0001
1000
0000
,  // measure 9
0100
1000
0001
0000
0101
0000
0100
0010
1000
0000
1010
0000
0010
1000
0001
0000
,  // measure 10
0100
0001
1000
0000
1100
0000
0100
1000
0010
0000
0110
0000
0100
0001
1000
0000
,  // measure 11
0001
0010
0100
0000
1100
0000
1000
0010
0100
0000
0101
0000
0001
1000
0100
0000
,  // measure 12
0020
0032
0203
0302
2003
3002
0203
0302
,  // measure 13
0023
0130
0000
0000
1100
0000
0101
0000
,  // measure 14
1000
0100
0001
0000
0101
0000
1010
0000
,  // measure 15
1000
0020
0031
0000
0000
0001
0010
1000
,  // measure 16
0100
0001
0010
0000
0110
0000
1001
0000
,  // measure 17
1000
0000
0001
0000
0100
0001
0000
0001
1000
0000
0100
0000
1000
0010
0000
0010
,  // measure 18
0100
0000
0010
0000
0001
0010
0000
0010
0100
0000
1000
0000
0010
0100
0000
0100
,  // measure 19
0001
0000
1000
0000
0100
0010
0000
0010
0001
0000
1000
0000
0010
1000
0000
1000
,  // measure 20
0100
0000
0010
0000
0001
0010
0000
0010
0100
1000
0100
0000
0010
1000
0010
0000
,  // measure 21
0100
0001
1000
0000
1001
0000
0001
0100
0010
0000
1010
0000
1000
0100
0010
0000
,  // measure 22
0010
0001
0100
0000
0101
0000
0001
1000
0100
0000
1100
0000
1010
0000
0110
0000
,  // measure 23
0010
0001
1000
0000
1001
0000
0001
0100
0010
0000
1010
0000
1000
0100
0010
0000
,  // measure 24
0010
0001
0100
0000
0101
0000
0001
1000
0100
0000
0110
0000
1010
0000
0011
0000
,  // measure 25
0010
0001
0100
0000
0110
0000
0100
1000
0010
0000
1010
0000
1000
0100
0010
0000
,  // measure 26
0001
0100
0010
0000
1010
0000
1000
0001
0100
0000
0101
0000
1001
0000
1010
0000
,  // measure 27
1000
0100
0010
0000
0011
0000
0001
0010
1000
0000
1100
0000
1000
0010
0100
0000
,  // measure 28
0001
0010
0100
0000
1100
0000
0100
0010
0001
0000
1001
0000
0110
0000
1001
0000
,  // measure 29
0001
0010
0000
1000
0000
0010
0000
0002
0000
0000
0100
0000
1003
0000
0000
0000
,  // measure 30
0100
1000
0000
0010
0000
0100
0000
2000
0000
0000
0001
0000
3100
0000
0000
0000
,  // measure 31
0010
1000
0000
0001
0000
0010
0000
0200
0000
0000
0010
0000
1300
0000
0000
0000
,  // measure 32
0001
0010
0000
1000
0000
0100
0000
0020
0000
0000
0001
0000
0130
0000
0000
0000
,  // measure 33
0010
1000
0000
0001
0000
0010
0000
0200
0000
0000
1300
0000
0101
0000
0000
0000
,  // measure 34
0100
0001
0000
1000
0000
0100
0000
2000
0000
0000
3010
0000
0101
0000
0000
0000
,  // measure 35
0010
1000
0000
0100
0000
0001
0000
0020
0000
0000
0130
0000
1001
0000
0000
0000
,  // measure 36
1000
0100
0001
0000
0001
0100
1000
0000
1000
0010
0100
0000
0100
0001
0010
0000
,  // measure 37
0002
0003
0000
0000
;
