#VERSION:0.83;
#TITLE:17才;
#SUBTITLE:;
#ARTIST:BAMBEE;
#TITLETRANSLIT:17SAI;
#SUBTITLETRANSLIT:;
#ARTISTTRANSLIT:;
#GENRE:;
#ORIGIN:;
#CREDIT:;
#BANNER:17SAI.png;
#BACKGROUND:17SAI-bg.png;
#PREVIEWVID:;
#JACKET:17SAI-jacket.png;
#CDIMAGE:;
#DISCIMAGE:;
#LYRICSPATH:;
#CDTITLE:;
#MUSIC:17SAI.ogg;
#OFFSET:0.000000;
#SAMPLESTART:15.836000;
#SAMPLELENGTH:15.000000;
#SELECTABLE:YES;
#DISPLAYBPM:142.000000;
#BPMS:0.000=142.022,
4.000=141.990,
108.000=142.194,
116.000=141.917,
128.000=141.053,
132.000=141.972;
#STOPS:;
#DELAYS:;
#WARPS:;
#TIMESIGNATURES:0.000=4=4;
#TICKCOUNTS:0.000=4;
#COMBOS:0.000=1;
#SPEEDS:0.000=1.000=0.000=0;
#SCROLLS:0.000=1.000;
#FAKES:;
#LABELS:0.000=Song Start;
#BGCHANGES:;
#KEYSOUNDS:;
#ATTACKS:
;

//---------------dance-single - ----------------
#NOTEDATA:;
#CHARTNAME:;
#STEPSTYPE:dance-single;
#DESCRIPTION:;
#CHARTSTYLE:;
#DIFFICULTY:Easy;
#METER:3;
#RADARVALUES:0.170456,0.196380,0.000000,0.000000,0.000000,105.000000,105.000000,0.000000,0.000000,0.000000,0.000000,0.000000,0.000000,0.000000,0.170456,0.196380,0.000000,0.000000,0.000000,105.000000,105.000000,0.000000,0.000000,0.000000,0.000000,0.000000,0.000000,0.000000;
#CREDIT:;
#DISPLAYBPM:142.000000;
#NOTES:
0000
0000
0000
0000
,
0000
0000
0000
0000
,
0000
0000
0000
0000
,
0000
0001
0000
0001
,
0000
1000
0000
1000
,
0000
0001
0000
0001
,
0000
1000
0000
1000
,
0000
0001
0000
0100
,
0000
1000
0000
0100
,
0000
0001
1000
0100
,
0000
0010
0000
0100
,
0000
1000
0000
1000
,
0000
0001
0000
0001
,
0000
0100
0000
0100
,
0000
0010
0000
0010
,
0000
0001
0000
0100
,
0000
1000
0000
0100
,
0000
0010
0000
0010
,
0000
1000
0001
0100
,
0000
0100
0000
0100
,
0000
1000
0000
0001
,
0000
0010
0000
0010
,
0000
0100
0000
0100
,
0000
0001
0000
0001
,
0000
1000
0000
1000
,
0000
0010
0000
0100
,
0000
1000
0000
0001
,
0000
0100
0000
0100
,
0000
0001
0000
0001
,
0000
1000
0001
0100
,
0000
0010
0000
0010
,
0000
0001
0000
0001
,
0000
1000
0001
0100
,
0000
0001
1000
0100
,
0000
0100
0000
0100
,
0000
0001
0000
0001
,
0000
1000
1000
0100
,
0000
0001
1000
0100
,
0000
0001
0000
0001
,
0000
1000
0000
0010
,
0000
0100
0100
0001
,
0000
1000
0010
0100
,
0000
0010
0000
0010
,
0000
0100
0000
0001
,
0000
1000
1000
0100
,
0000
0001
0010
0100
,
0000
0001
0000
0001
,
0000
1000
0000
1000
,
0000
0001
0000
0010
,
0100
0000
0000
0100
0000
0000
0000
0000
;

//---------------dance-single - ----------------
#NOTEDATA:;
#CHARTNAME:;
#STEPSTYPE:dance-single;
#DESCRIPTION:;
#CHARTSTYLE:;
#DIFFICULTY:Medium;
#METER:8;
#RADARVALUES:0.349030,0.364706,0.125001,0.000000,0.000000,215.000000,204.000000,11.000000,0.000000,0.000000,0.000000,0.000000,0.000000,0.000000,0.349030,0.364706,0.125001,0.000000,0.000000,215.000000,204.000000,11.000000,0.000000,0.000000,0.000000,0.000000,0.000000,0.000000;
#CREDIT:;
#DISPLAYBPM:142.000000;
#NOTES:
0000
0000
0000
0000
,
0000
0000
0000
0000
,
0000
0000
0000
0000
,
0000
0001
0000
0100
,
0000
0100
0000
1000
,
0001
0100
1000
0100
,
0001
0000
1000
0100
1000
0000
0101
0000
,
1000
0000
0001
0100
0001
0000
1100
0000
,
0001
0001
1000
0100
,
1001
0000
0100
0000
0100
0000
0001
1000
,
0100
0001
0001
1000
,
0100
0001
0001
0100
,
0001
0010
0100
1000
,
0010
0100
0001
1000
,
1001
0000
0100
0000
0100
0000
0100
1000
,
0001
0100
1000
0010
,
0100
0001
1000
0100
,
0010
0001
1000
0100
,
1001
0010
0010
0010
,
1000
0100
1000
0100
1000
0000
0001
0000
,
0100
1000
0001
0100
,
0001
0100
0001
0100
0001
0000
1000
0000
,
0100
0000
0001
0000
0100
0000
0010
0100
,
0010
0000
1000
0000
0001
0000
0010
0100
,
0010
0001
0001
1000
,
0100
0001
0100
1000
,
0010
0100
0001
1000
,
0100
1000
0001
0010
,
0001
1000
0100
0000
0100
0000
0100
0000
,
0001
0000
0100
0000
0001
0000
0001
0100
,
0001
1000
0001
0010
,
0100
0000
1000
0000
0001
0000
1000
0010
,
0100
0001
1000
0100
,
0010
0000
0100
0000
0001
0000
0001
0100
,
0001
1000
0001
0101
,
0010
0000
1100
0000
1000
0000
0100
0010
,
0001
0100
0100
1000
,
0001
0000
0100
0000
0001
0000
0001
0100
,
0001
1100
0001
0101
,
1000
0000
0100
0000
0010
0000
0100
1000
,
0001
0100
1000
0100
,
0001
0000
0100
0000
0001
0000
0001
0100
,
0001
1000
0100
0001
,
1000
0000
0010
0000
0100
0000
0001
1000
,
0100
1000
0101
1000
,
0011
0000
0100
0000
0001
0000
0001
1000
,
0100
1000
0001
0100
,
1000
0000
0100
0000
0001
0000
0100
0010
,
1000
0000
0100
0000
0100
0000
0001
1000
,
0100
0000
0000
0100
0000
0000
0000
0000
;

//---------------dance-single - ----------------
#NOTEDATA:;
#CHARTNAME:;
#STEPSTYPE:dance-single;
#DESCRIPTION:;
#CHARTSTYLE:;
#DIFFICULTY:Hard;
#METER:10;
#RADARVALUES:0.438317,0.448869,0.011364,0.011364,0.000000,270.000000,269.000000,1.000000,1.000000,0.000000,0.000000,0.000000,0.000000,0.000000,0.438317,0.448869,0.011364,0.011364,0.000000,270.000000,269.000000,1.000000,1.000000,0.000000,0.000000,0.000000,0.000000,0.000000;
#CREDIT:;
#DISPLAYBPM:142.000000;
#NOTES:
0000
0000
0000
0000
,
0000
0000
0000
0000
,
0000
0000
0000
0000
,
0001
0100
0000
0001
1000
0100
0000
1000
,
0010
0100
0000
0010
1000
0001
0000
1000
,
0001
0100
0000
0010
0000
0100
0000
0001
,
1000
0001
0000
0010
0001
0010
0000
0100
,
1000
0100
0000
1000
0001
0100
0000
0010
,
1000
0100
0000
0010
0001
0100
0000
1000
,
0100
0000
0000
0010
0000
0000
0100
0010
,
0100
0010
0001
0000
0001
0100
0000
0010
,
0000
0000
1000
0100
1000
0100
0010
0001
,
0100
0000
0010
1000
0100
1000
0000
0001
,
0000
0000
0000
0100
0001
0100
0001
1000
,
0010
0000
1000
0100
1000
0100
0010
0001
,
0010
0001
0100
0000
0001
1000
0000
0100
,
0000
0000
0001
0010
0001
0010
0001
1000
,
0100
0010
0001
0100
0001
0100
0010
1000
,
0100
1000
1000
1000
,
0001
0100
0010
1000
0001
0100
0001
1000
,
0000
0100
0000
0001
0000
0001
1000
0100
,
0010
0001
1000
0100
0010
0001
1000
0010
,
0000
0100
0000
0000
0000
0000
1000
0001
,
0100
0001
0000
0100
0010
1000
0000
0010
,
1000
0100
0000
1000
0001
0010
0000
0001
,
0000
1000
0000
0100
0000
0100
0000
0001
,
0000
0010
0000
0100
0000
1000
0000
0001
,
0000
0100
0000
1000
0000
0100
0000
0001
,
0010
0001
1000
0000
0100
0001
0010
0000
,
0100
0000
0000
1000
0000
0001
1000
0100
,
1000
0100
0000
0001
0100
0001
0000
1000
,
0010
1000
0000
0001
0010
0001
0000
1000
,
0100
1000
0000
0001
0100
0001
0000
1000
,
0100
0010
0000
0001
0000
0001
1000
0100
,
1000
0100
0000
0001
0100
0001
0000
1000
,
0010
1000
0000
0010
0100
0010
0000
1000
,
0001
0100
0000
0010
0100
0001
0000
1000
,
0001
0100
0000
1000
0001
0100
0001
1000
,
0100
0000
0001
0000
0001
0100
0000
0001
,
1000
0100
0000
1000
0010
0100
0000
0010
,
1000
0001
0000
0100
0001
0100
0000
0001
,
1000
0100
0000
0001
0000
0100
0010
1000
,
0010
0000
0100
0000
0001
0010
0000
0100
,
1000
0100
0000
1000
0001
0100
0000
0001
,
1000
0010
0000
0100
0001
1000
0000
0100
,
0001
0100
0000
0001
0000
1000
0010
1000
,
0100
1000
0001
0000
0010
0100
0000
1000
,
0000
0001
0000
1000
0100
0010
0001
1000
,
0100
1000
0001
0100
0010
1000
0001
0010
,
0200
0000
0300
1001
0000
0000
0000
0000
;

//---------------dance-double - ----------------
#NOTEDATA:;
#CHARTNAME:;
#STEPSTYPE:dance-double;
#DESCRIPTION:;
#CHARTSTYLE:;
#DIFFICULTY:Easy;
#METER:2;
#RADARVALUES:0.163963,0.168326,0.000000,0.000000,0.000000,101.000000,101.000000,0.000000,0.000000,0.000000,0.000000,0.000000,0.000000,0.000000,0.163963,0.168326,0.000000,0.000000,0.000000,101.000000,101.000000,0.000000,0.000000,0.000000,0.000000,0.000000,0.000000,0.000000;
#CREDIT:;
#DISPLAYBPM:142.000000;
#NOTES:
00000000
00000000
00000000
00000000
,
00000000
00000000
00000000
00000000
,
00000000
00000000
00000000
00000000
,
00000000
00001000
00000000
00001000
,
00000000
00000001
00000000
00000010
,
00000000
00000100
00000000
00010000
,
00000000
00001000
00000000
01000000
,
00000000
00010000
00000000
10000000
,
00000000
00010000
00000000
01000000
,
00000000
10000000
00010000
01000000
,
00000000
00010000
00000000
01000000
,
00000000
00001000
00000000
00010000
,
00000000
00000010
00000000
00001000
,
00000000
00000001
00000000
00000100
,
00000000
00000001
00000000
00000010
,
00000000
00000100
00000000
00010000
,
00000000
00001000
00000000
00010000
,
00000000
00000100
00000000
00001000
,
00000000
00000100
00010000
00001000
,
00000000
01000000
00000000
00100000
,
00000000
10000000
00000000
00010000
,
00000000
00100000
00000000
00100000
,
00000000
01000000
00000000
01000000
,
00000000
00010000
00000000
00010000
,
00000000
10000000
00000000
01000000
,
00000000
00010000
00000000
01000000
,
00000000
00001000
00000000
00010000
,
00000000
00000100
00000000
00001000
,
00000000
00000001
00000000
00000001
,
00000000
00001000
00000001
00000100
,
00000000
00000010
00000000
00000010
,
00000000
00000001
00000000
00000001
,
00000000
00000010
00000000
00000100
,
00000000
00010000
00001000
01000000
,
00000000
00010000
00000000
01000000
,
00000000
10000000
00000000
01000000
,
00000000
10000000
00000000
10000000
,
00000000
00010000
10000000
01000000
,
00000000
00010000
00000000
01000000
,
00000000
00001000
00000000
00010000
,
00000000
00000010
00000000
00000100
,
00000000
00000001
00001000
00000100
,
00000000
00000010
00000000
00000100
,
00000000
00000001
00000000
00000100
,
00000000
00001000
00000000
00000100
,
00000000
00010000
00001000
01000000
,
00000000
00010000
00000000
01000000
,
00000000
00100000
00000000
00010000
,
00000000
10000000
00000000
00100000
,
01000000
00000000
00000000
01000000
00000000
00000000
00000000
00000000
;

//---------------dance-double - ----------------
#NOTEDATA:;
#CHARTNAME:;
#STEPSTYPE:dance-double;
#DESCRIPTION:;
#CHARTSTYLE:;
#DIFFICULTY:Medium;
#METER:4;
#RADARVALUES:0.339290,0.364706,0.147729,0.000000,0.000000,209.000000,196.000000,13.000000,0.000000,0.000000,0.000000,0.000000,0.000000,0.000000,0.339290,0.364706,0.147729,0.000000,0.000000,209.000000,196.000000,13.000000,0.000000,0.000000,0.000000,0.000000,0.000000,0.000000;
#CREDIT:;
#DISPLAYBPM:142.000000;
#NOTES:
00000000
00000000
00000000
00000000
,
00000000
00000000
00000000
00000000
,
00000000
00000000
00000000
00000000
,
00000000
00001000
00000000
00010000
,
00000000
00000100
00000000
00001000
,
00000001
00000100
00000010
00001000
,
00000100
00000000
00010000
00001000
00010000
00000000
01000000
00000000
,
10000000
00000000
00010000
10000000
01000000
00000000
01000000
00000000
,
00100000
00100000
00001000
00010000
,
00011000
00000000
00000100
00000000
00000100
00000000
00000100
00001000
,
00000001
00000100
00000100
00000100
,
00000010
00000010
00010000
00001000
,
01000000
00010000
10000000
00100000
,
01000000
00010000
01000000
00001000
,
00011000
00000000
00000100
00000000
00000100
00000000
00000100
00001000
,
00000001
00000001
00000100
00000010
,
00010000
00001000
00100000
01000000
,
10000000
00010000
10000000
01000000
,
10010000
00100000
00100000
00100000
,
10000000
01000000
10000000
00000000
00010000
01000000
00010000
00000000
,
01000000
00001000
00010000
00000100
,
00001000
00000100
00001000
00000000
00000001
00000100
00000001
00000000
,
00001000
00000100
00010000
00001000
,
00010000
00010000
00010000
01000000
,
10000000
10000000
10000000
00100000
,
01000000
00001000
00010000
00000010
,
00000100
00000001
00001000
00000100
,
00010000
00001000
01000000
00010000
,
10010000
01000000
01000000
01000000
,
00100000
00000000
01000000
00000000
00001000
00000000
00001000
00010000
,
00001000
00010000
00000010
00000100
,
00000001
00000000
00001000
00000000
00000001
00000000
00000100
00000001
,
00001000
00000100
00000010
00000001
,
00001000
00000000
00000100
00000000
00010000
00000000
00010000
00001000
,
00010000
00001000
00100000
01010000
,
10000000
01000000
00010000
11000000
,
00100000
00100000
00100000
01000000
,
00001000
00000000
00010000
00000000
00000100
00000000
00000100
00001000
,
00000100
00001000
00000001
00000100
,
00001000
00001100
00000010
00000010
,
00010000
00011000
01000000
00010000
,
10000000
00000000
00100000
00000000
01000000
00000000
01000000
10000000
,
01000000
10000000
00010000
01010000
,
00001000
00011000
00000100
00001100
,
00000001
00000101
00000010
00000010
,
00001000
00000000
00001000
00000000
00000100
00000000
00000100
00010000
,
00001000
01000000
00010000
10000000
,
00100000
01000000
00010000
01000000
,
00001000
00010000
00000100
00001000
,
00001001
00000000
00000000
00000100
00000000
00000000
00000000
00000000
;

//---------------dance-double - ----------------
#NOTEDATA:;
#CHARTNAME:;
#STEPSTYPE:dance-double;
#DESCRIPTION:;
#CHARTSTYLE:;
#DIFFICULTY:Hard;
#METER:6;
#RADARVALUES:0.407472,0.448869,0.011364,0.000000,0.000000,251.000000,250.000000,1.000000,0.000000,0.000000,0.000000,0.000000,0.000000,0.000000,0.407472,0.448869,0.011364,0.000000,0.000000,251.000000,250.000000,1.000000,0.000000,0.000000,0.000000,0.000000,0.000000,0.000000;
#CREDIT:;
#DISPLAYBPM:142.000000;
#NOTES:
00000000
00000000
00000000
00000000
,
00000000
00000000
00000000
00000000
,
00000000
00000000
00000000
00000000
,
00000000
00000000
00000010
00001000
00000001
00000100
00000000
00000001
,
00000000
00001000
00000100
00010000
00000000
00001000
00100000
00000000
,
01000000
00000000
00010000
00000000
,
10000000
00000000
00010000
01000000
00010000
01000000
00000000
00001000
,
00000000
00010000
00000100
00001000
00000100
00001000
00000000
00000001
,
00000000
00001000
00000100
00001000
00000000
00000001
00000010
00000000
,
00000100
00000000
00000000
00010000
00000000
00000000
00001000
00010000
,
00001000
00010000
01000000
00000000
10000000
00010000
00000000
01000000
,
00000000
00000000
10000000
01000000
00100000
00010000
10000000
01000000
,
00100000
00000000
00010000
01000000
00010000
01000000
00000000
00010000
,
00000000
00000000
00000000
00001000
00010000
00000100
00001000
00000010
,
00000100
00000000
00000001
00000100
00000001
00000010
00000001
00001000
,
00000100
00001000
00000001
00000000
00000010
00000100
00000000
00010000
,
00000000
00000000
00001000
00010000
00001000
00010000
01000000
10000000
,
00010000
00100000
00010000
01000000
00100000
10000000
01000000
10000000
,
01000000
00010000
00001000
00000010
,
00000001
00000100
00000010
00000100
00000001
00001000
00000100
00001000
,
00000000
00000100
00000000
00000001
00000000
00001000
00000100
00000010
,
00000001
00001000
00000100
00001000
00000010
00010000
00001000
00010000
,
00000000
00001000
00000000
00000000
00000000
00000000
01000000
10000000
,
00010000
01000000
00000000
01000000
00000000
01000000
00001000
00010000
,
00000100
00001000
00000000
00001000
00000000
00001000
00000001
00000100
,
00000001
00000100
00000000
00000100
00000000
00000100
00000001
00000010
,
00000100
00001000
00000001
00000100
00000000
00000100
00000001
00000000
,
00000010
00000100
00000000
00001000
00000000
00001000
00000000
00000001
,
00001000
00000100
00001000
00000100
00000000
00010000
00001000
00000000
,
00001000
00000000
00000000
01000000
00000000
00010000
01000000
00010000
,
10000000
01000000
00100000
00000000
00010000
01000000
00000000
00010000
,
00000000
00000000
00000000
10000000
00000000
00010000
01000000
00010000
,
01000000
00000000
00001000
00000010
,
00000001
00000000
00000000
00000001
00000000
00000001
00000100
00000001
,
00000010
00000100
00001000
00000000
00001000
00000001
00000000
00000100
,
00000000
00000000
00000000
00001000
00000100
00010000
00001000
00010000
,
00001000
00010000
01000000
10000000
,
00010000
00000000
00000000
00100000
10000000
00010000
01000000
00100000
,
01000000
00000000
00010000
00000000
00010000
00100000
00000000
00010000
,
00000000
00000000
00000000
10000000
01000000
10000000
00010000
01000000
,
00010000
00001000
00000010
00000001
,
00000100
00000000
00000000
00001000
00000000
00000100
00010000
00001000
,
00010000
00000000
00010000
00000000
01000000
10000000
00000000
00010000
,
00000000
00000000
00000000
00100000
10000000
00010000
01000000
00100000
,
01000000
00001000
00000010
00000001
,
00000100
00000000
00000000
00001000
00000000
00000100
00001000
00000100
,
00010000
00001000
00010000
00000000
01000000
10000000
00000000
00010000
,
00000000
10000000
00000000
00100000
00010000
00001000
00000010
00000001
,
00000100
00001000
00010000
01000000
10000000
00100000
01000000
00010000
,
10000000
00000000
00000000
10010000
00000000
00000000
00000000
00000000
;

//---------------dance-single - ----------------
#NOTEDATA:;
#CHARTNAME:;
#STEPSTYPE:dance-single;
#DESCRIPTION:;
#CHARTSTYLE:;
#DIFFICULTY:Beginner;
#METER:2;
#RADARVALUES:0.060066,0.168326,0.022728,0.056819,0.000000,37.000000,35.000000,2.000000,5.000000,0.000000,0.000000,0.000000,0.000000,0.000000,0.060066,0.168326,0.022728,0.056819,0.000000,37.000000,35.000000,2.000000,5.000000,0.000000,0.000000,0.000000,0.000000,0.000000;
#CREDIT:;
#DISPLAYBPM:142.000000;
#NOTES:
0000
0000
0000
0000
,
0000
0000
0000
0000
,
0000
0000
0000
0000
,
0000
0001
0001
0000
,
0000
0100
0000
0100
,
0000
1000
0000
0000
,
1001
0000
0000
0000
,
0002
0000
0003
0000
,
1001
0000
0000
0000
,
2000
0000
3000
0000
,
1000
0000
0000
0000
,
0000
0000
0000
0000
,
0100
0000
0000
0000
,
0000
0000
0000
0000
,
0010
0000
0000
0000
,
0000
0000
0000
0000
,
0001
0000
0000
0000
,
0000
0000
0000
0000
,
0010
0000
0000
0000
,
0000
0000
0000
0000
,
0100
0000
0000
0000
,
0000
0000
0000
0000
,
1000
0000
0000
0000
,
0000
0000
0000
0000
,
0010
0000
0000
0000
,
0000
0000
0000
0000
,
0100
0000
0000
0000
,
0000
0000
0000
0000
,
0001
0000
0000
0000
,
0000
0000
0000
0000
,
0010
0000
0000
0000
,
0000
0000
0000
0000
,
0100
0000
0000
0000
,
0000
0000
0000
0000
,
1000
0000
0000
0000
,
0000
0000
0000
0000
,
0010
0000
0000
0000
,
0000
0000
0000
0000
,
0100
0000
0000
0000
,
0000
0000
0000
0000
,
0001
0000
0000
0000
,
0000
0000
0000
0000
,
0200
0000
0000
0000
,
0300
0000
0000
0000
,
0200
0000
0000
0000
,
0300
0000
0000
0000
,
0010
0000
0010
0000
,
1000
0001
1000
0000
,
0100
0000
0100
0000
,
0002
0000
0000
0003
0000
0000
0000
0000
;

//---------------dance-single - ----------------
#NOTEDATA:;
#CHARTNAME:;
#STEPSTYPE:dance-single;
#DESCRIPTION:;
#CHARTSTYLE:;
#DIFFICULTY:Challenge;
#METER:13;
#RADARVALUES:0.561695,0.673303,0.181820,0.511369,0.164775,346.000000,330.000000,16.000000,45.000000,0.000000,0.000000,0.000000,0.000000,0.000000,0.561695,0.673303,0.181820,0.511369,0.164775,346.000000,330.000000,16.000000,45.000000,0.000000,0.000000,0.000000,0.000000,0.000000;
#CREDIT:;
#DISPLAYBPM:142.000000;
#NOTES:
// measure 0
0000
0000
0000
0000
,  // measure 1
0000
0000
0000
0000
,  // measure 2
0000
0000
0000
0000
0000
0000
0000
0020
,  // measure 3
0000
0130
0001
1000
0001
0010
0000
0200
,  // measure 4
0000
1300
0001
0100
0000
0100
0010
0000
,  // measure 5
2002
3003
0220
0330
,  // measure 6
1010
0000
1000
0100
0010
0002
0000
1003
,  // measure 7
0000
0001
0010
1000
0100
0010
0000
0200
,  // measure 8
0000
0310
1000
0001
0000
0010
0100
0000
,  // measure 9
2200
0300
0000
3100
0000
0100
1000
0001
,  // measure 10
0200
0000
0010
0000
0301
0010
0001
0100
,  // measure 11
0000
0100
0010
1000
0001
0010
0100
2000
,  // measure 12
0001
0000
0001
0000
0001
0001
3001
1000
,  // measure 13
0010
0000
0010
0000
0100
0000
0100
0000
0001
0010
0001
0010
0001
0010
0001
0010
,  // measure 14
0001
0000
0001
0100
0001
1000
0001
0100
,  // measure 15
0020
0000
1030
0010
0001
0010
0000
1010
,  // measure 16
0000
0100
1000
0010
0000
0100
0002
1000
,  // measure 17
0100
0000
0103
1000
0100
0010
1000
0001
,  // measure 18
0010
0110
1001
0110
,  // measure 19
1000
0010
1000
0001
1000
0100
1000
0010
,  // measure 20
1000
0100
0010
0002
0023
0230
2300
3020
,  // measure 21
0031
0100
0001
0010
1000
0100
0001
1000
,  // measure 22
0010
0001
0200
0302
2003
3020
0130
0001
,  // measure 23
0020
0000
0001
0000
1030
0000
0100
0010
,  // measure 24
0200
1000
0301
0110
,  // measure 25
0010
0100
0010
0100
0010
0100
0010
0100
0010
0000
0000
0000
0110
0000
0000
0000
,  // measure 26
0001
1000
0001
1000
0001
1000
0001
1000
0001
0000
0000
0000
1001
0000
0000
0000
,  // measure 27
1000
0100
1000
0100
1000
0100
1000
0100
1000
0000
0000
1000
0100
0000
0010
0000
,  // measure 28
0001
0100
0010
1000
0000
1000
0100
0000
,  // measure 29
0022
0000
0033
0001
0000
0100
1000
0001
,  // measure 30
0010
0001
0010
1000
0010
0001
0000
1001
,  // measure 31
0000
0001
1000
0100
0000
0100
0010
0100
,  // measure 32
0001
1000
0100
0010
0001
1000
0010
0100
,  // measure 33
1000
0010
0001
0200
0000
1300
0001
0010
,  // measure 34
0110
0000
0010
1000
0001
0010
0000
0110
,  // measure 35
0000
0100
0001
1000
0002
0013
0200
1300
,  // measure 36
0020
0031
0200
0320
2030
3002
0023
0230
,  // measure 37
1300
0100
1000
0100
1000
0000
2000
0000
0000
0000
3001
0000
0010
0000
0100
0000
,  // measure 38
1000
0010
0001
0100
1000
0100
0010
0001
,  // measure 39
0000
0001
0100
1000
0020
0130
0002
0013
,  // measure 40
0100
0000
0001
0000
1000
0000
0001
0000
0010
0100
0010
0000
0100
0000
2000
0000
,  // measure 41
0010
0000
0010
3010
0000
0010
1000
0001
,  // measure 42
0010
0001
0100
0010
0100
0001
0010
0001
,  // measure 43
0000
0010
0100
0001
0200
0301
2000
3010
,  // measure 44
0001
0100
1000
0010
0100
0001
1000
0001
,  // measure 45
0020
0000
0000
0001
0000
0031
0001
0100
,  // measure 46
0010
0000
1000
0000
0100
0010
0100
0000
0001
0000
1000
0000
0010
0000
0100
0000
,  // measure 47
0000
0110
0000
0010
1000
0001
0010
0100
,  // measure 48
1000
0100
1000
0100
1000
0100
1000
0100
1000
0100
1000
0100
1000
0100
1000
0100
,  // measure 49
2000
0000
0000
3001
0000
0000
0000
0000
;
