#VERSION:0.83;
#TITLE:1,2,3,4, 007;
#SUBTITLE:;
#ARTIST:NI-NI;
#TITLETRANSLIT:;
#SUBTITLETRANSLIT:;
#ARTISTTRANSLIT:;
#GENRE:;
#ORIGIN:;
#CREDIT:;
#BANNER:1,2,3,4, 007.png;
#BACKGROUND:1,2,3,4, 007-bg.png;
#PREVIEWVID:;
#JACKET:1,2,3,4, 007-jacket.png;
#CDIMAGE:;
#DISCIMAGE:;
#LYRICSPATH:;
#CDTITLE:;
#MUSIC:1,2,3,4, 007.ogg;
#OFFSET:0.000000;
#SAMPLESTART:44.563000;
#SAMPLELENGTH:15.000000;
#SELECTABLE:YES;
#DISPLAYBPM:140.000000;
#BPMS:0.000=139.998;
#STOPS:;
#DELAYS:;
#WARPS:;
#TIMESIGNATURES:0.000=4=4;
#TICKCOUNTS:0.000=4;
#COMBOS:0.000=1;
#SPEEDS:0.000=1.000=0.000=0;
#SCROLLS:0.000=1.000;
#FAKES:;
#LABELS:0.000=Song Start;
#BGCHANGES:;
#KEYSOUNDS:;
#ATTACKS:
;

//---------------dance-single - ----------------
#NOTEDATA:;
#CHARTNAME:;
#STEPSTYPE:dance-single;
#DESCRIPTION:;
#CHARTSTYLE:;
#DIFFICULTY:Easy;
#METER:2;
#RADARVALUES:0.092766,0.165093,0.011006,0.000000,0.000000,59.000000,58.000000,1.000000,0.000000,0.000000,0.000000,0.000000,0.000000,0.000000,0.092766,0.165093,0.011006,0.000000,0.000000,59.000000,58.000000,1.000000,0.000000,0.000000,0.000000,0.000000,0.000000,0.000000;
#CREDIT:;
#DISPLAYBPM:140.000000;
#NOTES:
0000
0000
0000
0000
,
0000
0000
0000
0000
,
0000
0000
0000
0000
,
0010
0000
0000
0000
,
0000
0000
0000
0000
,
0010
0000
0000
0000
,
0001
0000
0000
0000
,
0001
0000
0000
0000
,
0010
0000
0000
0000
,
0010
0000
0000
0000
,
0001
0000
0000
0000
,
0001
0000
0000
0000
,
1000
0000
0000
0000
,
1000
0000
1000
0000
,
1000
0000
0000
0000
,
1000
0000
0000
0000
,
0010
0000
0000
0000
,
0100
0000
0100
0000
,
0010
0000
0000
0000
,
0010
0000
0000
0000
,
1000
0000
1000
0000
,
0000
0000
0000
0000
,
0001
0000
0000
0000
,
0001
0000
0000
0000
,
0100
0000
0100
0000
,
0000
0000
0000
0000
,
0010
0000
0000
0000
,
0010
0000
0010
0000
,
0100
0000
0000
0000
,
0100
0000
0000
0000
,
0001
0000
0000
0000
,
0000
0010
0100
0000
,
0001
0000
0000
0000
,
0001
0000
0000
0000
,
0010
0000
0000
0000
,
0010
0000
0100
0000
,
0010
0000
0000
0000
,
1000
0000
0000
0000
,
0001
0000
0001
0000
,
0000
0010
0100
0000
,
0001
0000
0000
0000
,
0100
0000
0000
0000
,
1000
0000
0000
0000
,
1000
0000
0000
0000
,
1000
0000
1000
0000
,
0001
0000
0001
0000
,
0010
0000
0000
0000
,
0010
0000
0000
0000
,
0010
0000
0100
0000
,
0010
0000
0100
0000
,
1100
0000
0000
0000
;

//---------------dance-single - ----------------
#NOTEDATA:;
#CHARTNAME:;
#STEPSTYPE:dance-single;
#DESCRIPTION:;
#CHARTSTYLE:;
#DIFFICULTY:Medium;
#METER:7;
#RADARVALUES:0.205973,0.302670,0.066037,0.000000,0.000000,131.000000,125.000000,6.000000,0.000000,0.000000,0.000000,0.000000,0.000000,0.000000,0.205973,0.302670,0.066037,0.000000,0.000000,131.000000,125.000000,6.000000,0.000000,0.000000,0.000000,0.000000,0.000000,0.000000;
#CREDIT:;
#DISPLAYBPM:140.000000;
#NOTES:
0000
0000
0000
0000
,
0000
0000
0000
0000
,
0000
0000
0000
0000
,
0001
0000
0000
0000
,
0010
0000
0000
0000
,
1001
0000
0000
0000
,
0001
0000
0001
0000
,
1000
0000
0001
0000
,
0001
1000
0001
0000
,
0010
0100
0010
0000
,
0010
0010
0000
0010
,
0000
0001
0000
0001
,
0000
1000
0000
0001
,
0010
0100
1000
0000
,
0000
0001
1000
0000
,
1000
0000
0001
0000
,
0000
0100
0000
0010
,
1000
0100
0010
0001
,
0001
0001
0100
0000
,
1000
1000
0010
0000
,
0010
0000
0100
0000
,
0001
0001
1000
1000
,
0010
0010
0001
0000
,
0100
0100
1000
0000
,
0100
0000
0100
0000
,
1000
1000
0001
0001
,
1000
0010
0001
1000
,
1001
1001
0100
0000
,
0001
0000
0001
0000
,
1000
0000
1000
0000
,
0010
0010
0001
0100
,
0000
0010
0100
0000
,
0010
0010
0010
0000
,
0001
0000
0001
0000
,
0010
0001
1000
0001
,
1001
1001
0100
0000
,
0001
0000
1000
0000
,
1000
0001
1000
0001
,
0100
0100
1000
0010
,
0000
0010
0100
0000
,
0001
0001
1000
0000
,
0100
0100
0100
0000
,
0001
0000
0001
0000
,
1000
0000
1000
0000
,
1000
0001
1000
0000
,
0010
0100
0010
0000
,
0010
0000
0010
0000
,
0100
0000
0100
0000
,
0010
0100
0010
0000
,
1000
0001
1000
0000
,
1001
0000
0000
0000
;

//---------------dance-single - ----------------
#NOTEDATA:;
#CHARTNAME:;
#STEPSTYPE:dance-single;
#DESCRIPTION:;
#CHARTSTYLE:;
#DIFFICULTY:Hard;
#METER:11;
#RADARVALUES:0.375783,0.440247,0.297167,0.000000,0.132074,239.000000,212.000000,27.000000,0.000000,0.000000,0.000000,0.000000,0.000000,0.000000,0.375783,0.440247,0.297167,0.000000,0.132074,239.000000,212.000000,27.000000,0.000000,0.000000,0.000000,0.000000,0.000000,0.000000;
#CREDIT:;
#DISPLAYBPM:140.000000;
#NOTES:
0000
0000
0000
0000
,
0000
0000
0000
0000
,
0000
0000
0000
0000
,
0010
0000
0010
0000
,
0100
0000
0100
0000
,
1001
0000
0000
0000
,
0010
0100
0010
0100
,
1000
0001
1000
0001
,
0000
0000
0010
0100
0000
0000
0000
0000
0001
0000
0000
1000
0000
0000
0100
0000
,
0000
0000
1000
0010
0000
0000
0000
0000
0100
0000
0000
0001
0000
0000
0010
0000
,
0000
0001
0000
1000
,
0001
0000
1000
0000
0001
1000
0001
0000
,
0000
0000
0100
0000
0010
0100
0010
0000
,
1010
0011
1100
0000
,
0000
0000
1000
0000
0100
1000
0100
0000
,
0010
0000
0001
0000
0001
0100
0001
0000
,
0100
0000
1000
0000
1000
0001
0100
0000
,
0001
1000
0001
1000
0001
1000
0010
0000
,
0100
0000
0100
0000
1000
0100
0001
0000
,
0001
0010
1000
0000
1000
0000
1000
0000
,
0011
0000
0000
0100
1000
0000
0000
0000
,
0010
0100
0010
0000
0010
0001
0100
0000
,
0001
0000
0001
0000
0001
1000
0100
0000
,
0010
0100
0001
0000
0001
0000
0001
0000
,
1010
0000
0000
0010
0001
0000
0000
0000
,
1000
0100
0010
0001
0100
0001
0010
0000
,
0010
0000
0000
0100
0010
0000
0000
0100
0010
0000
0000
0100
0010
0000
0000
0000
,
0011
0011
1100
0000
,
0010
0100
0010
0000
1001
0000
0000
0000
,
0001
1000
0001
0000
0110
0000
0000
0000
,
0001
0000
0000
1000
0001
0000
0000
1000
0001
0000
0000
1000
0001
0000
0000
0000
,
0000
1010
0101
0000
,
0001
1000
0001
0000
0110
0000
0000
0000
,
0010
0100
0010
1000
1001
0000
0000
0000
,
0010
0000
0000
0100
0010
0000
0000
0100
0010
0000
0000
0100
0010
0000
0000
0000
,
1010
1010
0101
0000
,
0010
0100
0010
0000
1001
0000
0000
0000
,
1000
0001
1000
0000
0110
0000
0000
0000
,
1000
0000
0000
0001
1000
0000
0000
0001
1000
0000
0000
0001
1000
0000
0000
0000
,
0000
0011
1100
0000
,
1000
0001
1000
0000
0110
0000
0000
0000
,
0010
0100
0010
0001
1001
0000
0000
0000
,
1000
0001
1000
0000
0010
0100
0010
0000
,
0001
1000
0001
0000
0100
0010
0100
0000
,
0000
0000
0010
0100
0000
0000
0000
0000
0001
0000
0000
1000
0000
0000
0100
0000
,
0000
0000
1000
0010
0000
0000
0000
0000
0100
0000
0000
0001
0000
0000
0010
0000
,
1000
0100
1000
0000
0110
0000
0001
0000
,
0001
0100
0001
0000
0110
0000
1000
0000
,
0000
0000
0100
0001
0000
0000
0000
0000
0010
0000
0000
0100
0000
0000
1000
0000
,
0000
0000
0100
1000
0000
0000
0000
0000
0010
0000
0000
0100
0000
0000
0001
0000
,
0101
0000
0000
0000
;

//---------------dance-double - ----------------
#NOTEDATA:;
#CHARTNAME:;
#STEPSTYPE:dance-double;
#DESCRIPTION:;
#CHARTSTYLE:;
#DIFFICULTY:Easy;
#METER:1;
#RADARVALUES:0.092766,0.137577,0.011006,0.000000,0.000000,59.000000,58.000000,1.000000,0.000000,0.000000,0.000000,0.000000,0.000000,0.000000,0.092766,0.137577,0.011006,0.000000,0.000000,59.000000,58.000000,1.000000,0.000000,0.000000,0.000000,0.000000,0.000000,0.000000;
#CREDIT:;
#DISPLAYBPM:140.000000;
#NOTES:
00000000
00000000
00000000
00000000
,
00000000
00000000
00000000
00000000
,
00000000
00000000
00000000
00000000
,
00000001
00000000
00000000
00000000
,
00000001
00000000
00000000
00000000
,
00000010
00000000
00000000
00000000
,
00000100
00000000
00000000
00000000
,
00001000
00000000
00010000
00000000
,
00100000
00000000
00000000
00000000
,
00100000
00000000
00000000
00000000
,
10000000
00000000
00000000
00000000
,
00100000
00000000
00000000
00000000
,
01000000
00000000
00000000
00000000
,
00010000
00000000
00001000
00000000
,
00000100
00000000
00000000
00000000
,
00000001
00000000
00000000
00000000
,
00000010
00000000
00000000
00000000
,
00001000
00000000
00000001
00000000
,
00000100
00000000
00000000
00000000
,
00000100
00000000
00000000
00000000
,
00010000
00000000
00000000
00000000
,
00100000
00000000
01000000
00000000
,
10000000
00000000
00000000
00000000
,
00010000
00000000
00000000
00000000
,
00000100
00000000
00000000
00000000
,
00000001
00000000
00000000
00000000
,
00000010
00000000
00000010
00000000
,
00000100
00000000
00000000
00000000
,
00001000
00000000
00000000
00000000
,
01000000
00000000
00000000
00000000
,
00100000
00000000
00100000
00000000
,
00000000
10000000
00010000
00000000
,
01000000
00000000
00000000
00000000
,
00001000
00000000
00000000
00000000
,
00000010
00000000
00000001
00000000
,
00001000
00000000
00000000
00000000
,
00010000
00000000
00000000
00000000
,
01000000
00000000
01000000
00000000
,
00010000
00000000
00000000
00000000
,
00000000
00001000
00010000
00000000
,
00000010
00000000
00000000
00000000
,
00000001
00000000
00000000
00000000
,
00001000
00000000
00000000
00000000
,
00000001
00000000
00000000
00000000
,
00000100
00000000
00000000
00000000
,
00010000
00000000
00000000
00000000
,
00100000
00000000
00000000
00000000
,
01000000
00000000
00000000
00000000
,
10000000
00000000
00000000
00000000
,
00010000
00000000
00000000
00000000
,
10010000
00000000
00000000
00000000
;

//---------------dance-double - ----------------
#NOTEDATA:;
#CHARTNAME:;
#STEPSTYPE:dance-double;
#DESCRIPTION:;
#CHARTSTYLE:;
#DIFFICULTY:Medium;
#METER:3;
#RADARVALUES:0.253142,0.302670,0.132074,0.000000,0.000000,161.000000,149.000000,12.000000,0.000000,0.000000,0.000000,0.000000,0.000000,0.000000,0.253142,0.302670,0.132074,0.000000,0.000000,161.000000,149.000000,12.000000,0.000000,0.000000,0.000000,0.000000,0.000000,0.000000;
#CREDIT:;
#DISPLAYBPM:140.000000;
#NOTES:
00000000
00000000
00000000
00000000
,
00000000
00000000
00000000
00000000
,
00000000
00000000
00000000
00000000
,
00000010
00000000
00000000
00000000
,
00000010
00000000
00000000
00000000
,
00001001
00000000
00000000
00000000
,
00000100
00000010
00000100
00000010
,
00000100
00000010
00000100
00000010
,
00010000
00001000
00010000
00000000
,
00100000
01000000
00100000
00000000
,
00000000
00010000
00000000
00010000
,
00000000
10000000
00100000
01000000
,
00000000
10000000
00000000
10000000
,
00100000
00011000
00000100
00000000
,
00000000
00000010
00000000
00000010
,
00001000
00000100
00000010
00000001
,
00000000
00001000
00000000
00001000
,
00000100
00011000
00100000
10010000
,
00010000
00010000
01000000
00000000
,
00100000
01000000
00100000
00000000
,
10000000
00000000
00010000
00000000
,
00000000
01000000
00010000
00001000
,
00000010
00000010
00000100
00000000
,
00000001
00000010
00000100
00000000
,
00001000
00000000
00000100
00000000
,
00010000
00001000
00010000
00011000
,
00100000
10000000
00010000
01000000
,
00001000
00010000
00001000
00000000
,
00000010
00000100
00000010
00000100
,
00000100
00000010
00000100
00001001
,
00001000
00000010
00010000
00001000
,
00000000
00100000
01000000
00000000
,
10000000
10000000
00100000
01000000
,
00001000
00010000
00011000
00000000
,
00000010
00000100
00000010
00000100
,
00000010
00010000
00001000
00000000
,
01000000
00100000
01000000
00100000
,
00100000
01000000
00100000
10010000
,
00001000
00010000
00000010
00000100
,
00000000
00011000
00011000
00000000
,
00001000
00001000
00010000
00010000
,
00100000
10000000
10010000
00000000
,
00010000
00100000
00010000
00100000
,
00010000
00100000
00010000
00100000
,
00010000
00001000
00000010
00000100
,
00000001
00001000
00000100
00000000
,
00001000
00000100
00001000
00000100
,
00001000
00000100
00001000
00000100
,
00001000
00010000
01000000
00000000
,
00100000
10000000
00010000
01000000
,
10010000
00000000
00000000
00000000
;

//---------------dance-double - ----------------
#NOTEDATA:;
#CHARTNAME:;
#STEPSTYPE:dance-double;
#DESCRIPTION:;
#CHARTSTYLE:;
#DIFFICULTY:Hard;
#METER:7;
#RADARVALUES:0.410373,0.467763,0.341192,0.000000,0.000000,261.000000,230.000000,31.000000,0.000000,0.000000,0.000000,0.000000,0.000000,0.000000,0.410373,0.467763,0.341192,0.000000,0.000000,261.000000,230.000000,31.000000,0.000000,0.000000,0.000000,0.000000,0.000000,0.000000;
#CREDIT:;
#DISPLAYBPM:140.000000;
#NOTES:
00000000
00000000
00000000
00000000
,
00000000
00000000
00000000
00000000
,
00000000
00000000
00000000
00000000
,
00000001
00000001
00001000
00001000
,
00000010
00000010
00000100
00000100
,
00001001
00000000
00000000
00000000
,
00100000
00010000
00100000
00000000
00001000
00010000
00001000
00000000
,
01000000
00010000
01000000
00000000
00001000
00010000
00001000
00000000
,
00010000
00000000
00010000
00000000
00000010
00001000
00000100
00000000
,
00000001
00000000
00000001
00000000
00001000
00000010
00000100
00000000
,
00000000
00000000
00000010
00000000
00000001
00001000
00000100
00000000
,
00001000
00000100
00010000
00000000
00010000
00001000
01000000
00000000
,
00000000
00000000
01000000
00000000
00100000
01000000
00010000
01000000
,
00001000
00010000
00001000
00010000
00001000
00000000
00000000
00000000
,
00000000
00000000
00000010
00000000
00001000
00000001
00000100
00000000
,
00000010
00001000
00000100
00000000
00010000
00001000
00010000
00001000
,
00000000
00000000
00100000
00000000
10000000
01000000
10000000
00000000
,
00100000
01000000
00010000
00100000
00001000
00010000
00001000
00000000
,
00000000
00000000
00000001
00000000
00001000
00000001
00001000
00000000
,
00000010
00000100
00000010
00000000
00010000
00001000
00010000
00000000
,
00100000
00000000
00000000
11000000
11000000
00000000
00000000
00000000
,
00100000
10010000
01000000
10010000
,
00100000
00000000
10000000
00000000
10000000
00010000
01000000
00000000
,
00001000
00010000
00001000
00000000
00000010
00000100
00000010
00000000
,
00001000
00000000
00000000
00000101
00000101
00000000
00000000
00000000
,
00000010
00000001
00001000
00000100
00010000
00001000
00010000
00000000
,
10010000
10010000
00011000
00001100
,
00000011
00000011
00001100
00000000
,
00000010
00000001
00000100
00000000
00001000
00000010
00000100
00000000
,
00000001
00001000
00000100
00000000
00010000
00001000
00010000
00000000
,
00010010
00011000
00101000
00011000
,
00000000
01010000
01010000
00000000
,
10000000
00010000
10000000
00000000
01000000
00010000
01000000
00000000
,
00001000
00000000
00010000
00010000
00010000
00000000
00000000
00000000
,
00001010
00000101
00001001
00011000
,
01010000
01010000
10100000
00000000
,
10000000
01000000
10000000
00000000
00100000
00010000
00100000
00000000
,
00001000
00010000
00000100
00001000
00000010
00000100
00000100
00000000
,
00000010
00000001
00000100
00000010
00001000
00000100
00010000
00000000
,
00000000
00011000
10100000
00000000
,
00100000
10000000
01000000
00000000
00100000
00010000
01000000
00000000
,
00001000
00010000
00000010
00000100
00000010
00000000
00000000
00000000
,
00000010
00001000
00000010
00000000
00010000
00001000
00010000
00000000
,
00000100
00001000
00000100
00000000
00010000
00001000
00010000
00000000
,
00001000
00000000
00001000
00000000
00100000
00010000
01000000
00000000
,
10000000
00000000
10000000
00000000
00010000
00100000
01000000
00000000
,
00000000
00000000
01100000
00000000
10000000
00010000
01000000
00000000
,
00010000
01000000
00001000
00010000
00001000
00010000
00000100
00000000
,
00001000
00000000
00001000
00000000
00000001
00000100
00001000
00000000
,
00010000
00000000
00010000
00000000
00001000
00010000
01000000
00000000
,
10010000
00000000
00000000
00000000
;

//---------------dance-couple - ----------------
#NOTEDATA:;
#CHARTNAME:;
#STEPSTYPE:dance-couple;
#DESCRIPTION:;
#CHARTSTYLE:;
#DIFFICULTY:Medium;
#METER:3;
#RADARVALUES:0.232702,0.412732,0.231130,0.000000,0.044025,148.000000,127.000000,21.000000,0.000000,0.000000,0.000000,0.000000,0.000000,0.000000,0.232702,0.440247,0.231130,0.000000,0.044025,148.000000,127.000000,21.000000,0.000000,0.000000,0.000000,0.000000,0.000000,0.000000;
#CREDIT:;
#DISPLAYBPM:140.000000;
#NOTES:
00000000
00000000
00000000
00000000
,
00000000
00000000
00000000
00000000
,
00000000
00000000
00000000
00000000
,
10000001
00000000
10000001
00000000
,
00011000
00000000
00011000
00000000
,
10011001
00000000
00000000
00000000
,
00100000
01000000
00100000
01000000
,
00000010
00000100
00000010
00000100
,
00000000
00000000
00100000
01000000
00000000
00000000
00000000
00000000
00010000
00000000
00000000
10000000
00000000
00000000
01000000
00000000
,
00000000
00000000
00000010
00000100
00000000
00000000
00000000
00000000
00000001
00000000
00000000
00001000
00000000
00000000
00000100
00000000
,
00000000
00010001
00000000
10000001
,
00010000
00000000
10000001
00000000
00010000
10000000
00010001
00000000
,
00000000
00000000
01000001
00000000
00100000
01000000
00100001
00000000
,
10100000
00110001
11000000
00000001
,
00000000
10000001
00000000
10001000
,
00000001
00000000
10001000
00000000
00000001
00001000
10000001
00000000
,
00000000
00000000
10000100
00000000
00000010
00000100
10000010
00000000
,
00001010
10000011
00001100
10000000
,
00010001
00010001
01000100
00000000
,
00011000
00011000
00100010
00000000
,
00100010
00000000
01000100
00000000
,
00010000
00010000
00001000
00001000
,
00100010
00100010
10001000
00000000
,
01000100
01000100
00010001
00000000
,
01000100
00000000
01000100
00000000
,
10000000
01000000
00100000
00010000
00001000
00000100
00000010
00000001
,
10001000
00100010
00010001
10001000
,
10011001
10011001
01000100
00000000
,
00010000
10000000
00010000
10000000
,
00000001
00001000
00000001
00001000
,
00100000
10010000
00000010
00001001
,
00000000
00100010
01000100
00000000
,
00100000
00100000
00100000
00100000
,
00000100
00000100
00000100
00000100
,
10101010
00110011
01010101
11001100
,
10100011
10100011
01011100
00000000
,
00100000
01000000
00100000
00000000
10010000
00000000
00000000
00000000
,
00000010
00000100
00000010
00000000
00001001
00000000
00000000
00000000
,
00000010
00001001
00100000
10010000
,
00000000
10100011
01011100
00000000
,
10001000
00010001
10001000
00000000
01100110
00000000
00000000
00000000
,
00100010
01000100
00100010
00010001
10011001
00000000
00000000
00000000
,
00100000
01000000
00100000
01000000
,
00000010
00000100
00000010
00000100
,
00000000
00000000
00100000
01000000
00000000
00000000
00000000
00000000
00010000
00000000
00000000
10000000
00000000
00000000
01000000
00000000
,
00000000
00000000
00000010
00000100
00000000
00000000
00000000
00000000
00000001
00000000
00000000
00001000
00000000
00000000
00000100
00000000
,
10000000
00100000
10000000
00000000
00010000
01000000
00010000
00000000
,
00000001
00000010
00000001
00000000
00001000
00000100
00001000
00000000
,
00000000
00000000
01000100
00010001
00000000
00000000
00000000
00000000
00100010
00000000
00000000
01000100
00000000
00000000
10001000
00000000
,
00000000
00000000
01000100
10001000
00000000
00000000
00000000
00000000
00100010
00000000
00000000
01000100
00000000
00000000
00010001
00000000
,
01010101
00000000
00000000
00000000
;

//---------------dance-solo - ----------------
#NOTEDATA:;
#CHARTNAME:;
#STEPSTYPE:dance-solo;
#DESCRIPTION:;
#CHARTSTYLE:;
#DIFFICULTY:Easy;
#METER:1;
#RADARVALUES:0.091194,0.137577,0.000000,0.000000,0.000000,58.000000,58.000000,0.000000,0.000000,0.000000,0.000000,0.000000,0.000000,0.000000,0.091194,0.137577,0.000000,0.000000,0.000000,58.000000,58.000000,0.000000,0.000000,0.000000,0.000000,0.000000,0.000000,0.000000;
#CREDIT:;
#DISPLAYBPM:140.000000;
#NOTES:
000000
000000
000000
000000
,
000000
000000
000000
000000
,
000000
000000
000000
000000
,
000100
000000
000000
000000
,
000000
000000
000000
000000
,
000100
000000
000000
000000
,
000001
000000
000000
000000
,
000001
000000
000000
000000
,
000100
000000
000000
000000
,
000100
000000
000000
000000
,
000001
000000
000000
000000
,
000001
000000
000000
000000
,
100000
000000
000000
000000
,
100000
000000
100000
000000
,
100000
000000
000000
000000
,
010000
000000
000000
000000
,
000010
000000
000000
000000
,
001000
000000
001000
000000
,
000100
000000
000000
000000
,
000100
000000
000000
000000
,
100000
000000
100000
000000
,
000000
000000
000000
000000
,
000001
000000
000000
000000
,
000001
000000
000000
000000
,
001000
000000
001000
000000
,
000000
000000
000000
000000
,
000100
000000
000000
000000
,
000100
000000
000100
000000
,
001000
000000
000000
000000
,
001000
000000
000000
000000
,
000001
000000
000000
000000
,
000000
001000
000100
000000
,
000010
000000
000000
000000
,
010000
000000
000000
000000
,
000100
000000
000000
000000
,
000100
000000
001000
000000
,
000100
000000
000000
000000
,
100000
000000
000000
000000
,
000001
000000
000001
000000
,
000000
010000
000010
000000
,
000001
000000
000000
000000
,
001000
000000
000000
000000
,
100000
000000
000000
000000
,
100000
000000
000000
000000
,
100000
000000
100000
000000
,
000001
000000
000001
000000
,
010000
000000
000000
000000
,
010000
000000
000000
000000
,
000100
000000
001000
000000
,
000100
000000
001000
000000
,
001000
000000
000000
000000
;

//---------------dance-solo - ----------------
#NOTEDATA:;
#CHARTNAME:;
#STEPSTYPE:dance-solo;
#DESCRIPTION:;
#CHARTSTYLE:;
#DIFFICULTY:Medium;
#METER:3;
#RADARVALUES:0.207545,0.302670,0.077043,0.000000,0.000000,132.000000,125.000000,7.000000,0.000000,0.000000,0.000000,0.000000,0.000000,0.000000,0.207545,0.302670,0.077043,0.000000,0.000000,132.000000,125.000000,7.000000,0.000000,0.000000,0.000000,0.000000,0.000000,0.000000;
#CREDIT:;
#DISPLAYBPM:140.000000;
#NOTES:
000000
000000
000000
000000
,
000000
000000
000000
000000
,
000000
000000
000000
000000
,
000001
000000
000000
000000
,
000100
000000
000000
000000
,
100001
000000
000000
000000
,
000001
000000
000001
000000
,
010000
000000
000010
000000
,
000010
010000
000010
000000
,
000100
001000
000100
000000
,
000100
000100
000000
000010
,
000000
000001
000000
100000
,
000000
010000
000000
010000
,
100000
001000
000001
000000
,
000000
000001
000000
010000
,
000000
010000
000000
100000
,
000000
001000
000000
000100
,
100000
001000
000100
000010
,
000001
000001
001000
000000
,
010000
010000
000100
000000
,
000100
000000
001000
000000
,
000001
000001
100000
100000
,
000010
000010
000001
000000
,
001000
001000
100000
000000
,
001000
000000
001000
000000
,
010000
100000
000100
000010
,
000001
000100
000010
010000
,
100001
100001
001000
000000
,
000010
000000
000010
000000
,
010000
000000
100000
000000
,
000100
100000
010000
100000
,
000000
000100
001000
000000
,
010000
010000
010000
000000
,
000010
000000
000001
000000
,
000100
010000
000100
000010
,
010010
010010
100001
000000
,
000001
000000
100000
000000
,
100000
000001
100000
000001
,
000010
000010
000100
010000
,
000000
000100
001000
000000
,
000001
000001
010000
000000
,
001000
001000
001000
000000
,
100000
000000
100000
000000
,
000010
000000
000010
000000
,
100000
000001
100000
000000
,
000100
001000
000100
000000
,
000010
000000
000010
000000
,
100000
000000
100000
000000
,
000100
001000
000100
000000
,
100000
000001
100000
000000
,
010010
000000
000000
000000
;

//---------------dance-solo - ----------------
#NOTEDATA:;
#CHARTNAME:;
#STEPSTYPE:dance-solo;
#DESCRIPTION:;
#CHARTSTYLE:;
#DIFFICULTY:Hard;
#METER:6;
#RADARVALUES:0.374210,0.440247,0.297167,0.000000,0.132074,238.000000,211.000000,27.000000,0.000000,0.000000,0.000000,0.000000,0.000000,0.000000,0.374210,0.440247,0.297167,0.000000,0.132074,238.000000,211.000000,27.000000,0.000000,0.000000,0.000000,0.000000,0.000000,0.000000;
#CREDIT:;
#DISPLAYBPM:140.000000;
#NOTES:
000000
000000
000000
000000
,
000000
000000
000000
000000
,
000000
000000
000000
000000
,
001000
000000
001000
000000
,
000100
000000
000100
000000
,
010010
000000
000000
000000
,
000010
010000
000010
010000
,
000100
001000
000100
001000
,
000000
000000
000100
001000
000000
000000
000000
000000
000001
000000
000000
100000
000000
000000
000010
000000
,
000000
000000
100000
000100
000000
000000
000000
000000
001000
000000
000000
000001
000000
000000
010000
000000
,
000000
000100
000000
000100
,
000001
000000
010000
000000
100000
000001
100000
000000
,
000000
000000
000010
000000
000100
001000
000100
000000
,
010100
000110
001001
000000
,
000000
000000
100000
000000
001000
100000
001000
000000
,
000010
000000
000010
000000
000001
001000
000001
000000
,
001000
000000
000100
000000
010000
000001
000100
000000
,
000010
010000
000010
010000
000010
010000
000100
000000
,
001000
000000
001000
000000
100000
001000
000001
000000
,
000001
000100
010000
000000
100000
000000
100000
000000
,
000101
000000
000000
001000
100000
000000
000000
000000
,
000100
001000
000100
000000
000010
000100
000010
000000
,
000001
000000
000001
000000
000010
100000
001000
000000
,
000100
001000
000001
000000
000010
000000
000010
000000
,
010100
000000
000000
000100
000001
000000
000000
000000
,
100000
001000
000100
000010
100000
001000
000100
000000
,
000100
000000
000000
001000
000100
000000
000000
001000
000100
000000
000000
001000
000100
000000
000000
000000
,
000110
000110
101000
000000
,
000100
001000
000100
000000
010010
000000
000000
000000
,
010000
000100
010000
000000
101000
000000
000000
000000
,
000001
000000
000000
100000
000001
000000
000000
100000
000001
000000
000000
100000
000001
000000
000000
000000
,
000000
010100
001001
000000
,
000001
100000
000001
000000
001100
000000
000000
000000
,
000100
001000
000100
100000
100001
000000
000000
000000
,
000100
000000
000000
001000
000100
000000
000000
001000
000100
000000
000000
001000
000100
000000
000000
000000
,
010100
010100
001001
000000
,
000100
001000
000100
000000
010010
000000
000000
000000
,
010000
000010
010000
000000
001100
000000
000000
000000
,
010000
000000
000000
000010
010000
000000
000000
000010
010000
000000
000000
000010
010000
000000
000000
000000
,
000000
000011
110000
000000
,
100000
000001
100000
000000
001100
000000
000000
000000
,
000100
001000
000100
000000
010010
000000
000000
000000
,
100000
000001
100000
000000
000010
010000
000010
000000
,
010000
000010
010000
000000
000001
100000
000001
000000
,
000000
000000
000100
001000
000000
000000
000000
000000
000001
000000
000000
100000
000000
000000
000010
000000
,
000000
000000
100000
000100
000000
000000
000000
000000
001000
000000
000000
000001
000000
000000
010000
000000
,
100000
001000
100000
000000
001100
000000
000010
000000
,
000010
000100
000010
000000
001100
000000
100000
000000
,
000000
000000
001000
000001
000000
000000
000000
000000
000100
000000
000000
001000
000000
000000
010000
000000
,
000000
000000
001000
100000
000000
000000
000000
000000
000100
000000
000000
001000
000000
000000
000001
000000
,
001001
000000
000000
000000
;

//---------------dance-single - ----------------
#NOTEDATA:;
#CHARTNAME:;
#STEPSTYPE:dance-single;
#DESCRIPTION:;
#CHARTSTYLE:;
#DIFFICULTY:Beginner;
#METER:1;
#RADARVALUES:0.080188,0.110062,0.011006,0.000000,0.000000,51.000000,50.000000,1.000000,0.000000,0.000000,0.000000,0.000000,0.000000,0.000000,0.080188,0.110062,0.011006,0.000000,0.000000,51.000000,50.000000,1.000000,0.000000,0.000000,0.000000,0.000000,0.000000,0.000000;
#CREDIT:;
#DISPLAYBPM:140.000000;
#NOTES:
0000
0000
0000
0000
,
0000
0000
0000
0000
,
0000
0000
0000
0000
,
0100
0000
0000
0000
,
0100
0000
0000
0000
,
0100
0000
0000
0000
,
1000
0000
0000
0000
,
1000
0000
0000
0000
,
0001
0000
0000
0000
,
0001
0000
0000
0000
,
0010
0000
0000
0000
,
0010
0000
0000
0000
,
0100
0000
0000
0000
,
0100
0000
0000
0000
,
1000
0000
0000
0000
,
1000
0000
0000
0000
,
0001
0000
0000
0000
,
0001
0000
0000
0000
,
0100
0000
0000
0000
,
0010
0000
0000
0000
,
1000
0000
0000
0000
,
0010
0000
0000
0000
,
0001
0000
0000
0000
,
0100
0000
0000
0000
,
1000
0000
0000
0000
,
0100
0000
0000
0000
,
0001
0000
0000
0000
,
0010
0000
0000
0000
,
1000
0000
0000
0000
,
0010
0000
0000
0000
,
0001
0000
0000
0000
,
0000
0100
1000
0000
,
1000
0000
0000
0000
,
1000
0000
0000
0000
,
0100
0000
0000
0000
,
0100
0000
0000
0000
,
0010
0000
0000
0000
,
0010
0000
0000
0000
,
0001
0000
0000
0000
,
0000
0001
0100
0000
,
0100
0000
0000
0000
,
0100
0000
0000
0000
,
0010
0000
0000
0000
,
0010
0000
0000
0000
,
1000
0000
0000
0000
,
1000
0000
0000
0000
,
0001
0000
0000
0000
,
0001
0000
0000
0000
,
0100
0000
0000
0000
,
0100
0000
0000
0000
,
1001
0000
0000
0000
;

//---------------dance-single - ----------------
#NOTEDATA:;
#CHARTNAME:;
#STEPSTYPE:dance-single;
#DESCRIPTION:;
#CHARTSTYLE:;
#DIFFICULTY:Challenge;
#METER:13;
#RADARVALUES:0.677667,0.785842,0.396223,0.220124,0.506285,431.000000,395.000000,36.000000,20.000000,0.000000,0.000000,0.000000,0.000000,0.000000,0.677667,0.785842,0.396223,0.220124,0.506285,431.000000,395.000000,36.000000,20.000000,0.000000,0.000000,0.000000,0.000000,0.000000;
#CREDIT:;
#DISPLAYBPM:140.000000;
#NOTES:
// measure 0
0000
0000
0000
0000
,  // measure 1
0000
0000
0000
0000
,  // measure 2
0000
0000
0000
0000
,  // measure 3
2010
0000
0000
3200
0000
0001
0310
0100
,  // measure 4
0201
0000
0000
0320
0000
1000
0130
0010
,  // measure 5
0001
1000
0001
1000
0001
1000
0001
1000
0001
1000
0001
0000
1001
0000
0000
0000
,  // measure 6
0010
0000
0000
0010
0001
0000
0000
0001
0100
0000
0000
0100
1000
0000
0000
1000
,  // measure 7
0010
0000
0000
0010
1000
0000
0000
1000
0100
0000
0000
0100
0001
0000
0000
0001
,  // measure 8
0010
0000
0100
0000
1000
0000
0001
0000
0101
0000
0000
0110
0000
0000
1010
0000
,  // measure 9
0000
0000
1000
0100
0001
0000
0010
0000
1000
0000
0000
1010
0000
0000
0101
0000
,  // measure 10
0001
0000
0000
0001
0010
0000
0100
0000
1000
0000
0010
1000
0010
0000
0100
0000
,  // measure 11
0001
0000
0000
0001
0100
0000
0010
0000
1000
0000
0100
1000
0100
0000
0010
0000
,  // measure 12
0001
0000
0000
0001
0010
0000
1000
0000
0100
0000
0010
0100
0010
0000
0001
0000
,  // measure 13
2000
0100
0000
0001
0000
0010
0000
3001
,  // measure 14
0100
0000
0010
1000
0010
0000
0001
0000
0100
0000
0010
0001
0010
0000
0100
0000
,  // measure 15
0010
0000
1000
0100
1000
0000
0010
0000
0100
0000
0001
0100
0001
0000
0010
0000
,  // measure 16
1000
0000
0001
1000
0001
0000
0010
0000
0100
0000
1000
0001
1000
0000
0200
0000
,  // measure 17
0000
0310
1000
0001
0100
0000
0101
0000
,  // measure 18
1000
0100
0001
0100
1000
0100
0001
0100
,  // measure 19
1000
0010
0001
0010
1000
0010
0001
0010
,  // measure 20
1000
0100
0010
0100
1000
0100
0010
0100
,  // measure 21
0001
0010
0100
0010
0001
0010
0100
0010
,  // measure 22
0001
0100
1000
0100
0001
0100
1000
0100
,  // measure 23
0001
0010
1000
0010
0001
0010
1000
0010
,  // measure 24
0100
0010
1000
0010
0100
0010
1000
0010
,  // measure 25
0001
0100
0010
0100
0001
0100
0010
0100
,  // measure 26
0001
0000
0000
0001
0100
0000
0000
0100
0010
0000
0000
0010
1000
0000
0000
1000
,  // measure 27
0200
0000
0010
0000
0001
0001
0000
0301
,  // measure 28
0100
0000
0010
0100
1000
0000
0100
0010
0001
0000
1000
0100
0010
0001
0100
0000
,  // measure 29
0010
0000
1000
0100
0010
0000
0001
0010
0100
0000
1000
0010
0100
0001
0010
0000
,  // measure 30
0100
0000
0000
0100
0001
0000
0000
0001
1000
0000
0010
0000
0100
0000
0001
0000
,  // measure 31
0020
0001
0130
1001
,  // measure 32
0100
0000
0000
0100
0010
0000
1000
0000
0000
0000
2200
0000
0000
0000
3300
0000
,  // measure 33
0002
0000
0103
0100
0000
0001
0100
0000
,  // measure 34
0110
0000
0000
0010
1010
0000
0000
1000
1100
0000
0000
0100
0101
0000
0000
0001
,  // measure 35
2001
0000
0010
0000
0001
3001
0000
0000
,  // measure 36
1001
0000
0001
0100
0001
0000
1000
0100
1000
0000
0010
0001
0100
0010
1000
0000
,  // measure 37
1010
0000
0010
0001
0100
0000
0010
1000
0100
0000
0010
0001
0100
0010
1000
0000
,  // measure 38
0200
0000
0000
1300
0200
0000
0000
0301
0200
0000
0320
0000
0032
0000
2003
0000
,  // measure 39
3020
0100
1030
0110
,  // measure 40
1010
0000
0010
0001
0100
0000
0010
1000
0100
0000
1000
0100
0010
0001
0100
0000
,  // measure 41
0101
0000
0001
0010
0100
0000
0010
0100
1000
0000
1000
0100
0010
0001
0100
0000
,  // measure 42
0100
0000
0010
1000
0010
0000
0001
0010
0001
0000
0100
0010
0100
0010
0100
0000
,  // measure 43
0010
0000
1000
0100
1000
0000
0001
0100
0001
0000
0010
0100
0010
0100
0010
0000
,  // measure 44
0000
0000
0010
1000
0001
0000
0100
0000
0110
0000
0000
1010
0000
0000
1100
0000
,  // measure 45
0000
0000
1000
0001
1000
0000
0100
0000
0101
0000
0000
0011
0000
0000
1010
0000
,  // measure 46
1100
0000
0100
0001
0100
0000
0100
1000
0100
0000
0100
0001
0100
1000
0100
0000
,  // measure 47
0110
0000
0010
0001
0010
0000
0010
1000
0010
0000
0010
0001
0010
1000
0010
0000
,  // measure 48
1001
0000
0001
0100
0001
0100
0001
0000
0011
0000
0000
0110
0000
0000
1100
0000
,  // measure 49
0000
0000
1000
0100
1000
0100
0010
0001
0011
0000
0000
0101
0000
0000
1100
0000
,  // measure 50
0200
0000
0000
0000
,  // measure 51
0300
0000
0000
0000
;
