#TITLE:Session 9 -Chronicles-;
#SUBTITLE:;
#ARTIST:PRASTIK DANCEFLOOR;
#TITLETRANSLIT:;
#SUBTITLETRANSLIT:;
#ARTISTTRANSLIT:;
#GENRE:Rockin' Drum'n'Bass;
#CREDIT:;
#BANNER:;
#BACKGROUND:;
#LYRICSPATH:;
#CDTITLE:;
#MUSIC:Session 9 -Chronicles-.ogg;
#OFFSET:0.000000;
#SAMPLESTART:85.987740;
#SAMPLELENGTH:17.999996;
#LASTBEATHINT:385.000000;
#SELECTABLE:YES;
#DISPLAYBPM:95.000000:728.000000;
#BPMS:0.000000=182.000000
,60.000000=202.000000
,61.000000=239.000000
,62.000000=270.000000
,63.000000=318.000000
,64.000000=352.000000
,65.000000=408.000000
,66.000000=451.000000
,67.000000=499.999969
,68.000000=548.000000
,69.000000=582.000000
,70.000000=625.000000
,71.000000=666.000000
,72.000000=728.000000
,112.000000=189.000000
,252.000000=94.500000
,277.000000=189.000000
;
#STOPS:252.000000=0.634918
;
#DELAYS:;
#TIMESIGNATURES:0.000000=4=4
;
#TICKCOUNTS:0.000000=2
;
#BGCHANGES:0.000=Session 9 -Chronicles-.avi=1.000=0=0=0=StretchNoLoop====,
99999=-nosongbg-=1.000=0=0=0 // don't automatically add -songbackground-
;
#KEYSOUNDS:;
#ATTACKS:;

//---------------dance-single - DDR X S-Expert----------------
#NOTES:
     dance-single:
     DDR X S-Expert:
     Hard:
     16:
     0.811,0.944,0.668,0.247,0.684,578.000,81.000,30.000,0.000,0.000,0.000,0.000,0.811,0.944,0.668,0.247,0.684,578.000,81.000,30.000,0.000,0.000,0.000,0.000: // measure 1
0000
0000
0000
0000
,  // measure 2
0000
0000
0000
1000
0100
1000
0200
0000
0000
0000
0000
0000
,  // measure 3
0000
0000
0000
0310
0001
0010
0002
0000
0000
0000
0000
0000
,  // measure 4
0000
0000
0000
1003
0010
1000
0010
0100
0001
0100
0001
1000
,  // measure 5
0010
0100
0001
0010
0100
1000
0100
0010
0100
1000
0001
1000
,  // measure 6
0002
0000
0000
0103
0001
0100
0002
0000
0000
0000
0000
0000
,  // measure 7
0000
0000
0000
1003
0010
1000
0020
0000
0000
0000
0000
0000
,  // measure 8
0000
0000
0000
0130
0001
0100
0001
1000
0010
1000
0010
0100
,  // measure 9
0001
0100
0001
1000
0100
1000
0100
0010
0001
0010
0001
1000
,  // measure 10
0020
0000
0000
1030
0010
1000
0020
0000
0000
0000
0000
0000
,  // measure 11
0000
0000
0000
0130
0001
0100
0002
0000
0000
0000
0000
0000
,  // measure 12
0000
0000
0000
1003
0010
1000
0010
1000
0100
1000
0100
1000
,  // measure 13
0010
1000
0010
1000
0001
1000
0001
0100
0010
0100
0010
1000
,  // measure 14
0100
0010
0001
1000
0100
0010
0001
0010
0100
1000
0100
0010
,  // measure 15
0001
0010
0100
1000
0100
0010
0001
0010
0100
1000
0100
0010
,  // measure 16
2002
0000
0000
0000
,  // measure 17
0000
0000
0000
0000
,  // measure 18
0000
0000
0000
0000
,  // measure 19
0000
0000
0000
0000
,  // measure 20
0000
0000
0000
0000
,  // measure 21
0000
0000
0000
0000
,  // measure 22
0000
0000
0000
0000
,  // measure 23
0000
0000
0000
0000
,  // measure 24
0000
0000
0000
0000
,  // measure 25
0000
0000
0000
0000
,  // measure 26
0000
0000
0000
0000
,  // measure 27
0000
0000
0000
0000
,  // measure 28
3003
0000
0000
0000
,  // measure 29
0110
0000
0001
0101
0000
1000
1100
0000
,  // measure 30
0000
0001
0100
0101
0010
1000
0100
1100
,  // measure 31
1001
0000
0010
1010
0000
0100
0101
0000
,  // measure 32
0000
1000
0100
0011
0001
0100
0010
1010
,  // measure 33
1001
0000
1000
1010
0000
0001
0011
0000
,  // measure 34
0000
0100
0001
1001
1000
0010
0100
0101
,  // measure 35
1001
0000
0010
1010
0000
0100
0101
0000
,  // measure 36
0000
0001
0010
1100
1000
0001
0100
0101
,  // measure 37
1001
0000
0010
1010
0000
0100
0101
0000
,  // measure 38
0000
1000
0100
0011
0001
1000
0010
1010
,  // measure 39
1001
0000
0001
0011
0000
1000
1100
0000
,  // measure 40
0000
0001
0101
1000
0010
1000
1100
0001
,  // measure 41
0101
0000
0010
1010
0000
0100
0101
0000
,  // measure 42
0000
0100
0101
0010
1000
0100
1100
0001
,  // measure 43
0011
0000
0000
0000
0010
0000
0110
0000
0000
0000
0100
0000
0110
0000
1000
0001
,  // measure 44
1000
0000
0000
0001
0000
0000
0100
0000
0000
0001
0000
0000
1000
0000
0010
0000
,  // measure 45
0100
0000
0001
0100
0000
0001
1000
0000
0000
0000
0010
0000
1000
0000
0100
0000
,  // measure 46
0010
0000
0001
1000
0000
0010
1000
0000
0000
0000
0001
0000
0010
0000
0100
0000
,  // measure 47
1000
0000
0001
0100
0000
0001
1000
0000
0000
0000
0001
0000
0010
0000
0100
0000
,  // measure 48
1000
0000
0010
1000
0000
0100
1000
0000
0000
0000
1000
0000
0100
0000
0010
0000
,  // measure 49
0001
0000
1000
0100
0000
0010
0001
0000
0000
0000
1000
0000
0100
0000
1000
0000
,  // measure 50
0001
0000
0100
0001
0000
1000
0010
0000
0000
0000
0010
0000
1000
0000
0100
0000
,  // measure 51
0010
0000
0001
1000
0000
0001
0100
0000
0000
0000
0001
0000
0100
0000
0010
0000
,  // measure 52
1000
0000
0001
0100
0010
0000
1000
0000
0100
0000
0100
0000
0100
0000
0100
0000
,  // measure 53
1000
0000
0001
0100
0000
0001
1000
0000
0000
0000
0001
0010
0100
0000
1000
0000
,  // measure 54
0001
0000
0100
0001
0000
1000
0010
0000
0000
0000
1000
0100
0010
0000
0001
0000
,  // measure 55
1000
0000
0010
1000
0000
0001
0100
0000
0000
0000
0001
0100
0010
0000
1000
0000
,  // measure 56
0001
0000
0100
0001
0000
1000
0010
0000
0000
0000
1000
0100
0010
0000
0001
0000
,  // measure 57
1000
0000
0010
0100
0000
0001
1000
0000
0000
0000
0001
0010
0100
0000
1000
0000
,  // measure 58
0001
0000
0100
0001
0000
1000
0010
0000
0000
0000
1000
0010
0100
0000
0001
0000
,  // measure 59
1000
0000
0001
0010
0000
0100
1000
0000
0000
0000
0001
0100
0010
0000
1000
0000
,  // measure 60
0001
0000
1000
0100
1000
0100
1000
0100
0010
0001
0010
0001
0010
0000
0000
0000
,  // measure 61
0001
0100
0010
1010
0000
0100
0101
0000
,  // measure 62
0010
1010
0000
0100
2002
0000
0000
0000
,  // measure 63
0000
0000
0000
0000
,  // measure 64
3003
0020
2030
3200
,  // measure 65
0320
0000
0000
0001
0032
0000
0000
0000
0203
0000
0000
0000
0320
0000
0000
0000
,  // measure 66
2030
0001
3002
0203
0320
2030
3200
0320
,  // measure 67
0032
0000
1003
0000
1010
0000
0000
1001
0000
0000
0101
0000
1001
0000
0000
0000
,  // measure 68
0010
0010
0010
0020
0000
0000
0000
0000
0000
0000
0000
0000
,  // measure 69
0000
0000
0000
0000
0000
0000
0000
0000
0000
0000
0000
0000
0000
1030
0100
1000
,  // measure 70
0100
1000
0100
0000
0011
0000
0100
0000
1000
0000
0001
0000
0000
0000
1000
0010
,  // measure 71
1000
0000
0001
0000
0101
0000
0000
1001
0000
0000
1010
0000
1001
0000
0000
0010
,  // measure 72
0000
0000
0100
0000
0010
0000
1000
0000
0001
0000
0100
0000
0000
0000
0001
1000
,  // measure 73
0010
0000
1000
0000
1100
0000
0000
0011
0000
0000
1001
0000
0101
0000
0000
0010
,  // measure 74
0000
0000
1000
0000
1010
0000
0100
0001
0100
0000
0001
0000
1000
0000
1000
0000
,  // measure 75
1000
0000
0000
0000
0011
0000
0100
1000
0100
0000
1000
0000
0010
0000
0010
0000
,  // measure 76
0010
0000
1100
0001
0100
0110
0000
0010
,  // measure 77
1010
0000
0000
0000
0001
0000
0010
0000
0100
0000
1000
0100
1000
0000
0001
0100
,  // measure 78
0001
0100
0001
0000
1000
0000
0001
0000
0100
0000
0001
1000
0000
0010
1000
0000
,  // measure 79
0001
0000
0100
0000
0101
0000
0000
1010
0000
0000
1001
0000
0011
0000
0000
1000
,  // measure 80
0000
0000
0100
0000
1000
0000
0001
0000
0100
0000
0001
1000
0010
0000
1000
0000
,  // measure 81
0100
0000
0100
0000
1001
0000
1001
0000
1001
0000
0000
0000
0010
1000
0010
0000
,  // measure 82
0100
0001
0100
0000
0001
0000
0000
1000
0000
0000
1010
0000
1001
0000
0000
0100
,  // measure 83
0000
0000
0101
0000
1001
0000
0000
0010
0000
0000
1010
0000
1001
0000
0000
0010
,  // measure 84
0000
0000
0011
0000
1001
0000
0000
0100
0000
0000
1100
0000
1001
0000
0000
0100
,  // measure 85
0000
0000
0101
0000
1001
0000
0100
0010
0000
0100
0010
0000
0000
0000
1000
0000
,  // measure 86
0100
0000
0010
0000
0001
0000
1000
0010
0000
0100
0001
0000
0000
0000
1000
0000
,  // measure 87
0100
0000
1000
0000
0010
0000
0100
0001
0000
1000
0010
0000
0000
0000
0001
0000
,  // measure 88
0010
0000
0100
0000
1000
0000
0001
0100
0000
0010
1000
0000
0000
0000
0001
0000
,  // measure 89
0100
0000
0010
0000
1000
0000
0100
1000
0000
0001
0100
0000
0000
0000
0001
0000
,  // measure 90
0010
0000
0100
0000
1000
0000
0010
0100
0000
0010
1000
0000
0000
0000
1000
0000
,  // measure 91
0100
0000
0010
0000
0001
0000
1000
0100
0000
0010
0001
0000
0000
0000
1000
0000
,  // measure 92
0010
0000
1000
0000
0010
0000
1000
0010
1000
0010
1000
0010
0100
0001
0100
0001
,  // measure 93
0100
0001
1000
0010
1000
0000
0000
0000
2002
0000
0000
0000
0000
0000
0000
0000
,  // measure 94
0000
0000
0000
0000
,  // measure 95
0000
0000
0000
0000
,  // measure 96
0000
0000
3003
0000
;

//---------------dance-single - DDR X S-Challenge----------------
#NOTES:
     dance-single:
     DDR X S-Challenge:
     Challenge:
     19:
     1.000,1.000,1.000,0.239,1.000,744.000,131.000,29.000,0.000,0.000,0.000,0.000,1.000,1.000,1.000,0.239,1.000,744.000,131.000,29.000,0.000,0.000,0.000,0.000:
0000
0000
0000
0000
,
0000
0000
0000
0001
0001
0100
0200
0000
0000
0000
0000
0000
,
0000
0000
0000
0301
0001
0010
0020
0000
0000
0000
0000
0000
,
0000
0000
0000
0130
0100
0100
1000
1000
1000
0010
0010
0010
,
0100
0100
0100
0001
0001
0001
1000
1000
1000
0010
0010
0010
,
0200
0000
0000
0301
0001
1000
2000
0000
0000
0000
0000
0000
,
0000
0000
0000
3010
0010
1000
2000
0000
0000
0000
0000
0000
,
0000
0000
0000
3001
0001
0001
0100
0100
0100
0010
0010
0010
,
1000
1000
1000
0001
0001
0001
0010
0010
0010
0100
0100
0100
,
2000
0000
0000
3001
0001
0100
0200
0000
0000
0000
0000
0000
,
0000
0000
0000
0301
0001
0010
0020
0000
0000
0000
0000
0000
,
0000
0000
0000
0130
0100
0100
1000
1000
1000
0001
0001
0001
,
0100
0100
0100
0010
0010
0010
1000
1000
1000
0001
0001
0001
,
1000
0100
0010
1000
0100
0010
1000
0100
0010
1000
0100
0010
,
0001
0010
0100
0001
0010
0100
0001
0010
0100
0001
0010
0100
,
1001
0000
0000
0010
,
0000
0000
0001
0000
,
0000
0000
0000
0000
0000
1000
0000
0000
0000
0000
0000
0000
0000
0000
0000
0000
,
0000
0000
0000
0100
0000
0000
0000
0000
,
0000
0000
0010
0000
,
0000
0000
0000
0001
0000
0000
0000
0000
,
1000
0100
0010
0001
,
1000
0100
0010
0001
,
1000
0100
0010
0001
,
1000
0100
0010
0001
,
1000
0100
0010
0001
,
1000
0100
0010
0001
,
1000
0100
0010
0001
,
1001
0000
1010
1001
0000
0101
1001
0000
,
0000
0001
0101
0010
1000
0100
1100
0101
,
0011
0000
1010
0110
0000
0110
0101
0000
,
0000
0100
1001
0010
1000
0100
1100
0110
,
0011
0000
0011
1001
0000
1010
1001
0000
,
0000
0100
0110
1000
0001
0010
0011
0101
,
1010
0000
0101
0110
0000
0110
1010
0000
,
0000
0010
1010
0100
0101
0010
1010
1001
,
0101
0000
1100
0110
0000
0110
0011
0000
,
0000
0100
1100
0010
0011
0100
1100
0110
,
0011
0000
1100
0011
0000
0011
1100
0000
,
0000
0001
0101
1000
1100
0001
0011
0110
,
1100
0000
0011
1100
0000
1100
0011
0000
,
0000
0100
0101
0010
1010
0100
0101
1001
,
1010
0000
0000
0000
1010
0000
0101
0000
0000
0000
0101
0000
1010
0000
0100
0001
,
0101
0000
0000
1010
0000
0000
1001
0000
0000
0011
0000
0000
1100
0000
0110
0000
,
0011
0000
1000
0100
0010
0000
0001
0010
0100
0000
0000
1000
0100
0010
0001
0000
,
1000
0000
0001
0100
0010
0000
1000
0100
0010
0000
0000
0001
0010
0100
1000
0000
,
0001
0000
1000
0010
0100
0000
0001
0010
0100
0000
0000
1000
0100
0010
0001
0000
,
1000
0000
0010
1000
0100
0000
1000
0001
0100
0000
0000
0001
0010
0100
1000
0000
,
0001
0000
1000
0010
0100
0000
0001
0010
0100
0000
0000
1000
0100
0010
0001
0000
,
1000
0000
0001
0010
0100
0000
1000
0001
0100
0000
0000
0001
0100
0010
1000
0000
,
0001
0000
1000
0100
0010
0000
0001
0010
0100
0000
0000
1000
0100
0010
0001
0000
,
1000
0000
0001
0100
0010
1000
0100
0010
0100
1000
0001
0010
0100
0010
0001
1000
,
0010
0000
1000
0100
0010
0000
0001
0010
0100
0000
0000
1000
0100
0010
0001
0000
,
1000
0000
0001
0010
0100
0000
1000
0100
0010
0000
0000
0001
0100
0010
1000
0000
,
0001
0000
1000
0010
0100
0000
0001
0010
0100
0000
0000
1000
0100
0010
0001
0000
,
1000
0000
0001
0010
0100
0000
1000
0010
0100
0000
0000
1000
0010
0100
0001
0000
,
1000
0000
0001
0010
0100
0000
1000
0100
0010
0000
0000
0001
0010
0100
1000
0000
,
0001
0000
1000
0010
0100
0000
0001
0010
0100
0000
0000
1000
0100
0010
0001
0000
,
1000
0000
0001
0100
0010
0000
1000
0001
0010
0000
0000
0001
0010
0100
1000
0000
,
0001
0000
0100
0001
0100
0000
0001
1000
0001
1000
0001
1000
0001
0000
0000
0000
,
1100
0010
0011
1100
0000
1100
1001
0000
,
1001
0011
0000
0011
0220
0000
0000
0000
,
0000
0000
0000
0000
,
0330
0000
2000
0010
3200
1000
0320
1000
,
0032
0000
1000
0100
0203
0000
0001
0000
0320
0000
1000
0000
0230
0000
0001
0000
,
0320
0100
2030
3200
0320
0230
2300
3002
,
0023
0000
0130
0000
1010
0000
0000
1001
0000
0000
0101
0000
1010
0000
0000
0000
,
0110
0110
0110
2002
0000
0000
0000
0000
0000
0000
0000
0000
,
0000
0000
0000
0000
0000
0000
0000
0000
0000
0000
0000
0000
0000
0000
0000
0000
0000
0000
0000
0000
0003
0000
0000
0000
0000
0000
3001
1000
0001
1000
0001
1000
,
0001
1000
0001
1000
0001
0000
0000
0000
1100
0000
0000
0000
0010
0000
0001
0000
0010
0000
0000
0000
0001
0000
0000
0000
0100
0000
0000
0000
0010
0000
1000
0000
,
0000
0001
0100
0000
0011
0000
0000
0110
0000
0000
1100
0000
1001
0000
0000
0101
,
0000
0000
1010
0000
1001
0000
0001
0000
0100
0000
0001
0000
0100
0000
0010
1000
,
0000
0001
0010
0000
1100
0000
1001
0000
0101
0000
0000
1000
0010
0000
0100
0000
,
0001
0010
0100
1000
0100
0010
0001
0010
0100
1000
0001
0100
0010
0100
0001
0100
,
0010
1000
0100
1000
0010
0100
0001
0010
0100
1000
0100
0010
0100
0001
0100
1000
,
0010
0100
0001
1000
0010
0100
0001
0010
0100
1000
0100
0010
0100
1000
0001
0100
,
0010
0100
0001
0010
0100
1000
0100
0010
0100
1000
0001
0100
0010
0100
0001
1000
,
0010
0100
0001
1000
0001
0000
0100
0001
0100
0000
0001
0000
1000
0000
0010
1000
,
0000
0001
0100
0000
0101
0000
0000
1010
0000
0000
1001
0000
0011
0000
0000
1100
,
0000
0000
1001
0000
0101
0000
1000
0010
0000
0100
0001
0000
1000
0000
0100
0010
,
0001
0000
1000
0000
0010
0000
1000
0000
0100
0000
0000
0000
1000
0100
1000
0100
,
1000
0000
0000
0000
0101
0000
0000
1010
0000
0000
1001
0000
0011
0000
0000
1100
,
0000
0000
0101
0000
1010
0000
0000
1001
0000
0000
0011
0000
1100
0000
0000
0101
,
0000
0000
1010
0000
1001
0000
0000
0011
0000
0000
1100
0000
1001
0000
0000
0101
,
0000
0000
1010
0000
1001
0000
1000
0100
0010
0100
1000
0100
0010
0000
0001
0010
,
0100
0000
1000
0000
1001
0000
0001
0010
0100
0010
0001
0010
0100
0000
0001
0100
,
0010
0000
1000
0000
1001
0000
1000
0010
0100
0010
1000
0010
0100
0000
0001
0010
,
0100
0000
1000
0000
1001
0000
0001
0010
0100
0010
0001
0010
0100
0000
1000
0010
,
0100
0000
0001
0000
1000
0100
0010
0001
1000
0010
0100
0001
1000
0100
1000
0100
,
0010
0001
0010
0001
0100
0010
0100
0010
1000
0100
1000
0100
0010
0001
0010
0001
,
0100
0010
0100
0010
1000
0010
1000
0010
0100
0001
0100
0001
1000
0100
0010
0001
,
0010
0100
1000
0100
0010
0100
1000
0001
0010
0100
0010
0001
0010
0100
0010
0001
,
0010
0100
0010
0001
0010
0000
0000
0000
2002
0000
0000
0000
0000
0000
0000
0000
,
0000
0000
0000
0000
,
0000
0000
0000
0000
,
0000
0000
3003
0000
;
