#TITLE:Say You'll Haunt Me;
#SUBTITLE:;
#ARTIST:Stone Sour;
#TITLETRANSLIT:;
#SUBTITLETRANSLIT:;
#ARTISTTRANSLIT:;
#GENRE:Rock;
#CREDIT:;
#BANNER:Say You'll Haunt Me.png;
#BACKGROUND:Say You'll Haunt Me-bg.png;
#LYRICSPATH:;
#CDTITLE:;
#MUSIC:Say You'll Haunt Me.ogg;
#OFFSET:0.000000;
#SAMPLESTART:36.025074;
#SAMPLELENGTH:18.000006;
#LASTBEATHINT:300.000000;
#SELECTABLE:YES;
#DISPLAYBPM:140.000000;
#BPMS:0.000000=135.000000,4.000000=140.000000,108.000000=139.000000,128.000000=140.000000,160.000000=135.000000,164.000000=138.000000,168.000000=140.000000,252.000000=142.000000,260.000000=140.000000;
#STOPS:212.000000=3.000000
;
#DELAYS:;
#TIMESIGNATURES:0.000000=4=4
;
#BGCHANGES:-0.860=Say You'll Haunt Me.avi=1.000=0=1=1=StretchRewind====,
99999=-nosongbg-=1.000=0=0=0 // don't automatically add -songbackground-
;
#KEYSOUNDS:;
#ATTACKS:;

//---------------dance-single - DDR X S-Expert----------------
#NOTES:
     dance-single:
     DDR X S-Expert:
     Hard:
     9:
     0.416,0.474,0.295,0.408,0.000,292.000,39.000,54.000,0.000,0.000,0.000,0.000,0.416,0.474,0.295,0.408,0.000,292.000,39.000,54.000,0.000,0.000,0.000,0.000:
0000
0000
0000
0000
,
0001
0100
0001
2000
0000
0000
0000
0000
,
0000
0000
0000
0000
,
3010
1000
0001
0200
0000
0000
0000
0000
,
0000
0000
0000
0000
,
0301
0010
0100
2000
0000
0000
0000
0000
,
0000
0000
0000
0000
,
0010
0000
0100
0000
,
0001
0000
3100
0110
,
0001
0000
1000
0001
0000
1000
0000
2010
,
0000
0000
0000
0000
3001
1000
0010
0100
,
0001
0000
1000
0100
0000
0011
0000
2100
,
0000
0000
0000
0000
3001
0010
0100
1000
,
0001
0000
0100
0001
0000
1100
0000
0012
,
0000
0000
1003
0001
,
1001
0000
1000
0100
0000
0011
0000
1100
,
0000
0001
1000
0001
1000
0000
0110
0000
,
1000
0100
2000
0000
3001
0010
0002
0000
,
1003
0100
0020
0000
0031
0010
0200
0000
,
1300
0001
2000
0000
3010
1000
0020
0000
,
0130
0001
0200
0000
0301
1000
0001
1000
,
0001
0000
0100
0000
0001
0000
1000
0010
,
0000
0110
0000
0102
0000
0000
1003
0000
,
1000
0100
1000
0100
1000
0000
0001
0100
,
0000
0101
0000
2010
0000
3001
0000
0000
,
0001
0010
0100
1000
0002
0000
0000
1003
,
0000
0010
0000
0101
0000
1020
0000
0000
,
0130
0001
1000
0001
,
1000
0100
2000
0000
3002
0000
0000
0103
,
0001
0200
0000
0301
1000
0002
0000
1003
,
0000
0110
0000
1000
0001
2000
0000
3001
,
0010
0002
0000
1003
0100
2000
0000
3010
,
0000
0101
0000
1010
0000
0101
0000
1002
,
0000
0000
0000
1003
0001
2000
0000
3001
,
0000
0110
0000
0010
1000
0020
0000
1030
,
0001
2000
0000
3001
0100
0002
0000
2003
,
0000
3010
0000
0101
0000
1010
0000
0000
,
1000
1000
1000
1000
,
1000
1000
1000
1000
,
0001
0001
0001
0001
,
0001
0001
0001
0001
,
0110
0000
0000
0000
,
0000
0000
0000
2000
,
3020
0000
0000
1030
0020
0000
0000
0130
,
0000
0010
0000
1000
0000
0001
0000
0100
,
0002
0000
0000
0013
0002
0000
0000
1003
,
0002
0000
0000
0103
0002
0000
0000
1003
,
0020
0000
0000
0000
,
0030
0000
0000
0000
,
0000
0000
0000
0000
,
0000
0000
0000
0000
,
0000
0000
0000
0000
,
0000
0000
0000
0000
,
0000
1000
1000
1000
,
1000
0001
0001
0001
,
0001
0100
0100
0100
,
0100
0010
0010
0010
,
0110
0000
1000
0100
1000
0100
1000
0000
,
0001
0100
0000
0101
0000
1020
0000
0000
,
0000
0000
0130
0010
0100
0010
0100
0000
,
0001
1000
0000
1100
0000
0011
0000
1000
,
0100
0010
0001
0010
0001
0010
0002
0000
,
0000
2003
0000
3001
0000
0101
0000
2010
,
0000
0000
3001
1000
0002
0000
0103
0001
,
0200
0000
0310
1000
0010
0100
0001
1000
,
0100
0010
0001
0020
0000
0031
1000
0002
,
0000
1003
0000
0110
0000
1000
0001
2000
,
0000
3010
1000
0020
0000
1030
0100
2000
,
0000
3001
0000
0101
0000
1010
0000
0101
,
0000
2001
0000
0000
0000
3001
0100
0002
,
0000
1003
0000
0110
0000
0001
1000
0002
,
0000
1003
0100
2000
0000
3001
0010
0002
,
0000
1003
0000
0100
0000
0010
0000
0001
,
0000
1000
0001
0001
0001
0001
1001
0000
;

//---------------dance-single - DDR X S-Challenge----------------
#NOTES:
     dance-single:
     DDR X S-Challenge:
     Challenge:
     12:
     0.532,0.641,0.393,0.302,0.094,401.000,52.000,40.000,0.000,0.000,0.000,0.000,0.532,0.641,0.393,0.302,0.094,401.000,52.000,40.000,0.000,0.000,0.000,0.000:
0000
0000
0000
0000
,
1000
0100
0010
0002
0000
0000
0000
0000
,
0000
0000
0000
0000
,
0013
0100
1000
0002
0000
0000
0000
0000
,
0000
0000
0000
0000
,
1003
0010
0100
0020
0000
0000
0000
0000
,
0000
0000
0000
0000
,
1000
0000
0001
0000
,
1000
0000
0000
0000
0031
0010
0100
1000
,
0001
0000
1000
0010
0000
0101
0000
1010
,
0000
0001
0100
0010
1000
0001
0010
0100
,
1000
0000
0001
0100
0000
1010
0000
0101
,
0000
1000
0100
0010
0001
0010
0100
1000
,
0001
0000
0100
0001
0000
1010
0000
0101
,
0000
1000
0001
0010
0100
1000
0001
0100
,
0010
0000
1000
0100
0000
0011
0000
1100
,
0000
0001
0100
1000
0100
0001
1000
0000
,
0001
0100
1000
0000
0001
0010
1000
0000
,
0001
0100
1000
0000
0001
0010
1000
0000
,
1000
0100
0001
0000
1000
0010
0001
0000
,
1000
0000
0001
0100
0000
0001
0100
0000
0001
1000
0001
1000
0001
1000
0001
1000
,
0001
1000
0100
0010
0001
0000
1000
0100
,
0000
0011
0000
1100
0000
0001
0100
0010
,
0100
0001
1000
0100
0010
0000
0001
1000
,
0000
0000
0101
0000
0000
0000
1010
0000
0000
0000
0001
0100
0001
0100
0001
0100
,
0001
1000
0010
0100
0010
0000
1000
0100
,
0000
0011
0000
1100
0000
0201
0000
0000
,
0310
1000
0001
0000
1000
0100
0010
0000
,
0001
0010
0100
1000
0010
0100
0001
1000
,
0100
0100
1000
0010
0100
0100
0001
0100
,
0001
0100
0001
0100
1000
0100
0001
0100
,
0001
0001
1000
0010
1000
1000
0001
0101
,
0000
1010
0000
0101
0000
1001
0000
0110
,
1000
0100
0010
0001
0100
0100
0001
1001
,
1000
1001
0001
1000
0100
0100
0010
0001
,
1000
1000
0001
0100
1001
1001
0000
0110
,
0000
0000
1100
0000
0000
0000
0011
0000
0000
0000
1000
0100
1000
0100
0010
0001
,
2000
3002
2003
3002
,
2003
3002
2003
3002
,
0203
0320
0230
0320
,
0230
0320
0230
0310
,
1001
0000
0000
0000
,
0000
0000
0000
0000
0000
0000
2000
0010
,
3010
0000
1000
0100
0020
0000
0000
0032
,
0000
0203
0000
0302
0000
2003
0000
3010
,
2000
0000
0000
3100
2000
0000
0000
3001
,
2000
0000
0000
3010
2000
0000
0000
3001
,
0200
0000
0000
0000
,
0300
0000
0000
0000
,
0000
0000
0000
0000
,
0000
0000
0000
0000
,
0000
0000
0000
0000
,
0000
0000
0000
0000
,
0000
0000
2000
0100
0100
3100
2000
0010
,
0010
3010
2000
0001
0001
3001
0200
0010
,
0010
0310
2000
0100
0100
3100
0020
0001
,
0001
0031
0200
0010
0010
0310
2000
0001
,
0001
3001
1000
0010
0100
0001
1000
0000
,
0001
0011
0000
1100
0000
1001
0000
1000
,
0010
0100
0001
1000
0100
0010
0001
0000
,
1000
0000
1010
0000
0000
0000
0101
0000
0000
0000
1001
0000
0000
0000
0010
1000
,
0010
1000
0010
1000
0010
0000
1000
0000
0100
0000
0010
0000
0001
0000
0000
0000
,
1000
1100
0000
0011
0000
1001
0000
0120
,
0000
0000
1030
0001
0100
0000
0001
1000
,
0010
0000
0000
0000
1000
0100
1000
0100
1000
0100
1000
0100
0010
0001
0010
0001
,
0010
0001
0010
0001
1000
0000
1000
0000
0001
0000
0100
0000
0001
0000
0001
0000
,
1000
1010
0000
0101
0000
1001
1001
1001
,
0000
1000
0100
0100
1000
0010
0100
0100
,
0001
0101
0001
0101
0001
0101
0001
0101
,
0001
1000
0001
1000
0002
0000
0000
0000
0000
0000
1003
0000
0001
0000
0001
0000
,
0100
0001
1000
1000
0010
1000
0001
0001
,
0100
0001
1000
1000
0001
0100
0001
0001
,
1000
1010
0010
0101
0100
1001
0010
0110
,
0100
0010
0100
0100
0100
0100
1001
0000
;

//---------------dance-single - DDR X S-Difficult----------------
#NOTES:
     dance-single:
     DDR X S-Difficult:
     Medium:
     6:
     0.276,0.334,0.106,0.272,0.000,206.000,14.000,36.000,0.000,0.000,0.000,0.000,0.276,0.334,0.106,0.272,0.000,206.000,14.000,36.000,0.000,0.000,0.000,0.000:
0000
0000
0000
0000
,
0010
0020
0000
0000
,
0000
0000
0000
0000
,
1030
2000
0000
0000
,
0000
0000
0000
0000
,
3001
0002
0000
0000
,
0000
0000
0000
0000
,
0100
0000
1000
0000
,
0010
0000
1003
0001
,
0100
0000
0001
1000
0000
0001
0000
1000
,
0000
0000
0010
1000
,
0001
0000
0100
0001
0000
1000
0000
0010
,
0000
0000
0100
0010
,
0100
0000
0001
1000
0000
0001
0000
0010
,
0000
0000
0001
0010
,
0100
0000
1000
0010
0000
1000
0000
0100
,
0000
0000
0010
1001
,
0200
1300
0002
0103
,
0020
1030
0002
0013
,
0200
1300
0020
0130
,
0002
1003
0020
1030
,
0001
0000
0010
0000
0100
0000
1000
0001
,
0000
0100
0000
0001
0000
0000
0000
0000
,
1000
0000
0010
0000
0100
0000
0010
1000
,
0000
0001
0000
0100
0000
0001
0000
0000
,
1000
0000
0100
0000
1000
0000
0010
1000
,
0000
0001
0000
0100
0000
0002
0000
0000
,
1003
0001
0100
0010
,
2000
3002
0203
0310
,
1010
0000
0101
0000
,
1001
0000
1100
0000
,
0011
0000
1001
0000
,
0001
0100
0001
0100
,
0110
0000
1001
0000
,
1100
0000
0011
0000
,
0101
0000
0000
0000
1010
0000
0000
0001
,
0000
1000
0000
0010
0000
2000
0000
0000
,
3001
0001
0001
0001
,
0001
0001
0001
0001
,
1000
1000
1000
1000
,
1000
1000
1000
1000
,
0010
0000
0000
0000
,
0000
0000
0000
2000
,
3002
0000
0203
0000
,
0320
0000
2030
0000
,
3200
0000
0320
0000
,
0032
0000
0203
0000
,
0320
0000
0000
0000
,
0030
0000
0000
0000
,
0000
0000
0000
0000
,
0000
0000
0000
0000
,
0000
0000
0000
0000
,
0000
0000
0000
0000
,
0000
1000
1000
1000
,
1000
1000
1000
1000
,
1000
0001
0001
0001
,
0001
0001
0001
0001
,
0001
0100
0001
1000
,
0010
1000
0000
0001
0000
0100
0000
0000
,
0000
0001
0010
0100
,
1000
0001
0000
0100
0000
0001
0000
1000
,
0000
0000
1000
1000
,
0000
0001
0000
0100
0000
0001
0000
2000
,
0000
3010
1000
0001
,
0100
0001
1000
0010
,
1000
0002
0000
2003
,
0000
3020
0000
0230
,
0000
0302
0000
0013
,
0000
0100
0000
1000
0000
0001
0000
1000
,
0000
0010
2000
0000
0000
0000
3002
0000
,
0000
0100
0000
0100
0000
0103
0002
0000
,
0000
2003
0000
3010
,
0000
1000
0000
0001
0000
0100
0000
0010
,
0000
1000
0100
0010
0001
0000
1001
0000
;

//---------------dance-single - DDR X S-Basic----------------
#NOTES:
     dance-single:
     DDR X S-Basic:
     Easy:
     4:
     0.194,0.334,0.015,0.151,0.000,158.000,2.000,20.000,0.000,0.000,0.000,0.000,0.194,0.334,0.015,0.151,0.000,158.000,2.000,20.000,0.000,0.000,0.000,0.000:
0000
0000
0000
0000
,
0002
0000
0000
0000
,
0000
0000
0000
0003
,
2000
0000
0000
0000
,
0000
0000
0000
3000
,
0020
0000
0000
0000
,
0000
0000
0000
0030
,
1000
0000
0001
0000
,
0100
0000
0001
0000
,
1000
0010
1000
0000
,
0001
0010
0001
0000
,
1000
0100
1000
0000
,
0001
1000
0001
0000
,
1000
0100
1000
0000
,
0001
0100
0001
0000
,
1000
0010
0100
0000
,
0100
0010
1000
0000
,
0002
0003
0200
0300
,
0020
0030
2000
3000
,
0002
0003
0020
0030
,
0200
0300
2000
3000
,
0001
1000
0001
0000
,
1000
0010
1000
0000
,
0001
0100
0001
0000
,
1000
0001
1000
0000
,
0001
0100
0001
0000
,
1000
0010
1000
0000
,
0001
0000
0100
0000
,
0001
1000
0001
1000
,
0010
0000
1000
0000
,
0100
0010
0001
0000
,
1000
0000
0010
0000
,
1000
0001
0100
0000
,
1001
0000
0100
0000
,
0001
0000
1000
0000
,
0010
0000
1000
0000
,
0100
0010
0001
1000
,
0001
0000
0001
0000
,
0001
0000
0001
0000
,
1000
0000
1000
0000
,
1000
0000
1000
0000
,
0010
0000
0000
0000
,
0000
0000
0000
0010
,
0010
0000
1000
0000
,
0001
0000
0100
0001
,
1000
0000
0001
0000
,
0010
0000
0100
0000
,
2000
0000
0000
0000
,
3000
0000
0000
0000
,
0000
0000
0000
0000
,
0000
0000
0000
0000
,
0000
0000
0000
0000
,
0000
0000
0000
0000
,
0000
2000
3100
0002
,
0103
2000
3100
0002
,
0103
2000
3100
0002
,
0103
2000
3100
0002
,
0103
0001
1000
0010
,
0000
1000
0000
0010
,
0000
0100
0001
0100
,
0000
0001
0000
1000
,
0000
0010
1000
0100
,
0000
1000
0000
0001
,
0000
1000
0000
0000
,
0000
0001
0100
0001
,
0000
1000
0000
0001
,
0000
0100
0001
0100
,
0000
0001
0000
1000
,
0000
0001
0000
0010
,
0000
0100
0000
1000
,
0000
0001
0000
0100
,
0000
0001
0000
1000
,
0000
0010
0000
1000
,
0000
0100
0100
1001
;

//---------------dance-single - DDR X S-Beginner----------------
#NOTES:
     dance-single:
     DDR X S-Beginner:
     Beginner:
     3:
     0.117,0.167,0.015,0.008,0.000,105.000,2.000,1.000,0.000,0.000,0.000,0.000,0.117,0.167,0.015,0.008,0.000,105.000,2.000,1.000,0.000,0.000,0.000,0.000:
0000
0000
0000
0000
,
0001
0000
0000
0000
,
0000
0000
0000
0000
,
1000
0000
0000
0000
,
0000
0000
0000
0000
,
0001
0000
0000
0000
,
0000
0000
0000
0000
,
0100
0000
0100
0000
,
0100
0000
0000
0000
,
1001
0000
0000
0000
,
0000
0000
0000
0000
,
0010
0000
0000
0000
,
0000
0000
0000
0000
,
1000
0000
0000
0000
,
0000
0000
0000
0000
,
0001
0000
0000
0000
,
0000
0000
0000
0000
,
1000
0000
0010
0000
,
1000
0000
0001
0000
,
0100
0000
0001
0000
,
1000
0000
0100
0000
,
0010
0000
1000
0000
,
0001
0000
0000
0000
,
0001
0000
0100
0000
,
0001
0000
0000
0000
,
1000
0000
0010
0000
,
1000
0000
0000
0000
,
0001
0000
0100
0000
,
0001
0000
0000
0000
,
1000
0000
0001
0000
,
0100
0000
0001
0000
,
1000
0000
0100
0000
,
0010
0000
0001
0000
,
1000
0000
0010
0000
,
1000
0000
0001
0000
,
0100
0000
0001
0000
,
1000
0000
0010
0000
,
1000
0000
0000
0000
,
0000
0000
0000
0000
,
0001
0000
0000
0000
,
0000
0000
0000
0000
,
0100
0000
0000
0000
,
0000
0000
0000
0000
,
0001
0000
1000
0000
,
0001
0000
0000
0000
,
1000
0000
0100
0000
,
0010
0000
0001
0000
,
2000
0000
0000
0000
,
3000
0000
0000
0000
,
0000
0000
0000
0000
,
0000
0000
0000
0000
,
0000
0000
0000
0000
,
0000
0000
0000
0000
,
0000
1001
0000
0010
,
0000
1000
0000
0001
,
0000
0100
0000
0001
,
0000
1000
0000
0100
,
0000
0010
0000
0001
,
0000
1000
1000
1000
,
0000
0001
0000
0100
,
0000
0001
0001
0001
,
0000
1000
0000
0010
,
0000
1000
1000
1000
,
0000
0010
0000
0100
,
0000
0010
0010
0010
,
0010
0010
0000
1000
,
0000
0001
0000
0100
,
0000
0001
0000
0010
,
0000
0100
0000
1000
,
0000
0010
0000
0100
,
0000
0001
0000
1000
,
0000
0001
0000
0100
,
0000
0001
0000
1000
,
0000
0010
0010
0010
;

//---------------dance-double - DDR X D-Expert----------------
#NOTES:
     dance-double:
     DDR X D-Expert:
     Hard:
     9:
     0.433,0.446,0.378,0.385,0.000,300.000,50.000,51.000,0.000,0.000,0.000,0.000,0.433,0.446,0.378,0.385,0.000,300.000,50.000,51.000,0.000,0.000,0.000,0.000:
00000000
00000000
00000000
00000000
,
00100000
01000000
00010000
20000000
00000000
00000000
00000000
00000000
,
00000000
00000000
00000000
00000000
,
30001000
00000100
00000010
00000002
00000000
00000000
00000000
00000000
,
00000000
00000000
00000000
00000000
,
00010003
00100000
01000000
20000000
00000000
00000000
00000000
00000000
,
00000000
00000000
00000000
00000000
,
00010000
00000000
00100000
00000000
,
00010000
00000000
31000000
10010000
,
00100000
00000000
01000000
00010000
00000000
01010000
00000000
00102000
,
00000000
00000000
00013000
00000000
00000100
00001000
00000100
00010000
,
00000100
00000000
00010000
00001000
00000000
00101000
00000000
01020000
,
00000000
00000000
10030000
00000000
10000000
01000000
00100000
00001000
,
00010000
00000000
00000100
00001000
00000000
00001010
00000000
00000102
,
00000000
00000000
00001003
00000000
00000100
00001000
00000010
00100000
,
00010000
00000000
01000000
00001000
00000000
00101000
00000000
00011000
,
00000000
00100000
00010000
01000000
00100000
10000000
00010000
00000000
,
20000000
31000000
00020000
01030000
,
00002000
00013000
00000200
00001300
,
00000020
00000130
00002000
00103000
,
00020000
01030000
00200000
10300000
,
00010000
00100000
01000000
10000000
00010000
00000000
01000000
00010000
,
00000000
01010000
00000000
20100000
00000000
00000000
30010000
00000000
,
00100000
00010000
01000000
00001000
00010000
00000000
00000100
00010000
,
00000000
00010100
00000000
00001010
00000000
00000201
00000000
00000000
,
00000310
00001000
00000010
00001000
00000010
00000000
00010000
00001000
,
00000000
00101000
00000000
00110000
00000000
02100000
00000000
00000000
,
13000000
00010000
10000000
00000000
00010000
01000000
00010000
00000000
,
10000000
01000000
00100000
00001000
00010000
00000100
00001000
00000010
,
00000100
00000010
00000000
00001000
00000100
00001000
00000000
00001010
,
00000000
00000101
00000000
00010000
00000100
00010000
00000000
00001000
,
00100000
00001000
00000000
01000000
00010000
01000000
00000000
01010000
,
00000000
10100000
00000000
10010000
00000000
01010000
00000000
00102000
,
00000000
00000000
00000000
00103000
00001000
00100000
00000000
00011000
,
00000000
00010100
00000000
00001000
00000010
00000100
00000000
00000001
,
00000010
00000100
00000000
00001000
00000001
00001000
00000000
00000101
,
00000000
00001010
00000000
00001001
00000000
00000010
00001000
00000100
,
00002000
00003200
00002300
00003200
,
00002300
00003200
00002300
00003200
,
00200300
00320000
00230000
00320000
,
00230000
00320000
00230000
00310000
,
01001000
00000000
00000000
00000000
,
00000000
00000000
00000000
00000000
00000000
00000000
10000000
01000000
,
00200000
00000000
00000000
00310000
01000000
00000000
00010000
20000000
,
00000000
32000000
00000000
03200000
00000000
00300200
00000000
00001300
,
00000020
00000000
00000000
00001030
00000200
00000000
00000000
00010300
,
00002000
00000000
00000000
00103000
00020000
00000000
00000000
01030000
,
00200000
00000000
00000000
00000000
,
00300000
00000000
00000000
00000000
,
00000000
00000000
00000000
00000000
,
00000000
00000000
00000000
00000000
,
00000000
00000000
00000000
00000000
,
00000000
00000000
00000000
00000000
,
00000000
00011000
00001000
00001000
,
00001000
00001000
00001000
00001000
,
00001000
00010000
00010000
00010000
,
00010000
00010000
00010000
00010000
,
00010000
00000000
00000100
00001000
00000100
00001000
00000001
00000000
,
00000100
00000010
00000000
00001010
00000000
00000201
00000000
00000000
,
00000310
00000000
00001000
00000100
00000010
00000100
00001000
00000000
,
00000100
00010000
00000000
00101000
00000000
00110000
00000000
20010000
,
00000000
00000000
30010000
10000000
01000000
00100000
00020000
00000000
,
00000000
02030000
00000000
03002000
00000000
00023000
00000000
00030200
,
00000000
00000000
00001300
00000001
00001000
00000000
00000001
00000100
,
00000001
00000000
00001000
00000100
00000010
00000100
00001000
00010000
,
00100000
01000000
10000000
01000000
00000000
10000000
00010000
10000000
,
00000000
01010000
00000000
10100000
00000000
00001000
00010000
00001000
,
00000000
00100000
00010000
00100000
00000000
00000100
00001000
00000100
,
00000000
00101000
00000000
00010100
00000000
01001000
00000000
00010010
,
00000000
00012000
00000000
00000000
00000000
00103000
00001000
00100000
,
00000000
00001100
00000000
00000011
00000000
00000001
00000100
00000001
,
00000000
00001000
00000100
00001000
00000000
00000100
00010000
00000100
,
00000000
00010100
00000000
00101000
00000000
00110000
00000000
01100000
,
00000000
00001000
00100000
00100000
00100000
00100000
00011000
00000000
;

//---------------dance-double - DDR X D-Difficult----------------
#NOTES:
     dance-double:
     DDR X D-Difficult:
     Medium:
     6:
     0.278,0.334,0.030,0.340,0.000,209.000,4.000,45.000,0.000,0.000,0.000,0.000,0.278,0.334,0.030,0.340,0.000,209.000,4.000,45.000,0.000,0.000,0.000,0.000:
00000000
00000000
00000000
00000000
,
00100000
00200000
00000000
00000000
,
00000000
00000000
00000000
00300000
,
01000000
02000000
00000000
00000000
,
00000000
00000000
00000000
03000000
,
00001000
00002000
00000000
00000000
,
00000000
00000000
00000000
00000000
,
00010000
00000000
00100000
00000000
,
01000000
00000000
00013000
00001000
,
00011000
00000000
00000100
00001000
00000000
00000100
00000000
00010000
,
00000000
00001000
00010000
00100000
,
00001000
00000000
01000000
00010000
00000000
10000000
00000000
00010000
,
00000000
10000000
01000000
00100000
,
00001000
00000000
00010000
00000100
00000000
00001000
00000000
00000010
,
00000000
00001000
00000100
00010000
,
00001000
00000000
00100000
00010000
00000000
01000000
00000000
00100000
,
00000000
10000000
00010000
10010000
,
02000000
03010000
00200000
00310000
,
00002000
00013000
00000200
00001300
,
00000020
00000130
00002000
00003100
,
00020000
00031000
00200000
00310000
,
10000000
00000000
01000000
00000000
00100000
00000000
00000000
01000000
,
00000000
10000000
00000000
00010000
00000000
00000000
01000000
00000000
,
00001000
00000000
00010000
00000000
00000100
00000000
00000000
00001000
,
00000000
00000010
00000000
00000100
00000000
00000001
00000000
00000000
,
00001000
00000000
00000100
00000000
00001000
00000000
00000000
00000010
,
00000000
00000100
00000000
00000010
00000000
00001000
00000000
00000000
,
00000001
00000000
00001000
00100000
,
00010000
01000000
00100000
10000000
,
00020000
00000000
00000000
00000000
02030000
00000000
00000000
03010000
,
00000000
10000000
00000000
00010000
00000000
00000000
00000000
00000000
,
00200000
00000000
00000000
00000000
00302000
00000000
00000000
00013000
,
00000000
00000100
00000000
00001000
00000000
00000010
00000000
00020000
,
00000000
00000000
00000000
00000000
00032000
00000000
00000000
01000000
,
00003000
00010000
00000000
01000000
00020000
00000000
00000000
00000000
,
02030000
00000000
00000000
00000000
03002000
00000000
00000000
00013000
,
00000000
00000100
00000000
00001000
00000000
00000010
00000000
00000100
,
00000001
00000001
00000001
00000001
,
00000001
00000001
00000001
00000001
,
00001000
00001000
00001000
00001000
,
00001000
00001000
00001000
00001000
,
00000110
00000000
00000000
00000000
,
00000000
00000000
00000000
00000200
,
00002300
00000000
00003020
00000000
,
00000230
00000000
00000302
00000000
,
00000023
00000000
00000230
00000000
,
00020300
00000000
00032000
00000000
,
00200000
00000000
00000000
00000000
,
00303000
00000000
00000000
00000000
,
00000000
00000000
00000000
00000000
,
00000000
00000000
00000000
00000000
,
00000000
00000000
00000000
00000000
,
00000000
00000000
00000000
00000000
,
00000000
20000000
31000000
00200000
,
00310000
02000000
03001000
00020000
,
00031000
00000200
00001300
00000020
,
00010030
00000200
00100300
00002000
,
00013000
00000100
00001000
00000010
,
00001000
00000010
00000000
00001000
00000000
00000001
00000000
00000000
,
00000000
00000100
00000001
00001000
,
00000100
00010000
00000000
00001000
00000000
00100000
00000000
00010000
,
00000000
10000000
01000000
00100000
,
00010000
10000000
00000000
00100000
00000000
01000000
00000000
00100000
,
00000000
10000000
00000000
00000000
,
00000000
00010000
00000000
01000000
00000000
00010000
00000000
10000000
,
00000000
00020000
00000000
00230000
,
00000000
00301000
00000000
00010000
00000000
00000100
00000000
00000000
,
00000000
00002000
00000000
00003002
,
00000000
00001003
00000000
00000100
00000000
00010000
00000000
00001000
,
00000000
00100000
00000000
00000000
00000000
00000000
00020000
00000000
,
00000000
10030000
00000000
00100000
00000000
10000000
00000000
00000000
,
00000000
00020000
00000000
02030000
,
00000000
03001000
00000000
00100000
00000000
00000100
00000000
00010000
,
00000000
00001000
00010000
00001000
00010000
00000000
00011000
00000000
;

//---------------dance-double - DDR X D-Basic----------------
#NOTES:
     dance-double:
     DDR X D-Basic:
     Easy:
     4:
     0.179,0.223,0.015,0.091,0.000,152.000,2.000,12.000,0.000,0.000,0.000,0.000,0.179,0.223,0.015,0.091,0.000,152.000,2.000,12.000,0.000,0.000,0.000,0.000:
00000000
00000000
00000000
00000000
,
00200000
00000000
00000000
00000000
,
00000000
00000000
00000000
00300000
,
20000000
00000000
00000000
00000000
,
00000000
00000000
00000000
30000000
,
00020000
00000000
00000000
00000000
,
00000000
00000000
00000000
00030000
,
01000000
00000000
00010000
00000000
,
01000000
00000000
00001000
00000000
,
00010000
00000000
01000000
00000000
,
00010000
00000000
10000000
00000000
,
00010000
00000000
00100000
00000000
,
00001000
00000000
00010000
00000000
,
00000100
00000000
00001000
00000000
,
00000010
00000000
00000100
00000000
,
00000001
00000000
00000010
00000000
,
00000100
00000000
00001000
00000000
,
00010000
00000000
00001000
00000000
,
01000000
00000000
00000100
00000000
,
00010000
00000000
00001000
00000000
,
00100000
00000000
00000010
00000000
,
00010000
00010000
00010000
00000000
,
00000100
00000100
00000100
00000000
,
00001000
00001000
00001000
00000000
,
00000010
00000010
00000010
00000000
,
00000100
00000001
00000100
00000000
,
00000010
00001000
00000010
00000000
,
00010000
00010000
00010000
00000000
,
00001000
00001000
00001000
00000000
,
01000000
00000000
00010000
00000000
,
10000000
00000000
00100000
00000000
,
01000000
00000000
00010000
00000000
,
00100000
00000000
00001000
00000000
,
00010000
00000000
00000100
00000000
,
00001000
00000000
00000010
00000000
,
00000100
00000000
00000010
00000000
,
00010000
00000000
00001000
00000000
,
01000000
01000000
01000000
00000000
,
01000000
01000000
01000000
00000000
,
00010000
00010000
00010000
00000000
,
10000000
10000000
10000000
00000000
,
10010000
00000000
00000000
00000000
,
00000000
00000000
00000000
00001000
,
00002000
00000000
00023000
00000000
,
00032000
00000000
00023000
00000000
,
00030200
00000000
00002300
00000000
,
00003020
00000000
00000230
00000000
,
00000302
00000000
00000000
00000000
,
00000003
00000000
00000000
00000000
,
00000000
00000000
00000000
00000000
,
00000000
00000000
00000000
00000000
,
00000000
00000000
00000000
00000000
,
00000000
00000000
00000000
00000000
,
00000000
00001000
00001000
00001000
,
00001000
00000010
00000010
00000010
,
00000010
00010000
00010000
00010000
,
00010000
00001000
00001000
00001000
,
00001000
00100000
00100000
00100000
,
00000000
00010000
00010000
00010000
,
00000000
10000000
10000000
10000000
,
00000000
00100000
00100000
00100000
,
00000000
01000000
01000000
01000000
,
00000000
00001000
00001000
00001000
,
00000000
00010000
00010000
00010000
,
00000000
00000100
00001000
00000100
,
00000000
00010000
00000000
00001000
,
00000000
00100000
00000000
00010000
,
00000000
01000000
00000000
00100000
,
00000000
10000000
00000000
01000000
,
00000000
00100000
00000000
00001000
,
00000000
00010000
00000000
00000100
,
00000000
00001000
00000000
00000010
,
00000000
00000100
00000000
00000001
,
00000000
00001000
00000000
00001001
;

//---------------dance-double - DDR X D-Challenge----------------
#NOTES:
     dance-double:
     DDR X D-Challenge:
     Challenge:
     13:
     0.618,0.669,0.642,0.151,0.136,468.000,85.000,20.000,0.000,0.000,0.000,0.000,0.618,0.669,0.642,0.151,0.136,468.000,85.000,20.000,0.000,0.000,0.000,0.000: // measure 1
00000000
00000000
00000000
00000000
,  // measure 2
10000000
01000000
00100000
00000000
00100000
01000000
10000000
00010000
,  // measure 3
01000000
00100000
10000000
00000000
00010000
01000000
00100000
01000000
,  // measure 4
00010000
10000000
00100000
00000000
01000000
00010000
00100000
00010000
,  // measure 5
10000000
01000000
00100000
00000000
00001000
00000100
00000010
00000001
,  // measure 6
00000010
00000100
00001000
00000000
00000001
00000100
00000010
00001000
,  // measure 7
00000100
00000010
00000001
00000000
00001000
00000100
00010000
00001000
,  // measure 8
00100000
00010000
01000000
00100000
10000000
01000000
00100000
01000000
,  // measure 9
10000000
00010000
01000000
00100000
10000000
01000000
00010000
01000000
,  // measure 10
10010000
00000000
00010000
01000000
00000000
10100000
00000000
01010000
,  // measure 11
00000000
10000000
01000000
00100000
00010000
10000000
00010000
00100000
,  // measure 12
00101000
00000000
00010000
00000100
00000000
00001100
00000000
00000011
,  // measure 13
00000000
00000001
00001000
00000100
00010000
00000100
00001000
00000010
,  // measure 14
00000101
00000000
00000010
00001000
00000000
00001100
00000000
00101000
,  // measure 15
00000000
10000000
01000000
00100000
00010000
00100000
01000000
10000000
,  // measure 16
01010000
00000000
00001000
00110000
00000000
00101000
00000000
00010100
,  // measure 17
00000000
00000000
00010000
00000000
00001000
00000000
00100000
00010000
00100000
00000000
00001000
00000000
01001000
00000000
00000000
00000000
,  // measure 18
20000000
01000000
01000000
31000000
00200000
00010000
00010000
00310000
,  // measure 19
02000000
00001000
00001000
03001000
00020000
00001000
00001000
00031000
,  // measure 20
00000200
00000010
00000010
00000310
00000002
00001000
00001000
00001003
,  // measure 21
00000020
00000000
00010000
00000000
00010000
00000000
00010030
00000000
00000100
00001000
00000100
00001000
00000001
00000100
00000001
00000100
,  // measure 22
00000010
00001000
00000100
00010000
00011000
00000000
00110000
10010000
,  // measure 23
00000000
00000000
11000000
00000000
00000000
00000000
00110000
00000000
00000000
00000000
10000000
00100000
01000000
00000000
00010000
00000000
,  // measure 24
10000000
01000000
00100000
01000000
10000000
00000000
00110000
00101000
,  // measure 25
00000000
00000000
00011000
00000000
00000000
00000000
00010100
00000000
00000000
00000000
00010000
00000010
00010000
00000100
00001000
00000100
,  // measure 26
00001000
00000010
00000100
00000001
00001001
00000000
00001010
00001001
,  // measure 27
00000000
00001100
00000000
00000011
00000000
00002100
00000000
00000000
,  // measure 28
00003010
00001000
00000100
00000000
00000100
00001000
00000010
00000000
,  // measure 29
00000010
00000000
00001000
00000100
00001000
00000100
00000010
00000001
00000010
00000001
00001000
00000010
00001000
00000010
00000100
00000010
,  // measure 30
00001000
00001000
00000001
00000100
00000010
00000010
00001000
00010100
,  // measure 31
00000000
00101000
00000000
00110000
00110000
00110000
00010000
10000000
,  // measure 32
00100000
00100000
10000000
01000000
00100000
00100000
00010000
01010000
,  // measure 33
00000000
00000000
10100000
00000000
00000000
00000000
01010000
00000000
00000000
00000000
10100000
00000000
00000000
00000000
01000000
00010000
,  // measure 34
00100000
00001000
00010000
00000100
00001000
00001010
00000000
00001001
,  // measure 35
00000000
00000101
00000000
00000110
00000110
00000110
00000000
00000100
,  // measure 36
00001000
00001000
00000100
00010000
00001000
00001000
00100000
00110000
,  // measure 37
00000000
01100000
00000000
11000000
00000000
10010000
00000000
01100000
,  // measure 38
10000000
01000000
10000000
01000000
10000000
01000000
10000000
01000000
,  // measure 39
10000000
01000000
10000000
01000000
10000000
01000000
10000000
01000000
,  // measure 40
00100000
00010000
00100000
00010000
00100000
00010000
00100000
00010000
,  // measure 41
00100000
00010000
00100000
00010000
00100000
00010000
00100000
00010000
,  // measure 42
00101000
00000000
00000000
00000000
,  // measure 43
00000000
00000000
00000000
00000000
00000000
00000000
00000000
00000000
00000000
00000000
00000000
00000000
00000100
00001000
00000100
00001000
,  // measure 44
00000200
00000000
00000000
00001300
00000100
00000000
00001000
00001100
,  // measure 45
00000000
00011000
00000000
00110000
00000000
01100000
00000000
10000000
,  // measure 46
00200000
00000000
00000000
10300000
00020000
00000000
00000000
00130000
,  // measure 47
00002000
00000000
00000000
00013000
00000200
00000000
00000000
00001300
,  // measure 48
00000020
00000000
00000000
00000000
,  // measure 49
00000030
00000000
00000000
00000000
,  // measure 50
00000000
00000000
00000000
00000000
,  // measure 51
00000000
00000000
00000000
00000000
,  // measure 52
00000000
00000000
00000000
00000000
,  // measure 53
00000000
00000000
00000000
00000000
,  // measure 54
00000000
00000000
00000002
00000010
00000010
00000013
00000200
00001000
,  // measure 55
00001000
00001300
00020000
00100000
00100000
00130000
02000000
10000000
,  // measure 56
10000000
13000000
00200000
01000000
01000000
01300000
00020000
00100000
,  // measure 57
00100000
00000000
00130000
00000000
00001000
00000000
00010000
00000100
00010000
00000100
00001000
00000010
00001000
00000010
00000100
00000001
,  // measure 58
00000100
00000001
00000100
00000001
00001000
00000000
00000100
00000000
00000010
00000000
00000100
00000000
00001000
00000000
00000000
00000000
,  // measure 59
00001100
00010100
00000000
00011000
00000000
00110000
00010000
10000000
,  // measure 60
00100000
00000000
10000000
00100000
01000000
00010000
10000000
00000000
,  // measure 61
00110000
00000000
10010000
00000000
00000000
00000000
01010000
00000000
00000000
00000000
00101000
00000000
00000000
00000000
00010000
00000100
,  // measure 62
00010000
00000100
00010000
00000100
00010000
00000000
00000010
00000000
00000100
00000000
00000001
00000000
00001000
00000000
00000000
00000000
,  // measure 63
00001010
00001001
00000000
00000101
00000000
00001010
00000000
00001100
,  // measure 64
00000100
00010000
00001000
01000000
00100000
00000000
10000000
01000000
,  // measure 65
00100000
00000000
00000000
00000000
00100000
00000000
01000000
10000000
01000000
10000000
01000000
10000000
01000000
10000000
01000000
10000000
,  // measure 66
01000000
10000000
01000000
10000000
00010000
00000000
00010000
00000000
00100000
00000000
00001000
00000000
00010000
00000000
00010000
00000000
,  // measure 67
00000100
00001100
00000000
00000110
00000000
00000011
00000011
00000011
,  // measure 68
00000000
00000010
00010000
00010000
00001000
00100000
00010000
00010000
,  // measure 69
01000000
10100000
00100000
10100000
00100000
10100000
00100000
10100000
,  // measure 70
00100000
10100000
10010000
01000000
10010000
01000000
00010000
00010000
,  // measure 71
10000000
00100000
10000000
10000000
00010000
01000000
00001000
00001000
,  // measure 72
00010000
00000100
00001000
00001000
00000010
00000100
00000001
00000001
,  // measure 73
00001000
00001010
00000000
00010100
00000000
00101000
00000000
01010000
,  // measure 74
00000000
10100000
00001000
00001000
00001000
00001000
00110000
00000000
;
