#TITLE:Hard To See;
#SUBTITLE:;
#ARTIST:Five Finger Death Punch;
#TITLETRANSLIT:;
#SUBTITLETRANSLIT:;
#ARTISTTRANSLIT:;
#GENRE:Hard Rock;
#CREDIT:;
#BANNER:;
#BACKGROUND:;
#LYRICSPATH:;
#CDTITLE:;
#MUSIC:Hard to See.ogg;
#OFFSET:0.000000;
#SAMPLESTART:32.106365;
#SAMPLELENGTH:17.999998;
#LASTBEATHINT:404.000000;
#SELECTABLE:YES;
#BPMS:0.000000=224.000000
;
#STOPS:;
#DELAYS:;
#TIMESIGNATURES:0.000000=4=4
;
#TICKCOUNTS:0.000000=2
;
#BGCHANGES:;
#KEYSOUNDS:;
#ATTACKS:;

//---------------dance-single - DDR X S-Expert----------------
#NOTES:
     dance-single:
     DDR X S-Expert:
     Hard:
     12:
     0.568,0.591,0.879,0.119,0.000,325.000,96.000,13.000,0.000,0.000,0.000,0.000,0.568,0.591,0.879,0.119,0.000,325.000,96.000,13.000,0.000,0.000,0.000,0.000: // measure 1
0000
0000
0000
0000
,  // measure 2
0000
0000
0000
0000
,  // measure 3
0000
0000
0000
0000
,  // measure 4
0000
0000
0000
0000
,  // measure 5
0000
0000
0000
0000
,  // measure 6
0000
0000
0000
0000
,  // measure 7
0001
0100
0101
0010
,  // measure 8
1000
0100
1100
0010
,  // measure 9
0001
0100
0101
0010
,  // measure 10
1000
0100
1100
0010
,  // measure 11
0001
0100
0101
0010
,  // measure 12
1000
0100
1100
0001
,  // measure 13
0101
0000
0100
0000
0001
1000
0001
0000
,  // measure 14
1000
0010
1000
0000
0001
0000
0100
0000
,  // measure 15
0101
0000
0000
0000
1010
0000
0000
0010
,  // measure 16
0100
0001
1001
0000
,  // measure 17
0011
0000
0000
0000
1100
0000
0000
0100
,  // measure 18
0010
0001
1001
0000
,  // measure 19
0101
0000
0000
0000
1010
0000
0000
0010
,  // measure 20
0100
0001
1001
0000
,  // measure 21
1100
0000
0000
0000
0011
0000
0000
0010
,  // measure 22
0100
0000
1000
0000
1001
0000
1000
0001
,  // measure 23
1000
0000
0000
0000
0011
0000
0000
0010
,  // measure 24
0100
1000
1001
0000
,  // measure 25
0101
0000
0000
0000
1010
0000
0000
0010
,  // measure 26
0100
0001
1001
0000
,  // measure 27
1010
0000
0000
0000
0101
0000
0000
0010
,  // measure 28
0100
0000
0001
0000
1000
0001
2000
0000
,  // measure 29
0000
0000
0000
0000
,  // measure 30
0000
0000
0000
3001
0010
0100
1000
0000
,  // measure 31
0010
0010
0101
0010
,  // measure 32
0010
0010
1100
0010
,  // measure 33
0010
0010
0101
0010
,  // measure 34
0010
0010
1100
0010
,  // measure 35
0010
0010
0101
0010
,  // measure 36
0010
0010
1100
0010
,  // measure 37
0010
0010
0101
0010
,  // measure 38
1000
1000
1000
1000
,  // measure 39
0011
0100
1001
0000
,  // measure 40
0010
1000
0101
0000
,  // measure 41
0010
0001
1100
0000
,  // measure 42
0010
1000
0101
0000
,  // measure 43
0010
0001
1100
0000
,  // measure 44
0001
0000
1000
0000
0010
1000
0000
0001
,  // measure 45
0100
0000
0001
0010
0000
0100
1000
0000
,  // measure 46
0001
0100
0001
0000
1000
0000
0010
0000
,  // measure 47
1001
0000
0110
0000
,  // measure 48
1000
0100
1000
0000
1001
0000
0000
0000
,  // measure 49
0011
0000
1100
0000
,  // measure 50
0001
1000
0001
0000
1001
0000
0000
0000
,  // measure 51
1010
0000
0101
0000
,  // measure 52
0001
1000
0001
0000
1001
0000
0000
0000
,  // measure 53
0011
0000
0000
0000
1100
0000
0000
1001
,  // measure 54
0000
0000
0000
0000
,  // measure 55
1100
0000
0000
0000
0011
0000
0000
1000
,  // measure 56
0001
0100
1001
0000
,  // measure 57
0011
0000
0000
0000
1100
0000
0000
0001
,  // measure 58
0010
0100
1001
0000
,  // measure 59
0101
0000
0000
0000
1010
0000
0000
0100
,  // measure 60
0001
1000
1001
0000
,  // measure 61
0101
0000
0000
0000
1010
0000
0000
0010
,  // measure 62
0100
0000
0001
0000
1001
0000
1000
0001
,  // measure 63
2000
0000
0000
0000
3001
0000
0000
0100
,  // measure 64
0010
1000
1001
0000
,  // measure 65
0020
0000
0000
0000
1030
0000
0000
0001
,  // measure 66
0010
0100
1001
0000
,  // measure 67
0200
0000
0000
0000
0301
0000
0000
1000
,  // measure 68
0010
1000
0001
0110
,  // measure 69
0000
1000
0001
0110
,  // measure 70
0000
0001
0010
0000
0100
0000
1000
0001
,  // measure 71
0100
0100
1010
0100
,  // measure 72
0100
0100
0011
0100
,  // measure 73
0100
0100
1010
0100
,  // measure 74
0100
0100
0011
0100
,  // measure 75
0100
0100
1010
0100
,  // measure 76
0100
0100
0011
0100
,  // measure 77
0100
0100
1010
0100
,  // measure 78
0001
0100
0001
0000
1000
0010
1000
0000
,  // measure 79
0001
0010
1100
1000
,  // measure 80
0010
0100
0101
0010
,  // measure 81
1000
0100
0011
0001
,  // measure 82
0100
0010
1010
1000
,  // measure 83
0100
0010
0011
0001
,  // measure 84
1000
0010
1010
0001
,  // measure 85
1000
0100
0000
1000
0001
0000
0100
0001
,  // measure 86
0100
0000
0010
1000
0010
0000
0000
0000
,  // measure 87
1100
0000
0011
0000
,  // measure 88
1001
0100
1001
0220
,  // measure 89
0330
1000
0100
0010
,  // measure 90
0002
0000
0100
0000
,  // measure 91
1003
0000
0110
0000
,  // measure 92
1001
0010
1001
0220
,  // measure 93
0330
0001
0010
0100
,  // measure 94
2000
0000
0001
0000
,  // measure 95
3100
0000
0011
0000
,  // measure 96
1001
0100
1001
0220
,  // measure 97
0330
1000
0010
0100
,  // measure 98
0002
0000
1000
0000
,  // measure 99
0013
0000
1100
0000
,  // measure 100
0011
1001
0000
0000
;
