#TITLE:Hageshisa to, Kono Mune no Naka de Karamitsuita Shakunetsu no Yami;
#SUBTITLE:;
#ARTIST:Dir en grey;
#TITLETRANSLIT:;
#SUBTITLETRANSLIT:;
#ARTISTTRANSLIT:;
#GENRE:Metal;
#CREDIT:;
#BANNER:;
#BACKGROUND:;
#LYRICSPATH:;
#CDTITLE:;
#MUSIC:Hageshisa to, Kono Mune no Naka de Karamitsuita Shakunetsu no Yami.ogg;
#OFFSET:0.000;
#SAMPLESTART:9.274;
#SAMPLELENGTH:18.000;
#LASTBEATHINT:312.043;
#SELECTABLE:YES;
#DISPLAYBPM:130.000:260.000;
#BPMS:0.000=130.000
,72.000=260.000
,168.000=130.000
;
#STOPS:229.000=2.769
;
#BGCHANGES:0.000=Hageshisa to, Kono Mune no Naka de Karamitsuita Shakunetsu no Yami.avi=1.000=0=0=0=StretchNoLoop====,
99999=-nosongbg-=1.000=0=0=0 // don't automatically add -songbackground-
;
#KEYSOUNDS:;
#ATTACKS:;

//---------------dance-single - ----------------
#NOTES:
     dance-single:
     DDR X S-Challenge:
     Challenge:
     16:
     0.810,0.787,0.856,0.291,0.404,576.000,109.000,37.000,0.000,0.000,0.000,0.810,0.787,0.856,0.291,0.404,576.000,109.000,37.000,0.000,0.000,0.000:
0000
0000
0000
0000
,
0001
0000
1000
0100
0000
0010
0001
0000
1000
0000
0010
0000
0100
0000
0001
0000
,
1000
0000
0001
0010
0000
0100
1000
0000
0001
0000
2000
0000
0020
0000
3030
0000
,
1000
0000
0001
0100
0000
0001
1000
0000
0010
0000
1000
0000
0100
0000
0010
0000
,
0001
0000
1000
0100
0000
0010
0001
0000
1000
0000
0020
0000
0200
0000
0330
0000
,
0001
0000
1000
0100
0000
0010
0001
0000
1000
0000
0010
0000
1010
0000
0101
0000
,
0100
0000
0001
1000
0000
0010
1000
0000
0001
0000
0100
0000
0101
0000
1010
0000
,
0010
0000
1000
0100
0000
0010
0001
0000
1000
0000
0010
0000
0101
0000
1010
0000
,
0010
0000
1000
0100
0000
1000
0001
0000
0100
0000
0001
0000
1010
0000
0101
0000
,
1001
0000
0001
0100
0000
0010
1000
0000
0101
0000
0000
0000
1010
0000
0000
0000
,
0001
0000
0100
0001
0000
1000
0010
0000
1000
0000
0200
0000
0020
0000
0330
0000
,
0001
0000
1000
0010
0000
1000
0100
0000
1100
0000
0000
0000
0011
0000
0000
0000
,
1000
0000
0001
0100
0000
0010
1000
0000
0001
0000
0020
0000
0200
0000
0330
0000
,
1000
0001
0001
0100
2020
0000
3030
0000
,
1001
0000
0020
0000
0000
2030
0000
0000
3002
0000
0000
0203
0000
0000
0320
0000
,
0000
0000
2030
0000
0000
3002
0000
0000
0023
0000
0000
0230
0000
0000
2300
0000
,
0000
0000
3020
0000
0000
0230
0000
0000
0302
0000
0000
2003
0000
0000
3200
0000
,
0000
0000
0320
0000
0000
0032
0000
0000
0203
0000
0000
0310
1000
0010
1000
0010
,
1000
0100
1000
0100
1000
0100
1000
0100
,
0010
0001
0010
0001
0010
0001
0010
0001
,
0100
0010
0100
0010
0100
0010
0100
0010
,
1000
0001
1000
0001
1000
0001
1000
0001
,
0010
0100
0010
0100
0010
0100
0010
0100
,
1000
0010
1000
0010
1000
0010
1000
0010
,
0100
0001
0100
0001
0100
0001
0100
0001
,
1000
0100
1000
0100
1000
0100
1000
0100
,
0010
0001
0100
0010
1000
0100
0010
0100
,
1000
0001
0100
0010
0100
0001
1000
0100
,
1000
0010
0100
0001
1000
0100
0010
0100
,
1000
0001
0010
0100
0010
0001
0100
0010
,
1000
0100
1000
0001
0100
0010
0100
0001
,
0010
0100
1000
0010
0100
0001
1000
0100
,
1000
0001
0100
0010
1000
0100
0010
0001
,
0010
0100
1000
0010
0100
0001
1000
0010
,
1000
0001
0100
0010
,
1000
0100
0010
0001
,
0010
0100
1000
0001
,
1000
0010
0100
0001
0010
0100
1000
0000
,
1001
0110
0110
1000
,
0110
0110
0001
1001
,
0010
1001
0100
1001
,
0010
0000
1001
0000
0100
0010
0100
0010
,
0100
0000
0001
0100
0000
0010
1000
0000
0001
0000
0010
0000
0200
0000
0000
0000
,
1300
0000
0001
0100
0000
0001
1000
0000
0010
0000
1010
0000
1010
0000
0000
0000
,
1000
0000
0100
0010
0000
0010
0100
0000
1000
0000
0001
0000
0200
0000
0000
0000
,
0301
0000
1000
0010
0000
0100
0010
0000
1000
0000
0011
0000
1001
0000
0000
0000
,
0010
0000
1000
0001
0000
0100
0001
0000
1000
0000
0100
0000
2000
0000
0000
0000
,
3010
0000
0100
0010
0000
1000
0001
0000
0100
0000
1010
0000
1001
0000
0000
0000
,
0100
0000
0010
1000
0000
0001
0100
0000
0001
0000
1000
0000
0200
0000
0000
0000
,
1300
0000
0001
0010
0000
0100
1000
0000
0001
0000
1001
0000
1001
0000
0000
0000
,
0010
1000
0010
1010
0000
1001
0000
0101
,
0001
0100
0001
0101
0000
1010
0000
1001
,
1000
0100
1000
1100
0000
0011
0000
1001
,
0100
0001
0100
0000
0001
0000
1000
0010
1000
0000
0001
0000
0200
0000
0000
0000
,
0301
1000
0100
0011
0000
1100
0000
0101
,
0010
1000
0010
1010
0000
0101
0000
1001
,
0010
1000
0100
0011
0000
1001
0000
0101
,
0000
0000
2002
0000
3003
0000
0000
0000
0110
0000
0110
0000
0000
1000
0100
0010
,
0001
0000
1001
0000
0000
1000
0001
1000
0001
1000
0001
0010
0000
0000
1100
0000
,
0110
0000
1001
0000
0000
0000
0000
0000
0101
0000
1001
0000
0000
1000
0100
0010
,
0001
0000
1001
0000
0000
0001
0100
0001
0100
0001
0100
0010
0000
0000
0011
0000
,
1100
0000
1001
0000
0000
0000
0000
0000
1100
0000
1001
0000
0000
0001
0010
0100
,
1000
0000
1001
0000
0000
1000
0010
1000
0010
0100
0001
0100
0000
0000
0011
0000
,
1001
0000
1100
0000
0000
0000
0000
0000
1001
0000
1001
0000
0000
1000
0100
0010
,
0001
0000
1001
0000
0000
1000
0010
1000
0010
0100
0001
1000
0000
0000
1001
0000
,
0011
0000
1000
0100
0010
0001
1000
0010
0100
0000
0001
0000
1010
0000
1001
0000
,
1000
0100
0020
0000
0031
0100
1010
1001
,
0101
0010
2000
0000
3001
1001
1000
1010
,
0110
0100
1001
0000
0010
0010
0010
0010
,
1001
0000
1001
0000
0110
0000
0000
0000
1000
0100
0010
0001
1000
0010
1010
0000
,
0000
0000
0110
0000
0000
0000
0101
0000
0001
0010
0100
1000
0001
0010
1100
0000
,
0000
0000
1001
0000
0000
0000
0101
0000
1000
0010
0100
0001
1000
0010
0101
0000
,
0000
0000
1010
0000
0000
0000
1001
0000
0001
0010
0100
1000
0001
0010
1100
0000
,
0000
0000
1001
0000
0000
0000
0011
0000
1000
0100
0001
0100
1000
0100
1001
0000
,
0000
0000
0110
0000
0000
0000
1001
0000
0001
0100
1000
0100
0001
0100
1001
0000
,
0000
0000
0110
0000
0000
0000
1001
0000
1000
0100
0001
0100
1000
0100
1001
0000
,
0000
0000
0110
0000
0000
0000
1001
0000
1000
0010
0001
0010
1000
0010
1001
0000
,
0000
0101
0000
0000
0000
0000
0000
0000
;

//---------------dance-single - ----------------
#NOTES:
     dance-single:
     DDR X S-Expert:
     Hard:
     12:
     0.518,0.606,0.338,0.220,0.039,391.000,43.000,28.000,0.000,0.000,0.000,0.518,0.606,0.338,0.220,0.039,391.000,43.000,28.000,0.000,0.000,0.000: // measure 0
0000
0000
0000
0000
,  // measure 1
0010
0000
1001
0000
0100
0100
0100
0000
,  // measure 2
0010
0000
1001
0000
0100
0100
0100
0000
,  // measure 3
0010
0000
1001
0000
0100
0100
0100
0000
,  // measure 4
0010
0000
1001
0000
0100
0100
0100
0000
,  // measure 5
1000
0010
1000
0010
0000
1010
0000
0100
,  // measure 6
0001
0100
0001
0100
0000
0101
0000
0001
,  // measure 7
0010
0100
1000
0010
0000
1010
0000
1000
,  // measure 8
0100
0010
0002
0000
2003
0000
3002
0000
,  // measure 9
1003
0010
1000
0010
2000
0000
3001
0000
,  // measure 10
0001
0100
0010
1000
0002
0000
0013
0000
,  // measure 11
1000
0100
0010
0001
2000
0000
3010
0000
,  // measure 12
0001
0100
0010
0100
0001
0000
1010
0000
,  // measure 13
0001
0001
1000
1000
2002
0000
3003
0000
,  // measure 14
0000
0000
0020
0000
0000
2030
0000
0000
3002
0000
0000
0203
0000
0000
0320
0000
,  // measure 15
0000
0000
2030
0000
0000
3200
0000
0000
0320
0000
0000
0032
0000
0000
0203
0000
,  // measure 16
0000
0000
0302
0000
0000
2003
0000
0000
3020
0000
0000
0230
0000
0000
0320
0000
,  // measure 17
0000
0000
2030
0000
0000
3200
0000
0000
0320
0000
0000
0000
0031
0000
1000
0000
,  // measure 18
0010
1000
0100
0010
,  // measure 19
0100
1000
0001
0010
,  // measure 20
0100
0010
0001
0100
,  // measure 21
0010
1000
0100
0010
,  // measure 22
0100
1000
0001
0010
,  // measure 23
0100
0010
0001
0100
,  // measure 24
0010
1000
0100
0010
,  // measure 25
0100
1000
0001
0100
,  // measure 26
0010
0100
0001
1000
,  // measure 27
0100
0010
0100
1000
,  // measure 28
0001
0010
0100
1000
,  // measure 29
0001
0010
0100
0010
,  // measure 30
0001
0100
0010
1000
,  // measure 31
0100
0010
0100
1000
,  // measure 32
0001
0010
0100
1000
,  // measure 33
1001
0000
0000
0110
0000
0000
1001
0000
,  // measure 34
0100
0100
0010
0010
,  // measure 35
1000
1000
0001
0001
,  // measure 36
0100
0100
0001
0001
,  // measure 37
1000
1000
0010
0010
,  // measure 38
1000
0001
0001
1000
,  // measure 39
0010
0010
1000
0100
,  // measure 40
1000
0010
1000
0100
,  // measure 41
1000
0010
1000
0001
,  // measure 42
1000
0000
0011
0000
0100
0100
0100
0000
,  // measure 43
0001
0000
1010
0000
0100
0100
0100
0000
,  // measure 44
0010
0000
1100
0000
0001
0001
0001
0000
,  // measure 45
0100
0000
0011
0000
1000
1000
1000
0000
,  // measure 46
0001
0100
0010
1000
0000
0000
1001
0000
,  // measure 47
0100
0001
1000
0010
0000
0000
1001
0000
,  // measure 48
0001
0010
0100
0010
0000
0000
1001
0000
,  // measure 49
1000
0100
0010
0100
0000
0000
1001
0000
,  // measure 50
0100
0001
0100
0001
0000
0101
0000
0001
,  // measure 51
0010
0100
1000
0100
0000
1100
0000
1000
,  // measure 52
0100
0010
0001
0010
0000
0011
0000
0001
,  // measure 53
1000
0001
1000
0000
0001
0000
1000
0001
1000
0000
0001
0000
1000
0001
1000
0000
,  // measure 54
0001
0100
0010
0100
0000
0101
0000
0100
,  // measure 55
0001
0010
0100
1000
0000
1100
0000
1000
,  // measure 56
0100
0010
0001
0100
0000
0101
0000
1001
,  // measure 57
0000
2020
3030
0000
1000
0100
0000
1000
,  // measure 58
0010
1000
0000
0001
0100
0001
0000
1000
,  // measure 59
0010
0100
0000
0000
0001
0010
0000
0010
,  // measure 60
0001
0010
0000
0100
1000
0100
0000
1000
,  // measure 61
0010
1000
0000
0000
0010
1000
0000
1000
,  // measure 62
0010
1000
0000
0010
1000
0010
0000
0100
,  // measure 63
0001
0100
0000
0000
0001
0100
0000
0100
,  // measure 64
0001
0100
0000
0001
0100
0001
0000
1000
,  // measure 65
0010
1000
0010
1000
0001
0000
0101
0000
,  // measure 66
1000
0010
1000
0000
0100
0000
1010
0000
,  // measure 67
0001
1000
0001
0000
1000
0000
0011
0000
,  // measure 68
1000
0010
0100
0000
0001
1000
0010
0100
,  // measure 69
0010
1000
0100
0010
0001
1000
0010
1000
,  // measure 70
0000
1010
0000
0010
0100
0010
0100
0010
,  // measure 71
0000
0110
0000
0100
0001
0100
0001
0100
,  // measure 72
0000
0101
0000
0001
1000
0010
1000
0010
,  // measure 73
0000
1010
0000
1000
0100
0010
0100
1100
,  // measure 74
0000
0011
0000
0001
0010
0100
1000
1100
,  // measure 75
0000
0011
0000
1000
0100
0010
0001
0011
,  // measure 76
0000
1100
0000
0001
0010
0100
1000
1100
,  // measure 77
0000
0101
0000
0000
0000
0000
0000
0000
;

//---------------dance-double - ----------------
#NOTES:
     dance-double:
     DDR X D-Expert:
     Hard:
     13:
     0.570,0.606,0.479,0.267,0.071,413.000,61.000,34.000,0.000,0.000,0.000,0.570,0.606,0.479,0.267,0.071,413.000,61.000,34.000,0.000,0.000,0.000:
00000000
00000000
00000000
00000000
,
00010000
00000000
00100000
00001000
00000000
00100000
00001000
00000000
00020000
00000000
00000000
00000000
00030100
00000000
00000000
00000000
,
00001000
00000000
00000100
00010000
00000000
00000100
00010000
00000000
00001000
00000000
00100000
00000000
00020000
00000000
00000000
00000000
,
10030000
00000000
00100000
10000000
00000000
00100000
10000000
00000000
00020000
00000000
00000000
00000000
01030000
00000000
00000000
00000000
,
00001000
00000000
00010000
00000100
00000000
00010000
00000100
00000000
00001000
00000000
00000100
00000000
00000020
00000000
00000000
00000000
,
00000031
00000100
00000010
00001000
00000000
00001100
00000000
00000100
,
00010000
00001000
00100000
00010000
00000000
01010000
00000000
10000000
,
00100000
01000000
00010000
00100000
00000000
10010000
00000000
01000000
,
00002000
00023000
00030200
00002300
,
00003010
00000100
00000001
00001000
00000010
00000000
00001001
00000000
,
00000100
00001000
00000010
00000100
00000001
00000010
00000200
00000000
,
00001300
00000100
00010000
00001000
00100000
00000000
00010100
00000000
,
00001000
00100000
00010000
01000000
00100000
00000000
10010000
00000000
,
01000000
00100000
00100000
01000000
02000000
00000000
03000000
00000000
,
00000000
00000000
00200000
00000000
00000000
20300000
00000000
00000000
30020000
00000000
00000000
02030000
00000000
00000000
03002000
00000000
,
00000000
00000000
00023000
00000000
00000000
00030200
00000000
00000000
00002300
00000000
00000000
00003200
00000000
00000000
00020300
00000000
,
00000000
00000000
00032000
00000000
00000000
00023000
00000000
00000000
00030200
00000000
00000000
00002300
00000000
00000000
00003020
00000000
,
00000000
00000000
00000230
00000000
00000000
00000302
00000000
00000000
00000013
00000000
00000100
00000000
00001000
00000000
00000001
00000000
,
00000100
00000000
00001100
00000000
00000000
00010100
00000000
00000000
,
00101000
00000000
00000000
01001000
00000000
00000000
10010000
00000000
,
00000000
00000000
00110000
00000000
00000000
01001000
00000000
00000000
,
00010100
00000000
00000000
00000110
00000000
00000000
00000011
00000000
,
00000000
00000000
00001010
00000000
00000000
00001100
00000000
00000000
,
00010100
00000000
00000000
00101000
00000000
00000000
01010000
00000000
,
00000000
00000000
10100000
00000000
00000000
01010000
00000000
00000000
,
00101000
00000000
00000000
00010100
00000000
00000000
00001010
00000000
,
00000001
00000000
00000100
00000000
00000001
00000100
00000001
00000000
,
00001000
00000000
00000010
00000000
00001000
00000010
00001000
00000000
,
00000100
00000000
00010000
00000000
00000100
00010000
00000100
00000000
,
00100000
00000000
00001000
00000000
00100000
00001000
00100000
00000000
,
00001000
00000000
01000000
00000000
00001000
01000000
00001000
00000000
,
01000000
00000000
00010000
00000000
01000000
00010000
01000000
00000000
,
00001000
00000000
00100000
00000000
00001000
00100000
00001000
00000000
,
00101000
00000000
00000000
00010100
00000000
00000000
00001001
00000000
,
00000010
00001000
00000100
00000010
,
00000001
00000010
00000100
00001000
,
00000100
00100000
00001000
00010000
,
00001000
00100000
00010000
01000000
,
00100000
10000000
10000000
00010000
,
10000000
10000000
00001000
01000000
,
00001000
00010000
00001000
00100000
,
00001000
00010000
00001000
00001000
,
00100000
00000000
00011000
00000000
00100000
00100000
00100000
00000000
,
00000010
00000000
00011000
00000000
00000010
00000010
00000010
00000000
,
00100000
00001000
00100000
00000000
00000100
00010000
00000100
00000000
,
00002000
00003020
00000230
00000302
,
00001003
00000001
00000100
00000010
00001000
00000000
00001001
00000000
,
00000010
00010000
00000100
00010000
00000010
00000000
00010010
00000000
,
00001000
00100000
00010000
01000000
00100000
00000000
01010000
00000000
,
10000000
01000000
00100000
00010000
00100000
01000000
20000000
00000000
,
30010000
01000000
00010000
01000000
00000000
01010000
00000000
00100000
,
00001000
00100000
00001000
00010000
00000000
00010100
00000000
00001000
,
00000100
00000010
00000001
00001000
00000000
00001010
00000000
00000100
,
00000001
00000100
00000001
00000000
00000100
00000000
00000001
00000100
00000001
00000000
00000100
00000000
00000001
00000100
00000001
00000000
,
00001000
00000100
00000010
00000100
00000000
00010100
00000000
00001000
,
00100000
00010000
01000000
00010000
00000000
10010000
00000000
10000000
,
00100000
01000000
00010000
00100000
00000000
00101000
00000000
00010100
,
00000000
00022000
00033000
00000000
00110000
00110000
00000000
00100000
,
00010000
00100000
00000000
00001000
00100000
00001000
00000000
00010000
,
00010100
00010100
00000000
00000000
00000100
00001100
00000000
00010000
,
00001000
00010000
00000000
00000100
00001000
00000100
00000000
00010000
,
00010010
00010010
00001000
00000000
00000010
00000100
00000000
00000100
,
00000001
00000100
00000000
00000001
00000100
00000001
00000000
00000100
,
00001001
00001001
00000000
00000000
00000010
00010000
00000000
00010000
,
00000100
00010000
00000000
00001000
00010000
00001000
00000000
00100000
,
00101000
00101000
00010000
00010000
01000000
01000000
00010000
00010000
,
01000000
01000000
00001000
00001000
00010000
00010000
00000100
00000100
,
00001000
00001000
00000010
00000010
00000100
00000100
00000001
00000001
,
00000010
00000010
00000100
00000100
00001000
00001000
00010000
00010000
,
00100000
00100000
10000000
10000000
00010000
01000000
00010000
00100000
,
00000000
00101000
00000000
00010000
00001000
00000100
00000001
00000100
,
00000000
00001100
00000000
00000100
00010000
00100000
10000000
00100000
,
00000000
00101000
00000000
00010000
00001000
00000010
00000001
00000010
,
00000000
00001010
00000000
00000100
00010000
00100000
10000000
00100000
,
00000000
10010000
00000000
00100000
00001000
00000100
00000001
00000100
,
00000000
00001001
00000000
00001000
00010000
00100000
10000000
00100000
,
00000000
10010000
00000000
00010000
00001000
00000010
00000001
00000010
,
00000000
00001001
00000000
00000000
00000000
00000000
00000000
00000000
;
