#TITLE:ELECTRIC MASSIVE DIVER;
#SUBTITLE:;
#ARTIST:L.E.D.-G;
#TITLETRANSLIT:;
#SUBTITLETRANSLIT:;
#ARTISTTRANSLIT:;
#GENRE:Gabba;
#CREDIT:;
#BANNER:;
#BACKGROUND:;
#LYRICSPATH:;
#CDTITLE:;
#MUSIC:ELECTRIC MASSIVE DIVER.ogg;
#OFFSET:0.000000;
#SAMPLESTART:35.028511;
#SAMPLELENGTH:17.999998;
#LASTBEATHINT:404.000000;
#SELECTABLE:YES;
#BPMS:0.000000=178.000000
;
#STOPS:100.000000=1.348312
;
#DELAYS:;
#TIMESIGNATURES:0.000000=4=4
;
#TICKCOUNTS:0.000000=2
;
#BGCHANGES:;
#KEYSOUNDS:;
#ATTACKS:;

//---------------dance-double - DDR X D-Expert----------------
#NOTES:
     dance-double:
     DDR X D-Expert:
     Hard:
     14:
     0.691,0.800,1.000,0.182,0.076,483.000,157.000,25.000,0.000,0.000,0.000,0.000,0.691,0.800,1.000,0.182,0.076,483.000,157.000,25.000,0.000,0.000,0.000,0.000:
00000000
00000000
00000000
00000000
,
00000000
00000000
00000000
00000000
,
00000000
00000000
00000000
00000000
,
00000000
00000000
00000000
00000000
,
00000000
00000000
00000000
00000000
,
00000000
00000000
00000000
00000000
,
00000000
00000000
00000000
00000000
,
00000000
00000000
00000000
00000000
,
00000000
00000000
00000000
00000000
,
00001000
00001000
00001000
00001000
,
00001000
00001000
00001000
00001000
,
00001000
00001000
00001000
00001000
,
00001000
00000000
00000000
00000000
00001000
00000000
00000000
00000000
00001000
00000000
00001000
00000000
00000000
00000000
00001000
00010000
,
00001000
00010000
00100000
10000000
00100000
00010000
01000000
00001000
,
00000100
00000001
00000100
00010000
01000000
00010000
00000100
00001000
,
00000010
00000100
00000001
00000010
00000100
00001000
00010000
00100000
,
20200000
00000000
00000000
30300000
,
00000000
01010000
00000000
00101000
00000000
00010100
00000000
00001010
,
00000000
00000101
00000000
00001001
00000000
00101000
00000000
01001000
,
00000000
01010000
00000000
01010000
00000000
00101000
00000000
00010010
,
00000000
00001001
00000000
00000101
00000000
00001010
00000000
00010100
,
00000000
01010000
00000000
01010000
00000000
01010000
00000000
01010000
,
00000000
10100000
00000000
11000000
00000000
00110000
00000000
00011000
,
00000000
00001100
00000000
00000110
00000000
00000011
00000000
00001001
,
00000000
00010010
00000000
00100010
00000000
01000100
00000000
00101000
,
00000000
01000000
00010000
10000000
00100000
01000000
00010000
00001000
,
00010000
00100000
00000100
00010000
00000010
00001000
00000010
00000100
,
00000001
00000010
00000100
00001000
00010000
00001000
00000100
00100000
,
00010000
01000000
00100000
10000000
01000000
00100000
00010000
00001000
,
00010000
00100000
00001000
00010000
00000100
00001000
00000010
00000100
,
00000001
00001000
00010000
00001000
00000010
00000100
00000010
00001000
,
00000100
00010000
00001000
00100000
00010000
01000000
00100000
10000000
,
01000000
00100000
00010000
00100000
00001000
00010000
00000100
00001000
,
00001010
00000101
00001010
00010100
,
00101000
00000000
01010000
00000000
10100000
00000000
00101000
00010000
,
00110000
00001000
01001000
00000000
10010000
00000000
10100000
00000000
,
01010000
00000000
00101000
00000000
00001010
00000100
00001001
00000100
,
00001100
00001100
00001100
00000000
00010100
00000000
00101000
00101000
,
00101000
01010000
10010000
01001000
,
00100010
00000000
00010010
00000000
00001001
00000000
00010100
00000100
,
01000100
00000000
00000000
00000000
00000000
00000000
00011000
00100000
,
01010000
10100000
01010000
00101000
,
00010100
00001010
00000101
00001001
,
00000110
00001100
00010100
00101000
,
01010000
00000000
00000000
00000000
00101000
00000000
00000000
00000000
00001100
00000000
00000000
00010010
00000000
00000000
00001001
00000000
,
00010010
00001100
00001001
00000101
,
00000011
00001010
00101000
10010000
,
01010000
00101000
00010100
00101000
,
00110000
10010000
02200000
03300000
,
10010000
01000000
10010000
00000000
00110000
00000000
00011000
00000100
,
00001100
00001001
00000110
00001100
,
00101000
00011000
01010000
10100000
,
10010000
00000000
01100000
00000000
10010000
01000000
01010000
00100000
,
00101000
00010100
00001010
00001001
,
00000101
00000000
00001010
00000000
00010100
00000000
00101000
00100000
,
01010000
10100000
01010000
01001000
,
00022000
00000000
00000000
00000000
00000000
00033000
01000100
01000100
,
00011000
00000000
00000000
00000010
00001000
00000000
00000100
00000000
00010000
00000000
00000000
00001000
00010000
00000000
00100000
00000000
,
10000000
00000000
00000000
00100000
00010000
00000000
00100000
00000000
10000000
00000000
00000000
10000000
01000000
00000000
00010000
00000000
,
01000000
00000000
01000000
00000000
00010000
00000000
00100000
00000000
00001000
00000000
00000000
00010000
00001000
00000000
00100000
00000000
,
00000100
00000000
00000000
00001000
00000100
00000000
00000001
00000000
00000100
00000000
00000000
00001000
00000010
00000000
00000100
00000000
,
00001001
00000010
00000010
00000010
,
00001001
00000100
00000100
00000100
,
00001001
00000010
00000010
00000010
,
00001001
00010100
00002200
00003300
,
00002001
00003100
00010200
00001300
,
00201000
00000000
00310000
00000000
01020000
00000000
10030000
10000000
,
20010000
00010000
30100000
00000000
01020000
00000000
00130000
00000000
,
00021000
00000000
00030100
00000000
00001020
00000000
00000130
00000100
,
00000102
00001003
00002010
00003100
,
00010200
02000300
03020000
00130000
,
10010000
01000000
00100000
00010000
10000000
01000000
00100000
00010000
,
10000000
01000000
00100000
10000000
01000000
00100000
10000000
01000000
,
00200000
00000000
00000000
00000000
,
00000000
00000000
00300000
00000000
,
00000000
00000000
00000000
00000000
,
00000020
00000000
00000000
00000030
,
00001001
00000100
00000100
00000100
,
00001001
00000010
00000010
00000010
,
00000001
00000010
00000100
00001000
00000001
00000010
00000100
00001000
,
00000001
00000010
00000100
00000001
00000010
00000100
00000001
00000010
,
00000200
00000000
00000000
00000000
,
00000000
00000000
00000000
00000000
,
00001300
00000010
00000100
00000001
00000010
00001000
00000010
00000001
,
00000100
00000000
00000010
00000000
00001000
00000000
00010000
00000000
00001000
00000000
00000000
00000010
00000000
00000000
00000001
00000100
,
00000001
00001000
00001010
00000000
00000100
00010000
00001000
00100000
,
00010000
00000000
01000000
00000000
10000000
00000000
01000000
00000000
00010000
00000000
00000000
00110000
00000000
00000000
10010000
00000000
,
01000000
01000000
01000000
00000000
00100000
10000000
01000000
00100000
,
00001000
00000000
00100000
00000000
01000000
00000000
10000000
00000000
00001000
00000000
00100000
00001000
00000000
00000000
00010000
00001000
,
00010000
00000100
00001000
00000010
00000100
00000001
00000010
00000100
,
00001000
00000000
00001000
00000000
00001000
00000000
00000000
00000000
00000001
00000000
00000001
00000000
00001000
00000010
00001000
00000010
,
00001000
00001000
00001000
00000000
00000001
00001000
00000100
00010000
,
00000010
00000000
00001000
00000000
00000100
00000000
00100000
00000000
00010000
00000000
00000000
00100000
00010000
00000000
00000000
00010000
,
10000000
10000000
10000000
00000000
00010000
01000000
00001000
00100000
,
00001000
00000000
00100000
00000000
00010000
00000000
01000000
00000000
10100000
00000000
00000000
10010000
00000000
00000000
01010000
00000000
,
00001000
00001000
00001000
00000000
00011000
00000000
00010000
00010000
,
00010000
00000000
00000000
00000000
00010100
00000000
00000000
00000000
00001000
00000000
00000000
00001000
00000100
00000000
00001000
00000001
,
00001000
00001000
00001000
00001000
00000010
00000010
00000010
00000010
,
00001000
00000100
00000010
00001000
00000100
00000010
00001000
00000100
,
00000020
00000000
00000000
00000000
,
00000030
00000000
00000000
00000000
;

//---------------dance-single - DDR X S-Expert----------------
#NOTES:
     dance-single:
     DDR X S-Expert:
     Hard:
     13:
     0.605,0.691,0.786,0.102,0.131,460.000,108.000,14.000,0.000,0.000,0.000,0.000,0.605,0.691,0.786,0.102,0.131,460.000,108.000,14.000,0.000,0.000,0.000,0.000: // measure 1
0000
0000
0000
0000
,  // measure 2
0000
0000
0000
0000
,  // measure 3
0000
0000
0000
0000
,  // measure 4
0000
0000
0000
0000
,  // measure 5
0000
0000
0000
0000
,  // measure 6
0000
0000
0000
0000
,  // measure 7
0000
0000
0000
0000
,  // measure 8
0000
0000
0000
0000
,  // measure 9
0000
0000
0000
0000
,  // measure 10
0100
0100
0100
0100
,  // measure 11
0100
0100
0100
0100
,  // measure 12
0100
0100
0100
0100
,  // measure 13
0100
0000
0000
0000
0100
0000
0000
0000
0100
0000
0100
0000
0000
0000
0100
1000
,  // measure 14
0100
0100
0100
0100
1000
1000
1000
1000
,  // measure 15
0001
0001
0001
0001
0010
0010
0010
0010
,  // measure 16
1100
0011
1001
0110
,  // measure 17
2002
0000
0000
3003
,  // measure 18
0000
1000
0000
0001
0000
0010
0000
0100
,  // measure 19
0000
1010
0000
0110
0000
0101
0000
1001
,  // measure 20
0000
0010
0000
0010
0000
0100
0000
0100
,  // measure 21
0000
0101
0000
1010
0000
1001
0000
0011
,  // measure 22
0000
1000
0000
1000
0000
1000
0000
1000
,  // measure 23
0000
0101
0000
0011
0000
0110
0000
1100
,  // measure 24
0000
0001
0000
0001
0000
0001
0000
0001
,  // measure 25
0000
1001
0000
0110
0000
1100
0000
0022
,  // measure 26
0033
1000
0100
0000
1000
0001
0100
0000
,  // measure 27
0011
0100
1000
0001
0100
0010
1000
0000
,  // measure 28
0001
0010
1000
0000
0001
0100
1000
0000
,  // measure 29
0001
0100
0010
0100
0001
0100
1001
0000
,  // measure 30
1001
0010
1001
0000
0110
0000
0100
0001
,  // measure 31
0101
0000
1001
0000
1010
0010
0110
0000
,  // measure 32
0101
0001
1001
0000
1001
1000
1010
0000
,  // measure 33
0110
0100
0101
0000
1000
0100
0001
0100
,  // measure 34
1000
1000
1000
1000
,  // measure 35
1000
0000
1000
0000
1000
0000
1000
1000
,  // measure 36
0001
0100
0101
0000
1010
0000
1001
0000
,  // measure 37
0010
1000
0010
1000
0001
0100
0001
0000
,  // measure 38
0100
0100
0100
0000
1010
0000
1001
0001
,  // measure 39
0001
1010
1001
0101
,  // measure 40
1010
0000
0110
0000
0011
0000
0010
0010
,  // measure 41
2002
0000
0000
0000
3003
0000
0010
0010
,  // measure 42
0101
1100
0101
1100
,  // measure 43
1010
0011
1010
0011
,  // measure 44
1010
0110
0101
1010
,  // measure 45
1001
0000
0000
0000
0110
0000
0000
0000
0101
0000
0000
1010
0000
0000
1001
0000
,  // measure 46
0100
0100
0100
0100
,  // measure 47
0100
0100
0100
0100
,  // measure 48
0010
0010
0010
0010
,  // measure 49
0010
0010
0020
0030
,  // measure 50
1000
0100
0001
0000
0100
0000
0001
0010
,  // measure 51
1000
0010
0001
0000
1010
0000
0101
0000
,  // measure 52
1001
0110
1010
0011
,  // measure 53
0101
0000
1100
0000
0010
0010
0010
0010
,  // measure 54
1001
0110
1100
0011
,  // measure 55
0101
0000
1010
0000
1001
0000
0100
0100
,  // measure 56
0101
0010
1001
0100
,  // measure 57
0022
0000
0000
0000
0033
0000
0100
0100
,  // measure 58
1001
0000
0000
0010
0000
0000
1000
0000
0001
0000
0000
0100
0000
0000
0001
0000
,  // measure 59
0010
0000
0000
1000
0000
0000
0010
0000
0001
0000
0000
1000
0000
0000
0100
0000
,  // measure 60
1000
0000
1000
0000
1000
0000
0000
0000
0001
0000
0000
0100
0000
0000
0010
0000
,  // measure 61
1000
0000
0000
0001
0000
0000
0010
0000
1000
0000
0000
0010
0000
0000
0100
0000
,  // measure 62
1001
0000
0000
0100
0000
0000
0001
0000
1000
0000
0000
0010
0000
0000
0100
0000
,  // measure 63
0110
0000
0000
1000
0000
0000
0100
0000
1000
0000
0000
0001
0000
0000
0100
0000
,  // measure 64
1001
0000
0000
0100
0000
0000
0001
0000
1001
0000
0000
0100
0000
0000
1000
0000
,  // measure 65
1001
0110
2002
3003
,  // measure 66
0010
0000
0000
1000
0000
0000
0001
0000
0100
0000
0000
0001
0000
0000
0010
0000
,  // measure 67
0100
0000
0000
1000
0000
0000
0001
0000
0100
0000
0000
0001
0000
0000
1000
0000
,  // measure 68
0010
0000
0010
0000
0010
0000
0000
0000
1000
0000
0000
0001
0000
0000
0100
0000
,  // measure 69
0001
0000
0000
0010
0000
0000
0100
0000
1000
0000
0000
0001
0000
0000
0100
0000
,  // measure 70
1001
0000
0000
0010
0000
0000
1000
0000
0001
0000
0000
0100
0000
0000
0001
0000
,  // measure 71
1001
0000
0000
0010
0000
0000
1000
0000
0100
0000
0000
1000
0000
0000
0010
0000
,  // measure 72
1000
0100
0010
0001
1000
0100
0010
0001
,  // measure 73
1000
0100
0010
1000
0100
0010
1000
0100
,  // measure 74
0020
0000
0000
0000
,  // measure 75
0000
0000
0000
0000
0000
0030
0000
0000
,  // measure 76
0000
0000
0000
0000
,  // measure 77
0000
0000
0000
0000
,  // measure 78
0011
1100
0101
1010
,  // measure 79
1001
0011
1100
0110
,  // measure 80
0001
0010
0100
1000
0001
0010
0100
1000
,  // measure 81
0001
0010
1000
0001
0010
1000
0001
0010
,  // measure 82
2000
0000
0000
0000
,  // measure 83
0000
0000
0000
3000
,  // measure 84
0010
1000
0010
1000
0001
0100
0001
0100
,  // measure 85
1000
0000
0100
0000
1000
0000
0100
0000
0001
0000
0000
0010
0001
0000
0010
0001
,  // measure 86
0010
0001
0010
0001
1000
0010
1000
0010
,  // measure 87
0100
0000
0001
0000
0100
0000
0001
0000
1000
0000
0000
1010
0000
0000
0100
0000
,  // measure 88
0001
1000
0100
0010
0100
1000
0001
0100
,  // measure 89
0010
0000
0000
0000
1000
0000
0000
0000
0001
0000
0000
1000
0100
0000
0000
0000
,  // measure 90
1010
0101
1001
0011
,  // measure 91
1000
0000
1000
0000
1000
0000
0000
0000
0110
0000
1000
0000
0001
1000
0001
1000
,  // measure 92
0001
0100
0100
0000
0010
0000
1000
0000
,  // measure 93
0001
0000
0000
0000
0010
0000
0000
0000
0100
0000
0000
0100
1000
0000
0000
1000
,  // measure 94
0001
1000
0001
0000
0100
0000
0001
0000
,  // measure 95
1000
0000
0000
0000
0010
0000
0000
0000
0100
0000
0000
0100
0010
0000
0001
0000
,  // measure 96
1000
0001
0100
0000
0001
0000
1000
0001
,  // measure 97
0110
0000
0000
0000
1000
0000
0000
0000
0001
0000
0000
1000
0010
0000
1000
0000
,  // measure 98
0001
0100
0010
1000
0001
0100
0010
1000
,  // measure 99
0001
0100
0010
0001
0100
0010
0001
0100
,  // measure 100
0020
0000
0000
0000
,  // measure 101
0030
0000
0000
0000
;
