#TITLE:Apocalypse ~Dirge of Swans~ (DDR Version);
#SUBTITLE:;
#ARTIST:Zektbach;
#TITLETRANSLIT:;
#SUBTITLETRANSLIT:;
#ARTISTTRANSLIT:;
#GENRE:Oratario;
#CREDIT:;
#BANNER:;
#BACKGROUND:Apocalypse ~Dirge of Swans~-bg.png;
#LYRICSPATH:;
#CDTITLE:;
#MUSIC:Apocalypse ~Dirge of Swans~ (DDR Version).ogg;
#OFFSET:0.000000;
#SAMPLESTART:39.521782;
#SAMPLELENGTH:18.000002;
#LASTBEATHINT:332.000000;
#SELECTABLE:YES;
#BPMS:0.000000=170.000000
;
#STOPS:;
#DELAYS:;
#TIMESIGNATURES:0.000000=4=4
;
#TICKCOUNTS:0.000000=2
;
#BGCHANGES:;
#KEYSOUNDS:;
#ATTACKS:;

//---------------dance-single - DDR X Expert----------------
#NOTES:
     dance-single:
     DDR X Expert:
     Hard:
     16:
     0.820,1.000,0.500,0.229,0.672,612.000,61.000,28.000,0.000,0.000,0.000,0.000,0.820,1.000,0.500,0.229,0.672,612.000,61.000,28.000,0.000,0.000,0.000,0.000: // measure 1
0000
0000
0000
0000
,  // measure 2
0000
0000
0000
0000
,  // measure 3
0000
0000
0000
0000
,  // measure 4
0000
0000
0000
0000
,  // measure 5
0010
0000
0100
0010
0100
0000
1001
0000
,  // measure 6
0100
0000
0010
0100
0010
0000
1001
0000
,  // measure 7
0010
0000
0001
0010
0001
0000
0110
0000
,  // measure 8
0100
0000
1000
0100
1000
0000
0110
0000
,  // measure 9
1001
0101
0000
0000
1001
1100
0000
0000
,  // measure 10
1001
0011
0000
0000
1001
1010
0000
0000
,  // measure 11
1001
0101
0000
0000
1001
1100
0000
0000
,  // measure 12
1001
0011
0000
0000
1001
1010
0000
0000
,  // measure 13
0010
0000
1000
0100
0010
0000
0001
0000
,  // measure 14
1000
0000
0001
0100
0010
0000
1000
0000
,  // measure 15
0001
0000
1000
0010
1000
0000
0001
0000
,  // measure 16
0100
0000
0001
0010
0100
1000
0001
0100
,  // measure 17
0010
0000
1000
0001
0100
0000
0001
0000
,  // measure 18
1000
0000
0010
1000
0100
0000
1000
0000
,  // measure 19
0001
0000
0100
0001
0010
0000
0001
0000
,  // measure 20
1000
0000
0010
1000
0100
1000
0001
1000
,  // measure 21
0010
0000
1001
0001
0100
0000
0001
0000
,  // measure 22
1001
0000
0001
0110
0100
0000
1000
0000
,  // measure 23
1001
0000
0110
0100
0001
0000
1000
0000
,  // measure 24
1001
0000
0010
0110
1000
0000
0001
0000
,  // measure 25
1100
0000
0011
0001
1000
0000
1001
0000
,  // measure 26
0110
0000
1000
0011
0001
0000
0110
0000
,  // measure 27
1000
0100
1000
0000
0001
0000
0100
0000
0001
0010
0001
0000
1000
0000
0100
0000
,  // measure 28
0010
0001
0010
0001
0010
0001
0010
0001
1000
0100
1000
0100
1000
0100
1000
0100
,  // measure 29
1000
0000
0010
0000
0100
0010
0100
0000
0001
0000
1000
0000
0100
1000
0100
0000
,  // measure 30
1000
0000
0001
0000
0100
0001
0100
0000
0001
0000
1000
0000
0010
1000
0010
0000
,  // measure 31
1000
0000
0100
0000
0010
0001
0010
0000
0001
0000
0100
0000
0001
1000
0001
0000
,  // measure 32
1000
0000
0100
0000
0010
0001
0010
0000
0001
0000
0100
0000
0010
1000
0010
0000
,  // measure 33
1000
0000
0001
0000
0100
0001
1000
0000
0001
0000
1000
0000
0010
1000
0001
0000
,  // measure 34
1000
0000
0100
0000
0010
0001
0100
0000
0001
0000
0010
0000
0100
1000
0010
0000
,  // measure 35
1000
0000
0100
0000
0001
0100
1000
0000
0001
0000
0010
0000
1000
0010
0001
0000
,  // measure 36
1000
0000
0100
0000
0001
0100
1000
0000
0001
0000
0010
0000
1000
0010
0001
0000
,  // measure 37
1000
0100
0010
0100
1000
0000
0001
0000
1000
0100
0010
0100
1000
0000
0001
0000
,  // measure 38
1000
0100
0010
0100
1000
0000
0001
0000
1000
0100
0010
0100
1000
0000
1000
0000
,  // measure 39
0001
0010
0100
0010
0001
0000
1000
0000
0001
0010
0100
0010
0001
0000
1000
0000
,  // measure 40
0001
0010
0100
0010
0001
0000
1000
0000
0001
0010
0100
0010
0001
0000
1000
0000
,  // measure 41
0001
0100
0001
0000
1000
0010
0100
0000
0001
1000
0001
0000
1000
0100
0010
0000
,  // measure 42
0001
0100
0001
0000
1000
0010
1000
0000
0001
0010
0100
0000
1000
0001
1000
0000
,  // measure 43
0001
0100
0010
0100
0001
0010
0001
1000
0100
1000
0001
0100
0010
0100
0001
1000
,  // measure 44
0100
0010
0100
1000
0001
0100
0010
0100
0001
1000
0100
0010
0001
1000
0010
1000
,  // measure 45
1001
0011
0000
0000
1001
1010
0000
0000
,  // measure 46
1001
0101
0000
0000
1001
1100
0000
0000
,  // measure 47
1001
0011
0000
0000
1001
1010
0000
0000
,  // measure 48
1001
0101
0000
0000
1001
1100
0000
0000
,  // measure 49
0011
0000
0100
0100
0101
0000
1001
0000
,  // measure 50
1010
0000
0010
0010
0110
0000
0101
0000
,  // measure 51
1001
0000
0010
0010
1010
0000
1001
0000
,  // measure 52
0101
0000
0000
0000
0010
0000
0010
0000
1001
0000
0000
0000
1000
0100
0010
0001
,  // measure 53
1000
0000
0000
0000
0001
0010
0100
1000
0001
0000
0000
0000
1000
0100
0010
0001
,  // measure 54
1000
0000
0000
0000
0001
0010
0100
1000
0001
0000
0000
0000
1000
0100
0010
0001
,  // measure 55
1000
0000
0000
0000
0001
0010
0100
1000
0001
0000
0000
0000
1000
0100
0010
0001
,  // measure 56
1000
0000
0000
0000
0001
0100
0010
0100
0001
0000
0000
0000
1000
0100
0010
0100
,  // measure 57
2000
0000
0002
3000
,  // measure 58
0200
0003
0020
0300
,  // measure 59
2000
0030
0002
3000
,  // measure 60
0020
0003
2000
0030
,  // measure 61
0020
3000
0002
0030
,  // measure 62
0200
0003
0320
2030
,  // measure 63
3002
0000
0203
0302
,  // measure 64
2003
0000
0000
0000
0000
0000
0000
0000
3010
1000
0010
1000
0010
1000
0010
0000
,  // measure 65
1000
0100
1000
0000
0001
0100
0001
0000
1000
0010
1000
0000
0001
0010
0001
0000
,  // measure 66
1000
0100
1000
0000
0001
0100
0001
0000
1000
0010
1000
0000
0001
0010
0001
0000
,  // measure 67
1000
0001
1000
0000
0001
0010
0001
0000
1000
0100
0010
0000
0001
1000
0010
0000
,  // measure 68
1000
0100
1000
0100
1000
0100
1000
0100
0010
0001
0010
0001
0010
0001
0010
0000
,  // measure 69
0001
0100
0001
0000
1000
0010
1000
0000
0001
0010
0001
0000
1000
0100
0010
0000
,  // measure 70
0001
0010
0100
0000
1000
0001
1000
0000
0001
0010
0100
0000
1000
0001
1000
0000
,  // measure 71
0001
0100
0010
0000
1000
0100
0010
0000
0001
1000
0001
0000
1000
0010
1000
0000
,  // measure 72
0001
0100
0010
0100
0001
1000
0100
0010
0100
1000
0001
0010
0100
0010
0001
1000
,  // measure 73
0020
0000
0000
0000
1030
0100
0010
0100
1000
0001
0010
0100
0010
0001
1000
0010
,  // measure 74
2000
0000
0000
0000
3001
0010
0100
0010
0001
1000
0010
0100
0001
1000
0100
0010
,  // measure 75
0002
0000
0000
0000
1003
0100
0010
0100
1000
0001
0010
0100
0010
0001
1000
0010
,  // measure 76
2000
0000
0000
0000
3001
0100
0010
0100
0001
1000
0100
0010
0100
1000
0001
0100
,  // measure 77
0020
0000
0000
0000
1030
0100
0010
0100
1000
0001
0010
0100
1000
0100
0010
0100
,  // measure 78
1000
0001
0100
0010
0100
0001
1000
0100
0010
0100
1000
0001
0010
0100
1000
0001
,  // measure 79
2000
0000
0200
3000
,  // measure 80
0020
0300
0002
0033
,  // measure 81
0220
0000
0000
0000
,  // measure 82
0000
0000
0000
0000
,  // measure 83
0000
0000
0000
0000
0000
0000
0000
0330
;

//---------------dance-single - DDR X Challenge----------------
#NOTES:
     dance-single:
     DDR X Challenge:
     Challenge:
     18:
     0.921,1.000,0.696,0.082,0.852,692.000,85.000,10.000,0.000,0.000,0.000,0.000,0.921,1.000,0.696,0.082,0.852,692.000,85.000,10.000,0.000,0.000,0.000,0.000:
0000
0000
0000
0000
,
0000
0000
0000
0000
,
0000
0000
0000
0000
,
0000
0000
0000
0000
,
0011
0000
1000
0100
1000
0100
0011
0000
,
1100
0000
0001
0010
0001
0010
1100
0000
,
0101
0000
1000
0010
1000
0010
0101
0000
,
1010
0000
0100
0001
0100
0001
1010
0000
,
1001
0000
0011
0000
0000
0000
0000
0000
1001
0000
1010
0000
1000
0001
1000
0001
,
0011
0000
1001
0000
0000
0000
0000
0000
1100
0000
1001
0000
1000
0100
1000
0100
,
1100
0000
1001
0000
0000
0000
0000
0000
0011
0000
1001
0000
0001
0100
0001
0100
,
0101
1001
0000
0000
1010
0101
0000
0000
,
1100
0000
0011
0000
1000
0100
1000
0100
,
0011
0000
0101
0000
0010
1000
0010
1000
,
0101
0000
1100
0000
0001
0010
0100
1000
,
1001
0000
0010
1010
0001
0100
0001
1000
,
1001
0000
0010
1000
1001
0100
0010
1000
,
0011
0000
0001
0110
1000
0100
0010
0001
,
1001
0000
0010
1000
0010
0100
0010
1000
,
1001
0000
0010
1100
1000
0001
0100
0001
,
1001
0000
0011
0010
0100
1000
0001
0100
,
0101
0000
0001
1010
0010
1000
0001
0100
,
1001
0000
1100
1000
0001
0100
0010
1000
,
1001
0000
0001
0011
1000
0100
0010
0100
,
1001
0000
0110
1000
0001
0100
0010
0100
,
1001
0000
0010
1100
1000
0001
0100
0010
,
1000
0100
0010
0100
1000
0001
0010
0100
0010
0001
0100
0010
0100
0001
1000
0100
,
0010
0001
0010
0100
1000
0001
0100
0010
0100
0001
1000
0010
0100
0010
1000
0000
,
0001
0100
0001
0000
1000
0010
0100
0000
0100
0010
1000
0000
0001
0010
0100
0000
,
0100
0010
0001
0000
1000
0001
1000
0000
0001
0010
0001
0000
1000
0010
0100
0000
,
0100
0010
1000
0000
0001
0010
1000
0000
0010
0001
0100
0000
1000
0100
0001
0000
,
0100
1000
0001
0000
1000
0100
0001
0000
0100
1000
0001
0000
1000
0010
0001
0000
,
0010
1000
0001
0000
1000
0100
1000
0000
0001
0010
0001
0000
1000
0010
1000
0000
,
0001
0100
0010
0000
0010
0100
0001
0000
1000
0100
0010
0000
0010
0100
1000
0000
,
0001
0010
1000
0000
0010
0001
0100
0000
0001
0100
1000
0000
0100
0001
1000
0000
,
0010
1000
0100
0000
1000
0001
0100
0000
0001
1000
0001
0000
1000
0010
1000
0000
,
0001
0010
0100
0010
0001
0010
0100
0010
0001
0010
0100
0010
0001
0010
0100
0000
,
1000
0100
0010
0100
1000
0100
0010
0100
1000
0100
0010
0100
1000
0100
0010
0000
,
0001
0010
0100
0010
0001
0010
0100
0010
0001
0010
0100
0010
0001
0010
0100
0000
,
1000
0100
0010
0100
1000
0100
0010
0100
1000
0100
0010
0100
1000
0100
0010
0000
,
1000
0001
0100
0010
0100
0001
0010
1000
,
0010
0001
0100
0001
1000
0100
0001
0100
,
1100
0000
0010
0001
0010
0000
0000
0000
0101
0000
0010
1000
0010
0000
0000
0000
,
1000
0100
0010
0100
1000
0001
0010
0100
0010
0001
0100
0010
0100
0001
1000
0010
,
1010
0101
0000
0000
0011
1100
0000
0000
,
0101
1010
0000
0000
1001
0011
0000
0000
,
1100
0011
0000
0000
0101
1010
0000
0000
,
1001
1100
0000
0000
0011
1100
0000
0000
,
1001
0000
0100
0100
0101
0010
0010
0000
,
1100
0000
0010
0010
1010
0100
0100
0000
,
1001
0000
0010
0010
0011
1000
1000
0000
,
1001
0000
0010
0010
1010
0001
0001
0000
,
1010
0000
0000
0000
1000
0100
0001
0100
1000
0000
0000
0000
0001
0010
1000
0010
,
0001
0000
0000
0000
1000
0100
0001
0100
1000
0000
0000
0000
0001
0010
1000
0010
,
0001
0000
0000
0000
1000
0100
0001
0100
1000
0000
0000
0000
0001
0010
1000
0010
,
0001
0000
0000
0000
1000
0100
0001
0100
1000
0000
0000
0000
0001
0010
1000
0010
,
1001
0000
0000
0000
,
0010
0000
0000
0000
,
0100
0000
0000
0000
,
0001
0000
0000
0000
,
1000
0000
0000
0000
,
0001
0000
0000
0000
,
0010
0001
0100
0010
0100
0001
0010
0100
1000
0100
0001
0100
1000
0010
0100
0001
,
1000
0001
0010
0100
1000
0010
0100
0001
1000
0010
0001
0010
0100
0001
0010
0000
,
0001
1000
0010
0000
0010
1000
0001
0000
1000
0100
0010
0000
0010
0100
1000
0000
,
0001
0010
0100
0000
0100
0010
0001
0000
1000
0100
0001
0000
0100
1000
0001
0000
,
1000
0100
0010
0000
0010
0100
1000
0000
0001
0100
0010
0000
0010
0100
0001
0000
,
1000
0100
0010
0000
0010
0100
1000
0000
0001
0010
1000
0000
0010
0001
1000
0000
,
0001
0100
0010
0100
0001
0010
0100
1000
0100
0010
0001
0010
0100
1000
0010
0100
,
0001
1000
0100
1000
0001
0100
0010
0100
0001
0010
0100
1000
0100
0010
0100
1000
,
0001
0100
0010
0100
0001
1000
0100
0010
0100
1000
0001
0010
0100
0010
0001
0100
,
0010
0100
0001
1000
0100
0010
0100
1000
0001
0010
0100
0010
0001
1000
0010
1000
,
2001
0000
0000
0000
3001
0010
0100
1000
0100
0001
0100
1000
0010
0100
0001
1000
,
1002
0000
0000
0000
1003
0010
0100
0001
0010
0100
1000
0100
0001
0100
1000
0010
,
2001
0000
0000
0000
3001
0010
0100
1000
0001
0100
0001
0100
1000
0100
0010
1000
,
1002
0000
0000
0000
1003
0100
0010
0100
1000
0001
0010
1000
0010
0001
0100
0010
,
2001
0000
0000
0000
3001
0010
0100
1000
0100
0010
0001
0100
0010
0100
0001
1000
,
1000
0100
0010
0100
1000
0001
0010
0100
0010
0001
0100
0010
1000
0001
1000
0100
,
2000
0000
0020
3000
,
0200
0030
0002
0303
,
0210
0000
0000
0000
0000
0000
0000
1000
,
0000
0000
0000
0001
,
0000
0000
0000
0000
0000
0000
0000
1300
;
