#TITLE:Aegis;
#SUBTITLE:;
#ARTIST:IT medalion;
#TITLETRANSLIT:;
#SUBTITLETRANSLIT:;
#ARTISTTRANSLIT:;
#GENRE:Techno;
#CREDIT:;
#BANNER:;
#BACKGROUND:;
#LYRICSPATH:;
#CDTITLE:;
#MUSIC:Aegis.ogg;
#OFFSET:0.000000;
#SAMPLESTART:53.677670;
#SAMPLELENGTH:17.999998;
#LASTBEATHINT:256.000000;
#SELECTABLE:YES;
#DISPLAYBPM:162;
#BPMS:0.000000=162.000000
,125.000000=324.000000
,127.000000=162.000000
,174.500000=81.000000
,191.000000=162.000000
;
#STOPS:111.000000=0.370369
,118.000000=0.370369
,134.000000=0.370369
,157.000000=0.093000
,157.500000=0.093000
,191.000000=0.370369
,222.000000=0.185181
,229.250000=0.185188
,236.500000=0.185181
;
#DELAYS:;
#TIMESIGNATURES:0.000000=4=4
;
#TICKCOUNTS:0.000000=2
;
#BGCHANGES:;
#KEYSOUNDS:;
#ATTACKS:;

//---------------dance-single - DDR X S-Expert----------------
#NOTES:
     dance-single:
     DDR X S-Expert:
     Hard:
     13:
     0.548,0.557,0.463,0.130,0.232,350.000,50.000,14.000,0.000,0.000,0.000,0.000,0.548,0.557,0.463,0.130,0.232,350.000,50.000,14.000,0.000,0.000,0.000,0.000: // measure 1
0000
0000
0000
0000
,  // measure 2
0000
0000
0000
0000
,  // measure 3
0000
0000
0000
0000
,  // measure 4
0000
0000
0000
0000
,  // measure 5
0010
0000
1001
0000
0100
0100
0100
0000
,  // measure 6
0001
0000
0110
0000
1000
1000
1000
0000
,  // measure 7
0001
0100
1000
0000
0001
0010
1000
0000
,  // measure 8
0001
0000
0100
0000
1000
0000
0000
0000
0001
0000
0000
0101
0000
0000
1100
0000
,  // measure 9
0001
0000
1010
0000
1000
0100
0001
0000
,  // measure 10
1000
0010
0001
0000
1000
0100
0001
0000
,  // measure 11
1010
0000
0001
0100
0101
0000
1000
0010
,  // measure 12
1010
0000
0000
0000
0001
0000
0010
0000
0001
0000
0010
0001
1000
0001
1000
0001
,  // measure 13
1000
0100
0010
0100
1000
0001
0010
1000
,  // measure 14
0010
0001
0100
0010
1000
0100
0001
0100
,  // measure 15
1000
0010
0001
0010
1000
0100
0010
0001
,  // measure 16
1000
0000
0010
0000
0100
0000
0001
0000
0011
0000
0000
1100
0000
0000
0000
0000
,  // measure 17
0001
1000
0100
0010
0100
1000
0001
0010
,  // measure 18
1000
0010
0001
0100
0001
1000
0100
0010
,  // measure 19
1001
0000
0010
1000
1010
0000
0010
0001
,  // measure 20
0011
1001
0101
1010
,  // measure 21
1001
0000
0011
0000
1010
0000
0001
0001
,  // measure 22
0001
0000
1010
0000
0101
0000
1000
1000
,  // measure 23
1000
0000
0011
0000
1100
0000
0001
0001
,  // measure 24
0001
0000
1001
0000
0110
0000
1000
1000
,  // measure 25
0010
0000
0100
0100
0001
0000
1000
1000
,  // measure 26
0010
0000
0100
0100
0001
0000
0010
0010
,  // measure 27
1000
0000
0001
0001
0100
0000
0001
0001
,  // measure 28
1000
0000
0000
0000
0000
0000
0000
0000
0000
0000
0000
0000
0000
0000
0000
0000
0000
0000
0000
0000
0000
0000
0000
0000
0000
0000
0000
0000
0000
0000
0000
0000
0000
0000
0000
0000
0000
0000
0000
0000
0000
0000
0000
0000
0000
0000
0000
0000
0010
0000
0000
0000
0000
0000
0000
0000
0000
0000
0000
0000
0000
0000
0000
0000
0000
0000
0000
0000
0000
0000
0000
0000
0010
0000
0000
0000
0000
0000
0000
0000
0000
0000
0000
0000
0000
0000
0000
0000
0000
0000
0000
0000
0000
0000
0000
0000
1000
0000
0000
0000
0000
0000
0000
0000
0000
0000
0000
0000
0001
0000
0000
0000
0000
0000
0000
0000
0000
0000
0000
0000
1000
0000
0000
0000
0000
0000
0000
0000
0000
0000
0000
0000
0001
0000
0000
0000
0000
0000
0000
0000
0000
0000
0000
0000
2000
3000
0000
0000
0000
0000
0000
0000
0000
0000
0000
0000
0000
0000
0000
0000
0000
0000
0000
0000
0000
0000
0000
0000
0000
0000
0000
0000
0000
0000
0000
0000
0000
0000
0000
0000
0000
0000
0000
0000
0000
0000
0000
0000
0000
0000
0000
0000
,  // measure 29
1001
0100
0100
0100
,  // measure 30
0100
0000
0100
0000
0100
0100
1001
0000
,  // measure 31
0010
0010
0010
0010
,  // measure 32
0010
2002
0000
3003
,  // measure 33
0010
0010
0010
0010
,  // measure 34
0010
0000
0010
0000
0020
0100
0130
0000
,  // measure 35
0100
0000
0100
0000
0100
0000
0100
0010
,  // measure 36
0100
0000
0010
0000
0100
0010
0100
0010
0200
0000
0000
0000
0301
0000
0000
1000
,  // measure 37
0000
0000
1010
0000
0000
0000
0001
0000
0000
0000
0100
0001
0100
0000
0000
0001
,  // measure 38
0000
0000
1000
0000
0010
0000
0000
1010
0000
0000
1001
0000
0001
0000
0000
0100
,  // measure 39
0000
0000
0001
0000
0000
0000
0110
0000
0000
0000
0010
1000
0010
0000
0000
1000
,  // measure 40
0000
0000
0001
0000
1000
0000
0001
0000
1000
0000
0010
0000
0000
0100
0000
0000
,  // measure 41
0001
0000
0000
0000
1000
0000
0000
0000
0010
1000
0010
0000
0000
0100
0000
0000
,  // measure 42
0001
0000
0100
0000
0000
0010
0000
0000
1000
0000
0100
0000
0000
0010
0000
0000
,  // measure 43
0100
0000
0110
0000
0000
0010
0000
0000
0100
0000
0110
0000
0000
0100
0000
0000
,  // measure 44
0010
0000
0100
0010
0100
0010
1000
0001
1000
0001
2000
0000
0000
0000
0000
0000
,  // measure 45
0000
3002
0000
0000
0000
0203
0000
0000
,  // measure 46
0000
0320
0000
0000
0000
2030
0000
0000
,  // measure 47
0000
3002
0000
0000
0000
0023
0000
0000
,  // measure 48
0000
0230
0000
0000
0000
0000
0300
1000
,  // measure 49
0010
0000
1001
0010
0100
0000
0001
0100
,  // measure 50
0010
0000
1000
0000
0100
0000
0000
1000
0000
0000
0010
0000
1001
0000
0100
0000
,  // measure 51
0010
0000
1001
0010
0100
0000
1000
0100
,  // measure 52
0010
0000
0100
0000
0010
0000
0010
0000
0100
0000
0100
0000
0010
0000
0000
1000
,  // measure 53
0100
0000
0000
0000
0010
0000
1000
0000
0100
0000
0000
0000
0010
0000
0000
0001
,  // measure 54
0100
0000
0000
0000
0010
0000
0001
0000
0100
0000
0000
0000
0001
0000
0000
1000
,  // measure 55
0010
0000
0000
0000
0001
0000
1000
0000
0010
0000
0000
0000
1000
0000
0000
0001
,  // measure 56
0010
0000
0000
0000
0001
0000
0100
0000
0002
0000
1003
0000
0000
0010
0000
0000
,  // measure 57
1000
0000
0000
0000
0001
0000
0000
0000
0100
0001
0100
0000
0000
0001
0000
0000
,  // measure 58
1000
0000
1010
0000
0000
1010
0000
0000
1001
0000
0000
1001
0000
0000
0010
0000
,  // measure 59
0000
0000
0100
0000
0000
0000
0001
1000
0001
0000
0000
1000
0000
0000
0010
0000
,  // measure 60
1010
0000
1010
0000
0001
0000
0001
0000
0000
1000
0000
0000
0010
0000
0000
0000
,  // measure 61
1000
0000
0000
0000
0010
1000
0010
0000
0000
1000
0000
0000
0001
0000
0100
0000
,  // measure 62
0000
0101
0000
0000
1010
0000
0001
0000
0000
1010
0000
0000
0010
0000
0110
0000
,  // measure 63
0000
0101
0000
0000
0100
0000
1001
0000
0000
1010
0000
0000
0100
0000
1000
0001
,  // measure 64
1000
0001
0100
0010
0100
0010
0000
0000
0000
0000
0000
0000
0000
0000
0000
0000
;
