#TITLE:SHAKE;
#SUBTITLE:;
#ARTIST:♪♪♪♪♪;
#TITLETRANSLIT:;
#SUBTITLETRANSLIT:;
#ARTISTTRANSLIT:(J-POP);
#GENRE:;
#CREDIT:;
#MUSIC:SHAKE.ogg;
#BANNER:;
#BACKGROUND:SHAKE-bg.png;
#CDTITLE:;
#SAMPLESTART:69.378;
#SAMPLELENGTH:15;
#SELECTABLE:YES;
#OFFSET:-0.008;
#BPMS:0.000=128.024
,12.000=127.431
,16.000=128.024
,524.000=106.915
,532.000=81.983
;
#STOPS:;
#BGCHANGES:;
#FGCHANGES:;

//---------------dance-single - ----------------
#NOTES:
     dance-single:
     :
     Hard:
     8:
     0.404532,0.443302,0.115896,0.000000,0.000000,733.000000,703.000000,30.000000,0.000000,0.000000,0.000000,0.404532,0.443302,0.115896,0.000000,0.000000,733.000000,703.000000,30.000000,0.000000,0.000000,0.000000:
0000
0000
0000
0000
,
0000
0000
0000
0000
,
0000
0000
0000
0000
,
0000
0000
0000
0000
0010
1000
0100
0000
,
0001
0100
1000
0000
1000
0100
0001
0000
,
0010
0001
0010
0100
1000
0001
0100
0000
,
1000
0100
0001
0000
0001
0100
1000
0000
,
0010
1000
0010
0100
0001
1000
0100
0000
,
0001
0010
1000
0000
1000
0100
0001
0000
,
0010
1000
0010
0100
0001
1000
0100
0000
,
0001
0010
1000
0000
1000
0100
0001
0000
,
0010
1000
1000
0100
0001
0010
0010
0000
,
1000
0001
0010
0010
,
0001
0010
0100
0000
0001
1000
0100
0000
,
1000
0001
0010
0010
,
0001
1000
0100
0010
0001
0100
0010
0000
,
1000
0100
0001
0001
,
1000
0010
0001
0001
,
1000
0100
0001
0000
0001
0010
1000
0000
,
0001
0010
0100
1000
0010
0100
1000
0000
,
0001
1000
0010
0010
,
1000
0010
0100
0000
1000
0001
0100
0000
,
0001
1000
0010
0010
,
1000
0001
0100
0010
1000
0100
0010
0000
,
0001
0100
1000
1000
,
0001
0010
1000
1000
,
0001
0100
1000
0000
1000
0010
0001
0000
,
1000
0010
0000
0001
0010
1000
0000
0000
,
0100
0010
0010
0010
,
1000
0100
0001
0100
1000
0100
0001
0010
,
1000
0001
1000
0001
,
0010
1000
0001
0100
0010
0001
1000
0000
,
0100
0010
0010
0010
,
0001
0100
1000
0010
0001
0100
1000
0010
,
0001
0100
1000
0010
,
0001
0001
1000
1000
,
0010
1000
0001
0001
1000
1000
0100
0000
,
0001
0000
1000
0000
0110
0010
1000
0100
,
0001
0010
1000
0000
1000
0100
0001
0000
,
0010
0010
1100
0101
,
1100
0010
0001
0000
1000
0100
0001
0000
,
1000
0000
0001
0000
0110
0010
0001
0100
,
1000
0010
0001
0000
0001
0100
1000
0000
,
0010
0010
0101
1100
,
0001
0100
1000
0100
0001
0100
1000
0000
,
0010
0010
1100
0101
,
0010
1000
0100
0000
0010
0001
0100
0000
,
0010
1000
0001
0100
0001
1000
0100
0000
,
0010
0001
0100
0000
0010
1000
0100
0001
,
0000
0000
0000
0000
0000
0010
0100
0000
,
1000
0001
0010
0010
,
0001
0010
0100
0000
0001
1000
0100
0000
,
1000
0001
0010
0010
,
0001
1000
0100
0010
0001
0100
0010
0000
,
1000
0100
0001
0001
,
1000
0010
0001
0001
,
1000
0100
0001
0000
0001
0010
1000
0000
,
0001
0010
0100
1000
0010
0100
1000
0000
,
0001
1000
0010
0010
,
1000
0010
0100
0000
1000
0001
0100
0000
,
0001
1000
0010
0010
,
1000
0001
0100
0010
1000
0100
0010
0000
,
0001
0100
1000
1000
,
0001
0010
1000
1000
,
0001
0100
1000
0000
1000
0010
0001
0000
,
1000
0010
0000
0001
0010
1000
0000
0000
,
0100
0010
0010
0010
,
1000
0010
0001
0010
1000
0010
0001
0100
,
1000
0001
1000
0001
,
0010
1000
0001
0100
0010
0001
1000
0000
,
0100
0010
0010
0010
,
0001
0100
1000
0010
0001
0100
1000
0010
,
0001
0100
1000
0010
,
0001
0001
1000
1000
,
0010
1000
0001
0001
1000
1000
0100
0000
,
0001
0000
1000
0000
0110
0010
1000
0100
,
0001
0010
1000
0000
1000
0100
0001
0000
,
0010
0010
1100
0101
,
1100
0010
0001
0000
1000
0100
0001
0000
,
1000
0000
0001
0000
0110
0010
0001
0100
,
1000
0010
0001
0000
0001
0100
1000
0000
,
0010
0010
0101
1100
,
0001
0100
1000
0100
0001
0100
1000
0000
,
0010
0010
1100
0101
,
0010
0000
0100
0000
,
0001
0000
1000
0000
,
0010
0100
1000
0001
0100
0010
1000
0001
,
0100
0010
0100
0010
1000
0001
1000
0001
,
0100
1000
0010
0100
0001
1000
0100
0010
,
0001
1000
0001
1000
0010
0100
0010
0000
,
0001
0100
1000
0010
,
0001
0010
0100
0000
0001
0100
0010
0000
,
1000
0100
0001
0010
,
1000
0010
0100
0000
1000
0100
0010
0000
,
0001
0000
0001
0000
0100
1000
1000
0000
,
0010
0100
0010
0100
1000
0001
0001
0000
,
0010
1000
1000
0000
0100
0001
0001
0000
,
0010
0100
0000
0001
1000
0100
0000
0000
,
1001
0100
0000
0100
,
0000
0100
0000
0100
,
0001
0100
1000
0100
,
0001
0010
0100
0000
1000
0010
0100
0000
,
0001
0100
1000
0100
,
0010
0100
1000
0100
,
0001
0100
0010
0100
,
1000
0100
0001
0100
,
1000
0010
0001
0100
1000
0100
0010
0001
,
1000
0000
0001
0000
0110
0010
1000
0000
,
0010
0001
0010
0100
1000
0100
0100
0000
,
0001
0010
1000
0000
0001
0100
1000
0000
,
0010
0000
0100
0000
0001
1000
0001
0100
,
1000
0000
0001
0000
0110
0010
0001
0000
,
1000
0100
0001
0100
1000
0010
0010
0000
,
0001
0100
1000
0010
,
0100
1000
0001
0100
0010
1000
0001
0000
,
1000
0000
0001
0000
0110
0010
0001
0100
,
1000
0010
0001
0000
0001
0100
1000
0000
,
0010
0010
0101
1100
,
0101
0010
1000
0000
0001
0100
1000
0000
,
0001
0000
1000
0000
0110
0010
1000
0100
,
0001
0010
1000
0000
1000
0100
0001
0000
,
0010
0010
1100
0101
,
1000
0100
0001
0100
1000
0100
0001
0000
,
0010
1000
0010
0001
0010
1000
0010
0000
,
0001
0100
1000
0000
1000
0100
0001
0000
,
0010
0001
0010
0100
1000
0001
0100
0000
,
1000
0100
0001
0000
0001
0100
1000
0000
,
0010
1000
0010
0100
0001
1000
0100
0000
,
0001
0010
1000
0000
1000
0100
0001
0000
,
0010
1000
0010
0100
0001
1000
0100
0000
,
0001
0010
0010
0000
1000
0100
0100
0010
,
0000
0000
0000
0000
,
0000
0000
0000
0000
,
0110
0000
0000
0000
,
0000
0000
0000
0000
,
1001
0000
0000
0000
;

//---------------dance-single - ----------------
#NOTES:
     dance-single:
     :
     Easy:
     3:
     0.292499,0.338995,0.100443,0.000000,0.000000,530.000000,504.000000,26.000000,0.000000,0.000000,0.000000,0.292499,0.338995,0.100443,0.000000,0.000000,530.000000,504.000000,26.000000,0.000000,0.000000,0.000000:
0000
0000
0000
0000
,
0000
0000
0000
0000
,
0000
0000
0000
0000
,
0000
0000
0000
0000
,
0001
0010
1000
0010
,
0001
0001
0010
0100
,
1000
0010
0001
0010
,
1000
1000
0010
0100
,
0001
0010
1000
0010
,
0001
0001
1000
0100
,
0001
0010
1000
0100
,
1001
0000
0000
0000
,
0100
0001
0010
1000
,
0100
0001
0010
1000
,
0001
0100
1000
0010
,
0001
0100
1000
0010
,
0100
0001
1000
0100
,
0010
0001
1000
0010
,
0001
0010
1000
0010
,
0001
0001
0100
1000
,
0010
0001
0100
1000
,
0010
0001
0100
1000
,
0001
0010
1000
0100
,
0001
0010
1000
0100
,
0010
0001
1000
0010
,
0100
0001
1000
0100
,
0001
0100
1000
0100
,
0001
0001
1000
1000
,
0010
0010
0010
0010
,
0001
1000
0001
1000
,
0001
0001
1000
1000
,
0010
0100
0001
1000
,
0100
0100
0100
0100
,
1000
0001
1000
0001
,
0010
0010
1000
1000
,
0100
0100
0001
0001
,
0010
0001
0100
1000
,
1001
1001
0100
0010
,
0001
0010
1000
0010
,
0001
0001
1000
0100
,
0001
0010
1000
0100
,
1001
1001
0100
0010
,
0100
0001
1000
0100
,
0010
0010
0001
1000
,
0001
1000
0100
0100
,
0010
0001
0100
1000
,
0001
0010
1000
0010
,
0001
0001
1000
0010
,
0001
0000
0100
0000
0010
0000
1000
0001
,
0000
0000
0000
0000
,
0100
1000
0010
0001
,
0100
1000
0010
0001
,
1000
0100
0001
0010
,
1000
0100
0001
0010
,
0100
1000
0001
0100
,
0010
1000
0001
0010
,
1000
0010
0001
0010
,
1000
1000
0100
0001
,
0010
1000
0100
0001
,
0010
1000
0100
0001
,
1000
0010
0001
0100
,
1000
0010
0001
0100
,
0010
1000
0001
0010
,
0100
1000
0001
0100
,
1000
0100
0001
0100
,
1000
1000
0001
0001
,
0010
0010
0010
0010
,
1000
0001
1000
0001
,
1000
1000
0001
0001
,
0010
0100
1000
0001
,
0100
0100
0100
0100
,
0001
1000
0001
1000
,
0010
0010
0001
0001
,
0100
0100
1000
1000
,
0010
1000
0100
0001
,
0110
0110
0100
0010
,
1000
0010
0001
0010
,
1000
1000
0001
0100
,
1000
0010
0001
0100
,
0110
0110
1000
0001
,
1000
0010
0001
0100
,
1000
1000
0010
0100
,
0010
0100
0001
0001
,
0100
1000
0010
0001
,
1001
0000
0110
0000
,
1001
0000
0110
0000
,
0001
1000
0001
0000
1000
0001
1000
0000
,
0010
0100
0001
1001
,
1000
0001
1000
0000
0001
1000
0001
0000
,
0010
0100
1000
1001
,
0001
0100
1000
0100
,
0001
0100
0010
0001
,
1000
0100
0001
0100
,
1000
0100
0010
1000
,
0001
1000
0001
0001
,
1000
0001
1000
1000
,
0001
0001
1000
1000
,
0110
0000
0000
0000
,
0000
0001
0000
0001
,
0000
1000
0000
1000
,
0100
0001
1000
0010
,
0100
0001
1000
0010
,
0100
0100
0100
0100
,
0001
1000
0010
0010
,
0001
0100
1000
0010
,
0001
0100
1000
0001
,
0010
0000
0010
0000
0001
1000
0001
0000
,
0110
0110
1000
0001
,
0001
0000
1000
0000
0010
0100
0010
0000
,
1000
1000
0001
0001
,
0010
1000
0001
0010
,
0110
0110
0001
1000
,
1000
0000
0100
0000
0001
1000
0001
0000
,
0100
1000
0010
0001
,
0100
1000
0010
0100
,
1001
1001
0100
0010
,
1000
0000
0001
0000
0010
0100
0010
0000
,
0001
0001
1000
1000
,
0001
0000
1000
0000
0100
0010
0100
0000
,
1001
1001
0100
0010
,
0001
0000
1000
0000
0001
1000
0001
0000
,
1000
1000
0001
0001
,
0010
0100
0001
1000
,
0010
0010
0100
0100
,
0001
0010
1000
0010
,
0001
0001
0010
0100
,
1000
0010
0001
0010
,
1000
1000
0010
0100
,
0001
0010
1000
0010
,
0001
0001
1000
0100
,
0001
0000
0010
0000
1000
0000
0100
0010
,
0000
0000
0000
0000
,
0000
0000
0000
0000
,
1001
0000
0000
0000
,
0000
0000
0000
0000
,
0110
0000
0000
0000
;

//---------------dance-single - ----------------
#NOTES:
     dance-single:
     :
     Medium:
     6:
     0.336650,0.365072,0.100443,0.000000,0.000000,610.000000,584.000000,26.000000,0.000000,0.000000,0.000000,0.336650,0.365072,0.100443,0.000000,0.000000,610.000000,584.000000,26.000000,0.000000,0.000000,0.000000:
// measure 0
0000
0000
0000
0000
,  // measure 1
0000
0000
0000
0000
,  // measure 2
0000
0000
0000
0000
,  // measure 3
0000
0000
0010
0100
,  // measure 4
0001
0010
1000
0000
0001
0010
1000
0000
,  // measure 5
0010
0000
0010
0000
0001
0010
1000
0000
,  // measure 6
1000
0100
0001
0000
1000
0100
0001
0000
,  // measure 7
0100
0000
0100
0000
1000
0100
0001
0000
,  // measure 8
0001
0010
1000
0000
0001
0010
1000
0000
,  // measure 9
0100
0000
0100
0000
0001
0100
1000
0000
,  // measure 10
1000
0010
0001
0000
1000
0010
0001
0000
,  // measure 11
0110
0000
0000
0000
0001
0100
0010
0000
,  // measure 12
1000
0100
0001
0100
,  // measure 13
1000
1000
1000
0010
,  // measure 14
1000
0100
0001
0100
,  // measure 15
1000
1000
1000
0100
,  // measure 16
0001
0010
1000
0010
,  // measure 17
0001
0010
1000
0100
,  // measure 18
0001
0100
1000
0000
0001
0010
1000
0000
,  // measure 19
0100
0000
0010
0000
0001
0100
1000
0000
,  // measure 20
0001
0100
1000
0100
,  // measure 21
0001
0001
0001
0010
,  // measure 22
0001
0100
1000
0100
,  // measure 23
0001
0001
0001
0100
,  // measure 24
1000
0010
0001
0010
,  // measure 25
1000
0010
0001
0100
,  // measure 26
1000
0100
0001
0000
1000
0010
0001
0000
,  // measure 27
0100
0000
0010
0000
0001
0100
1000
0000
,  // measure 28
0010
0010
0010
0010
,  // measure 29
0010
0010
0010
0000
0010
0000
0010
0000
,  // measure 30
0001
0100
1000
0100
,  // measure 31
0001
1000
0001
1000
,  // measure 32
0010
0010
0010
0010
,  // measure 33
0010
0010
0010
0000
0010
0000
0010
0000
,  // measure 34
0001
1000
0001
1000
,  // measure 35
0100
0001
1000
0100
,  // measure 36
0010
0000
0001
0000
1000
0010
0001
0000
,  // measure 37
1001
0110
1001
0100
,  // measure 38
0010
0000
0001
0000
1000
0100
0010
0000
,  // measure 39
0001
0001
1000
1000
,  // measure 40
0010
0000
0100
0000
0001
0010
0100
0000
,  // measure 41
1001
0110
1001
0100
,  // measure 42
0010
0000
1000
0000
0001
0100
0010
0000
,  // measure 43
0001
0001
1000
1000
,  // measure 44
0010
0010
0100
0100
,  // measure 45
0001
0100
1000
0100
,  // measure 46
0001
0100
1000
0000
1000
0100
0001
0000
,  // measure 47
0010
0000
0010
0000
0001
0100
0010
0000
,  // measure 48
1000
0100
0001
0000
0001
0010
0100
1000
,  // measure 49
0000
0000
0000
1001
,  // measure 50
0001
0010
1000
0010
,  // measure 51
0001
0001
0001
0100
,  // measure 52
0001
0010
1000
0010
,  // measure 53
0001
0001
0001
0010
,  // measure 54
1000
0100
0001
0100
,  // measure 55
1000
0100
0001
0010
,  // measure 56
1000
0010
0001
0000
1000
0100
0001
0000
,  // measure 57
0010
0000
0100
0000
1000
0010
0001
0000
,  // measure 58
1000
0010
0001
0010
,  // measure 59
1000
1000
1000
0100
,  // measure 60
1000
0010
0001
0010
,  // measure 61
1000
1000
1000
0010
,  // measure 62
0001
0100
1000
0100
,  // measure 63
0001
0100
1000
0010
,  // measure 64
0001
0010
1000
0000
0001
0100
1000
0000
,  // measure 65
0010
0010
0000
0100
1000
0001
0000
0000
,  // measure 66
0010
0010
0010
0010
,  // measure 67
0010
0010
0100
0100
0010
0010
0100
0100
,  // measure 68
0010
0001
1000
0010
,  // measure 69
0001
1000
0001
1000
,  // measure 70
0010
0010
0010
0010
,  // measure 71
0010
0010
0010
0000
0010
0000
0010
0000
,  // measure 72
1000
0001
1000
0001
,  // measure 73
0010
1000
0001
0010
,  // measure 74
0100
0000
1000
0000
0001
0100
0010
0000
,  // measure 75
1001
0110
1001
0010
,  // measure 76
0100
0000
1000
0000
0001
0010
0100
0000
,  // measure 77
1000
1000
0001
0001
,  // measure 78
0100
0000
0010
0000
1000
0100
0010
0000
,  // measure 79
1001
0110
1001
0010
,  // measure 80
0100
0000
0001
0000
1000
0010
0100
0000
,  // measure 81
1000
1000
0001
0001
,  // measure 82
0100
0100
0010
0010
,  // measure 83
1000
0010
0001
0010
,  // measure 84
1100
0000
0100
0000
,  // measure 85
0101
0000
0100
0000
,  // measure 86
0010
1000
0001
0100
0010
1000
0100
0010
,  // measure 87
0000
0001
0000
0001
0000
1000
0000
1000
,  // measure 88
0010
0001
1000
0100
0010
0001
0100
0010
,  // measure 89
0000
1000
0000
1000
0000
0001
0000
0001
,  // measure 90
0010
1000
0100
0001
,  // measure 91
0010
0000
1000
0000
0100
0001
0100
0000
,  // measure 92
0010
0001
0100
1000
,  // measure 93
0010
0000
0001
0000
0100
1000
0100
0000
,  // measure 94
0010
0000
0010
0000
0001
1000
0001
0000
,  // measure 95
1000
0001
1000
0001
0010
0000
0100
0000
,  // measure 96
0001
1000
0001
0000
0010
0100
0010
0000
,  // measure 97
1001
0000
0000
0000
,  // measure 98
0110
1000
0000
1000
,  // measure 99
0000
0001
0000
0001
,  // measure 100
1000
0100
0001
0100
,  // measure 101
1000
1000
0001
0001
,  // measure 102
0110
0001
0001
1000
,  // measure 103
1000
0001
0010
0100
,  // measure 104
1000
0001
0100
0100
,  // measure 105
0100
0100
0100
0100
,  // measure 106
0010
0001
0100
1000
0100
0001
0010
0000
,  // measure 107
0100
0010
1001
0100
,  // measure 108
1000
0000
0001
0000
0010
1000
0100
0000
,  // measure 109
0001
0001
1000
1000
,  // measure 110
0100
0000
0010
0000
0001
0100
0010
0000
,  // measure 111
0100
0010
1001
0100
,  // measure 112
0001
0000
1000
0000
0010
0001
0100
0000
,  // measure 113
1000
1000
0001
0001
,  // measure 114
1000
0000
0001
0000
1000
0001
1000
0001
,  // measure 115
0010
0100
1001
0100
,  // measure 116
0010
0000
1001
0000
0010
0001
1000
0000
,  // measure 117
0010
0010
0100
0100
,  // measure 118
0010
0000
0100
0000
0001
1000
0100
0000
,  // measure 119
0010
0100
1001
0100
,  // measure 120
0010
0000
1001
0000
0010
1000
0001
0000
,  // measure 121
0010
0010
0100
0100
,  // measure 122
0010
0000
0100
0000
1000
0001
0100
0000
,  // measure 123
0001
1000
0100
0000
0001
1000
0010
0000
,  // measure 124
0001
0100
1000
0000
0001
0100
1000
0000
,  // measure 125
0010
0000
0010
0000
1000
0100
0001
0000
,  // measure 126
1000
0010
0001
0000
1000
0010
0001
0000
,  // measure 127
0100
0000
0100
0000
0001
0010
1000
0000
,  // measure 128
0001
0100
1000
0000
0001
0100
1000
0000
,  // measure 129
0010
0000
0010
0000
1000
0100
0001
0000
,  // measure 130
0010
0001
0100
0000
0010
1000
0100
0001
,  // measure 131
0000
0000
0000
0000
,  // measure 132
0000
0000
0000
0000
,  // measure 133
0010
0000
0000
0000
,  // measure 134
0000
0000
0000
0000
,  // measure 135
1001
0000
0000
0000
;
