#TITLE:Fortune;
#SUBTITLE:;
#ARTIST:Thomas Howard Lichtenstein;
#TITLETRANSLIT:;
#SUBTITLETRANSLIT:;
#ARTISTTRANSLIT:;
#GENRE:;
#CREDIT:;
#BANNER:;
#BACKGROUND:Fortune-bg.png;
#LYRICSPATH:;
#CDTITLE:;
#MUSIC:Fortune.ogg;
#OFFSET:-0.014000;
#SAMPLESTART:6.871000;
#SAMPLELENGTH:15.000000;
#SELECTABLE:YES;
#BPMS:0.000000=140.000000
;
#STOPS:
;
#BGCHANGES:;
#KEYSOUNDS:;
#ATTACKS:;

//---------------dance-single - ----------------
#NOTES:
     dance-single:
     :
     Easy:
     3:
     0.333333,0.373479,0.116667,0.000000,0.000000,600.000000,570.000000,30.000000,0.000000,0.000000,0.000000,0.333333,0.373479,0.116667,0.000000,0.000000,600.000000,570.000000,30.000000,0.000000,0.000000,0.000000:
0000
0000
0000
0000
,
0000
0000
0000
0000
,
0000
0000
0000
0000
,
0000
0000
0000
0000
,
0001
1000
0001
1000
,
0001
0001
1000
1000
,
0001
1000
0001
1000
,
0001
0001
1000
1000
,
0001
1000
0001
1000
,
0001
1000
0001
1000
,
0001
0001
1000
1000
,
0001
1000
0001
1001
,
1000
0001
1000
0001
,
1000
1000
0001
0001
,
1000
0001
1000
0001
,
1000
1000
0001
0001
,
1000
0001
1000
0001
,
1000
0001
1000
0001
,
1000
1000
0001
0001
,
1001
1001
1001
0000
,
1000
0001
1000
0010
,
0001
0001
1000
1000
,
0001
1000
0001
0010
,
1000
1000
0001
0001
,
1000
0001
1000
0001
,
1000
0001
1000
0001
,
1000
0010
0001
0010
,
1000
1000
1000
0000
,
0001
1000
0001
0100
,
1000
1000
0001
0001
,
1000
0001
1000
0100
,
0001
0001
1000
1000
,
0001
1000
0001
1000
,
0001
1000
0001
1000
,
0001
0100
1000
0100
,
1001
1001
1001
0000
,
0001
1000
0001
1000
,
0001
1000
0001
1000
,
0001
0001
0001
0001
,
1000
1000
1000
1000
,
0001
0001
0001
0010
,
1000
1000
1000
0010
,
0001
0001
0001
0100
,
1000
1000
1000
0100
,
0001
0001
1000
1000
,
0001
0001
1000
1000
,
0001
0001
1000
1000
,
0001
0100
1000
0010
,
0001
0001
1000
1000
,
0001
1000
0001
1000
,
0001
0001
1000
1000
,
0001
0000
1000
0000
0001
0001
0001
0000
,
1000
0001
1000
0001
,
1000
1000
0001
0001
,
1000
0001
1000
0001
,
1000
1000
0001
0001
,
1000
0001
1000
0001
,
1000
0001
1000
0001
,
1000
1000
0001
0001
,
1000
0001
1000
1001
,
0001
1000
0001
1000
,
0001
0001
1000
1000
,
0001
1000
0001
1000
,
0001
0001
1000
1000
,
0001
1000
0001
1000
,
0001
1000
0001
1000
,
0001
0001
1000
1000
,
1001
1001
1001
0000
,
0001
0001
1000
1000
,
0010
0010
0010
0010
,
1000
1000
0001
0001
,
0010
0010
0010
0010
,
1000
1000
0001
0001
,
1000
1000
0001
0001
,
0010
0010
0010
0010
,
0100
0100
0100
0000
,
1000
1000
0001
0001
,
0100
0100
0100
0100
,
0001
0001
1000
1000
,
0100
0100
0100
0100
,
0001
0001
1000
1000
,
0001
0001
1000
1000
,
0100
0100
0100
0100
,
0010
0010
0010
0000
,
1000
0001
1000
0001
,
1000
0001
1000
0001
,
1000
1000
1000
1000
,
0001
0001
0001
0001
,
1000
1000
1000
0010
,
0001
0001
0001
0010
,
1000
1000
1000
0100
,
0001
0001
0001
0100
,
1000
1000
0001
0001
,
1000
1000
0001
0001
,
1000
1000
0001
0001
,
1000
0100
0001
0010
,
1000
1000
0001
0001
,
1000
0001
1000
0001
,
1000
1000
0001
0001
,
1000
0000
0001
0000
1000
1000
1000
0000
,
0001
1000
0001
1000
,
0001
1000
0001
0110
,
1000
0001
1000
0001
,
1000
0001
1000
0110
,
0001
1000
0001
1000
,
0001
1000
0001
1000
,
0001
0001
1000
1000
,
1001
0110
1001
0000
,
1000
0001
1000
0001
,
1000
0001
1000
0110
,
0001
1000
0001
1000
,
0001
1000
0001
0110
,
1000
0001
1000
0001
,
1000
0001
1000
0001
,
1000
1000
0001
0001
,
0110
1001
0110
0000
,
0001
0001
1000
1000
,
0001
1000
0010
0100
,
1000
1000
0001
0001
,
1000
0001
0010
0100
,
0001
0001
1000
1000
,
0001
0001
1000
1000
,
0010
0100
0010
0100
,
1001
0110
1001
0000
,
1000
1000
0001
0001
,
1000
0001
0010
0100
,
0001
0001
1000
1000
,
0001
1000
0010
0100
,
1000
1000
0001
0001
,
1000
1000
0001
0001
,
0010
0100
0010
0100
,
1001
0110
1001
0110
,
0001
0001
0001
0001
,
1000
1000
1000
1000
,
0001
0001
0001
0010
,
1000
1000
1000
0100
,
0001
0001
1000
1000
,
0001
0001
0010
0010
,
1000
1000
0001
0001
,
1000
1000
0100
0100
,
0010
0001
1000
0100
,
0010
0001
1000
0100
,
0010
0001
1000
0100
,
0001
1000
0001
1000
,
1000
0001
1000
0110
,
0001
1000
0001
0110
,
1000
0010
0001
0100
,
1000
0000
0100
0000
0001
1000
0001
0000
;

//---------------dance-single - ----------------
#NOTES:
     dance-single:
     :
     Medium:
     4:
     0.354444,0.373479,0.198333,0.000000,0.000000,638.000000,587.000000,51.000000,0.000000,0.000000,0.000000,0.354444,0.373479,0.198333,0.000000,0.000000,638.000000,587.000000,51.000000,0.000000,0.000000,0.000000:
0000
0000
0000
0000
,
0000
0000
0000
0000
,
0000
0000
0000
0000
,
0000
0000
0000
0000
,
0010
0100
1000
0001
,
0010
0100
0001
1000
,
1000
0001
0100
0010
,
0001
1000
0100
0010
,
0010
0100
1000
0001
,
0010
0100
0001
1000
,
0001
0100
1001
0100
,
0010
1000
0001
0010
,
0100
0001
0010
1000
,
0100
0010
1000
0001
,
0001
1000
0010
0100
,
1000
0010
0001
0100
,
0100
0001
0010
1000
,
0100
0010
1000
0001
,
1000
0100
1001
0100
,
0010
0001
1000
0010
,
0001
0100
0100
1000
,
0001
0010
1000
0110
,
1000
0010
0010
0001
,
1000
0100
0001
0110
,
1000
0100
0010
0001
,
1000
0100
0010
1000
,
0001
0100
0010
1000
,
0001
0100
0010
0010
,
1000
0110
0100
1000
,
0001
0110
0100
0001
,
1000
1000
0001
0001
,
0010
1000
1000
0100
,
0001
0110
0010
0001
,
1000
0110
0100
1000
,
0010
0001
0010
1000
,
0010
0001
0001
0110
,
1000
0100
1000
0100
,
1000
0010
1000
0010
,
1000
0001
1000
0001
,
1000
0010
0001
0100
,
0001
0010
0001
0010
,
0001
0100
0001
0100
,
0001
1000
0001
1000
,
0001
0010
1000
0100
,
0001
0000
1000
0000
0010
0100
0010
0000
,
1000
0000
0001
0000
0010
0100
0010
0000
,
0001
0010
1000
0100
,
0001
1000
0100
1001
,
0001
0001
0010
0100
,
1000
0010
0100
0001
,
1000
1000
0010
0100
,
0001
0000
0010
0000
1000
0100
0010
0000
,
0001
0001
1000
0100
,
0010
1001
0100
0001
,
1000
1000
0001
0100
,
0010
1001
0100
1000
,
0001
0010
0010
1000
,
0100
0010
0010
0001
,
1000
0100
0001
0010
,
1000
0100
0001
0110
,
0001
1000
0001
0010
,
0100
1000
0001
0100
,
0010
1000
1000
0001
,
0100
0010
0100
1001
,
1000
0001
1000
0010
,
0100
0010
0001
1000
,
0100
0001
1000
0010
,
0100
0001
1001
0100
,
1000
0010
0010
0001
,
1000
0100
0001
1001
,
0001
0100
0100
1000
,
0001
0010
1000
1001
,
0001
0010
0100
1000
,
0001
0010
0100
0001
,
1000
0010
0100
0001
,
1000
0010
0100
0100
,
0001
1001
0010
0001
,
1000
1001
0010
1000
,
0001
0001
1000
1000
,
0100
0001
0001
0010
,
1000
1001
0100
1000
,
0001
1001
0010
0001
,
0100
1000
0100
0001
,
0110
1010
0101
1001
,
0010
0001
0100
1000
,
0010
0001
1000
0100
,
0010
0001
0100
1000
,
0010
0001
1000
0100
,
0001
0010
0010
1000
,
0001
0010
0010
0100
,
1000
0010
0010
0001
,
1000
0010
0010
0100
,
0001
0000
1000
0000
0010
0100
0001
0000
,
1000
0000
0001
0000
0010
0100
0001
0000
,
1000
0000
0001
0000
0010
0100
1000
0000
,
0001
0000
1000
0000
0010
0100
1000
0000
,
0001
1000
0100
0010
,
1000
0001
0100
0001
,
1000
0001
0100
0010
,
0001
0000
0100
0000
1000
0010
0001
0000
,
0100
1000
0001
0100
,
0011
0000
1100
0010
,
0100
0001
1000
0100
,
1010
0000
0101
0010
,
1000
0100
0001
0100
,
0010
1000
0100
0001
,
0010
0100
1000
0001
,
1100
1100
0010
0001
,
0100
1000
0001
0100
,
0011
0011
1100
0010
,
0100
1000
0001
0100
,
1010
1010
0101
0010
,
1000
0100
0001
0100
,
0010
1000
0100
0001
,
0010
0100
1000
0001
,
1100
1100
0011
0011
,
1000
0100
1000
0010
,
0001
0100
1000
0110
,
1000
0010
1000
0100
,
0001
0010
1000
1001
,
0010
0100
0010
0001
,
1000
0010
0100
0010
,
0001
0001
0100
0100
,
1000
0010
0001
0100
,
1000
0100
1000
0110
,
0001
0100
1000
0011
,
1000
0010
1000
0110
,
0001
0010
1000
1100
,
0010
0100
0010
1000
,
0001
0010
0100
0010
,
1000
1000
0010
0010
,
0001
0100
1000
0010
,
1000
0100
0001
0100
,
1000
0100
0001
0100
,
1000
0010
0001
0010
,
1000
0010
0001
0010
,
1000
0100
0100
0001
,
0010
1000
1000
0100
,
0001
0010
0010
1000
,
0100
0001
0001
0010
,
1000
0000
0100
0000
0001
0010
0100
0000
,
1000
0000
0100
0000
0001
0100
0010
0000
,
0001
0000
0100
0000
1000
0010
0100
0000
,
0001
0000
0100
0000
1000
0100
0010
0000
,
1001
1001
0010
1000
,
0100
0010
0001
0100
,
1001
1001
0010
0001
,
0100
0000
0010
0000
1000
0100
0001
0000
;

//---------------dance-single - ----------------
#NOTES:
     dance-single:
     :
     Hard:
     7:
     0.445555,0.459666,0.272222,0.000000,0.000000,802.000000,732.000000,70.000000,0.000000,0.000000,0.000000,0.445555,0.459666,0.272222,0.000000,0.000000,802.000000,732.000000,70.000000,0.000000,0.000000,0.000000:
// measure 0
0000
0000
0000
0000
,  // measure 1
0000
0000
0000
0000
,  // measure 2
0000
0000
0000
0000
,  // measure 3
0000
0000
0000
0000
,  // measure 4
0001
0100
1000
0100
0001
0100
1000
0000
,  // measure 5
0010
0001
1000
0110
,  // measure 6
1000
0100
0001
0100
1000
0100
0001
0000
,  // measure 7
0010
1000
0001
0110
,  // measure 8
0001
1000
0100
0000
0001
1000
0010
0000
,  // measure 9
1000
0001
0010
0000
1000
0001
0100
0000
,  // measure 10
0010
1000
0001
0100
,  // measure 11
1001
0000
0100
0000
1000
1000
1000
0000
,  // measure 12
0001
0101
0010
1010
,  // measure 13
0001
0100
0010
0000
1000
0100
0010
0000
,  // measure 14
0001
0101
0010
1010
,  // measure 15
1001
0000
0110
0000
1000
0001
0100
0000
,  // measure 16
0010
1000
0001
0000
0100
0001
1000
0000
,  // measure 17
0010
1000
0001
0000
0100
0001
1000
0000
,  // measure 18
0100
0001
1000
0010
,  // measure 19
0011
0000
1100
0000
0010
0010
0010
0000
,  // measure 20
0001
0100
1000
0100
0001
0100
1000
0000
,  // measure 21
0001
0000
0100
0000
1000
0010
0001
0000
,  // measure 22
1000
0100
0001
0100
1000
0100
0001
0000
,  // measure 23
1000
0000
0100
0000
0001
0010
1000
0000
,  // measure 24
0001
0010
1000
0010
0001
0010
1000
0010
,  // measure 25
0001
0100
1000
0100
0001
0100
1000
0000
,  // measure 26
0010
0001
1000
0100
,  // measure 27
0011
0000
1100
0000
0001
0001
0001
0000
,  // measure 28
0100
1000
0010
1100
,  // measure 29
0100
0001
0010
0101
,  // measure 30
1000
1000
0001
0001
,  // measure 31
0101
1100
0101
1100
,  // measure 32
0001
0000
0010
0000
1000
0100
0001
0000
,  // measure 33
1000
0000
0010
0000
0001
0100
1000
0000
,  // measure 34
0001
0010
1000
0000
1000
0100
0001
0000
,  // measure 35
1000
0000
1000
0000
0010
0010
0010
0000
,  // measure 36
0100
0001
0100
1000
,  // measure 37
0100
0001
0100
1000
,  // measure 38
0100
0001
0100
1000
,  // measure 39
0100
0010
0001
0010
,  // measure 40
0100
1000
0001
0100
,  // measure 41
0010
0001
1000
0100
,  // measure 42
0010
0001
1000
0100
,  // measure 43
0010
1000
0001
0100
,  // measure 44
0010
0000
0100
0000
0010
0001
1000
0000
,  // measure 45
0010
0000
0100
0000
0010
1000
0001
0000
,  // measure 46
0100
0001
1000
0010
,  // measure 47
1000
0010
0001
0010
1000
0100
0001
0000
,  // measure 48
0010
0000
1001
0000
0010
1000
0100
0000
,  // measure 49
0010
0000
1001
0000
0010
0001
0100
0000
,  // measure 50
1000
0001
1000
0001
,  // measure 51
0010
0000
0100
0000
0001
0010
1000
0000
,  // measure 52
0001
0100
1000
0100
0001
0100
1000
0000
,  // measure 53
0010
0001
1000
0110
,  // measure 54
1000
0100
0001
0100
1000
0100
0001
0000
,  // measure 55
0010
1000
0001
0110
,  // measure 56
0001
1000
0100
0000
0001
1000
0010
0000
,  // measure 57
1000
0001
0010
0000
1000
0001
0100
0000
,  // measure 58
0010
1000
0001
0100
,  // measure 59
1001
0000
0100
0000
1000
1000
1000
0000
,  // measure 60
0001
0101
0010
1010
,  // measure 61
0001
0100
0010
0000
1000
0100
0010
0000
,  // measure 62
0001
0101
0010
1010
,  // measure 63
1001
0000
0110
0000
1000
0001
0100
0000
,  // measure 64
0010
1000
0001
0000
0100
0001
1000
0000
,  // measure 65
0010
1000
0001
0000
0100
0001
1000
0000
,  // measure 66
0100
0001
1000
0010
,  // measure 67
0011
0000
1100
0000
0010
0010
0010
0000
,  // measure 68
0001
0100
1000
0100
0001
0100
1000
0000
,  // measure 69
0001
0000
0100
0000
1000
0010
0001
0000
,  // measure 70
1000
0100
0001
0100
1000
0100
0001
0000
,  // measure 71
1000
0000
0100
0000
0001
0010
1000
0000
,  // measure 72
0001
0010
1000
0010
0001
0010
1000
0010
,  // measure 73
0001
0100
1000
0100
0001
0100
1000
0000
,  // measure 74
0010
0001
1000
0100
,  // measure 75
0011
0000
1100
0000
0001
0001
0001
0000
,  // measure 76
0100
1000
0010
1100
,  // measure 77
0100
0001
0010
0101
,  // measure 78
1000
1000
0001
0001
,  // measure 79
0101
1100
0101
1100
,  // measure 80
0001
0000
0010
0000
1000
0100
0001
0000
,  // measure 81
1000
0000
0010
0000
0001
0100
1000
0000
,  // measure 82
0001
0010
1000
0000
1000
0100
0001
0000
,  // measure 83
1000
0000
1000
0000
0010
0010
0010
0000
,  // measure 84
0100
0001
0100
1000
,  // measure 85
0100
0001
0100
1000
,  // measure 86
0100
0001
0100
1000
,  // measure 87
0100
0010
0001
0010
,  // measure 88
0100
1000
0001
0100
,  // measure 89
0010
0001
1000
0100
,  // measure 90
0010
0001
1000
0100
,  // measure 91
0010
1000
0001
0100
,  // measure 92
0010
0000
0100
0000
0010
0001
1000
0000
,  // measure 93
0010
0000
0100
0000
0010
1000
0001
0000
,  // measure 94
0100
0001
1000
0010
,  // measure 95
1000
0010
0001
0010
1000
0100
0001
0000
,  // measure 96
0010
0000
1001
0000
0010
1000
0100
0000
,  // measure 97
0010
0000
1001
0000
0010
0001
0100
0000
,  // measure 98
1000
0100
0010
0001
,  // measure 99
1010
0000
0101
0000
1000
0010
0001
0000
,  // measure 100
0100
0010
1000
0001
0100
0010
1000
0001
,  // measure 101
0100
0010
1000
0001
,  // measure 102
0100
0001
1000
0010
0100
0001
1000
0010
,  // measure 103
0100
0001
1000
0100
,  // measure 104
0010
0001
1000
0100
0010
0001
1000
0010
,  // measure 105
0100
0001
1000
0010
0100
0001
1000
0000
,  // measure 106
0010
0100
0001
1000
,  // measure 107
0010
0100
1001
0110
,  // measure 108
0100
0001
0010
0000
0100
0010
0001
0000
,  // measure 109
1000
0100
0010
0001
,  // measure 110
0100
1000
0010
0000
0100
0010
1000
0000
,  // measure 111
0011
1010
0110
0001
,  // measure 112
0100
0000
0010
0000
0100
0010
1000
0000
,  // measure 113
0100
0010
0001
0000
0100
0001
0010
0000
,  // measure 114
1000
0100
0010
0001
,  // measure 115
1010
0001
0101
1100
,  // measure 116
0001
0010
1000
0100
0001
0010
1000
0100
,  // measure 117
0001
0010
1000
0001
,  // measure 118
1000
0010
0001
0100
1000
0010
0001
0100
,  // measure 119
1000
0010
0001
1000
,  // measure 120
0100
1000
0001
0010
0100
1000
0001
0100
,  // measure 121
0010
1000
0001
0100
0010
1000
0001
0000
,  // measure 122
0010
1000
0001
0100
,  // measure 123
1001
0100
0011
1100
,  // measure 124
0001
0010
1000
0000
0001
0010
1000
0000
,  // measure 125
0100
0100
0010
0010
,  // measure 126
1000
0100
0001
0000
1000
0100
0001
0000
,  // measure 127
0010
0010
0100
0100
,  // measure 128
0010
1001
1100
0001
,  // measure 129
0100
1001
0011
1000
,  // measure 130
0100
0001
1000
0110
,  // measure 131
0101
0010
1001
0110
,  // measure 132
0001
0100
1000
0100
,  // measure 133
0001
0100
1000
0100
,  // measure 134
0001
0001
1000
1000
,  // measure 135
0001
0010
0100
1010
,  // measure 136
0001
0100
0010
0101
,  // measure 137
1000
0010
0100
1010
,  // measure 138
0001
0010
1000
0101
,  // measure 139
1000
0010
0100
1001
,  // measure 140
0010
1000
0100
0000
0010
0001
0100
0000
,  // measure 141
0010
1000
0100
0000
0010
0001
0100
0000
,  // measure 142
0001
0010
1000
1000
,  // measure 143
0011
0000
1100
0000
0010
0001
0100
0000
,  // measure 144
0010
1000
0001
0100
0010
1000
0001
0010
,  // measure 145
0100
1000
0001
0100
0010
1000
0001
0000
,  // measure 146
0010
0001
1000
0100
0010
0001
1000
0010
,  // measure 147
0100
0001
1000
0100
0010
0001
1000
0000
;
