#TITLE:Diamonds;
#SUBTITLE:;
#ARTIST:♪♪♪♪♪;
#TITLETRANSLIT:;
#SUBTITLETRANSLIT:;
#ARTISTTRANSLIT:(J-POP);
#GENRE:;
#CREDIT:;
#MUSIC:Diamonds.ogg;
#BANNER:Diamonds.png;
#BACKGROUND:Diamonds-bg.png;
#CDTITLE:;
#SAMPLESTART:77.847;
#SAMPLELENGTH:15;
#SELECTABLE:YES;
#OFFSET:-0.010;
#BPMS:0.000=111.000
,164.000=112.062
,176.000=111.000
,272.000=110.886
,300.000=111.042
,348.000=111.000
,400.000=112.061
,408.000=111.042
,416.000=110.889
,420.000=111.000
;
#STOPS:;
#DISPLAYBPM:111.000;
#BGCHANGES:;
#FGCHANGES:;

//--------------- dance-single - ----------------
#NOTES:
     dance-single:
     :
     Easy:
     2:
     0,0,0,0,0:
0000
0000
0000
0000
,
0000
0000
0000
0000
,
0000
0000
0000
0000
,
0000
0000
0000
0000
,
0000
0000
0000
0000
,
0000
0000
0000
0000
,
0000
0000
0000
0000
,
0000
0000
0000
0000
,
0001
1000
0010
0000
,
1000
0001
0010
0000
,
1000
1000
0001
0001
,
1000
0010
0100
0000
,
0010
1000
0001
0100
,
0100
0000
1000
0000
,
0010
0100
0010
0100
,
0001
0000
0010
0000
,
1000
0001
0010
0000
,
0001
1000
0010
0000
,
0001
0001
1000
1000
,
0001
0010
0100
0000
,
0010
0001
1000
0100
,
0100
0000
0001
0000
,
0010
0100
0010
0100
,
1000
0010
0001
0000
,
1000
0000
1000
0000
,
0001
0001
0010
0010
,
0001
0000
0001
0000
,
1000
1000
0100
0100
,
0001
0000
0001
0000
,
1000
1000
0100
0100
,
0001
0000
0001
0000
,
1000
1000
0010
0010
,
0100
0000
0010
0000
,
0100
0000
0010
0000
,
0100
0001
1000
0010
,
0100
0000
0000
0000
,
0010
0001
0010
1000
,
0010
0001
0010
1000
,
0001
0000
1000
0000
,
0010
1000
0001
0000
,
0100
1000
0001
0000
,
0010
1000
0001
0100
,
0001
0000
1000
0000
,
0010
0100
0001
0000
,
0010
1000
0010
0001
,
0010
1000
0010
0001
,
1000
0000
0001
0000
,
0010
0001
1000
0000
,
0100
0001
1000
0000
,
0010
0001
1000
0100
,
1000
0000
0001
0000
,
0010
0100
1000
0001
,
0100
0000
0000
0000
,
0100
0000
0000
0010
,
0100
0100
0100
0010
,
0100
0100
1000
0000
,
0001
0001
0001
0000
,
1000
1000
1000
0000
,
0010
0000
1000
0000
,
0100
0000
0001
0000
,
0001
1000
0010
0000
,
1000
0001
0010
0000
,
1000
1000
0001
0001
,
1000
0010
0100
0000
,
0010
1000
0001
0000
,
0100
0001
1000
0000
,
0010
0100
0010
0100
,
0001
0000
0010
0000
,
1000
0001
0010
0000
,
0001
1000
0010
0000
,
0001
0001
1000
1000
,
0001
0010
0100
0000
,
0010
0001
1000
0100
,
0100
1000
0001
0010
,
0010
0100
0010
0100
,
1000
0010
0001
0000
,
1000
0000
1000
0000
,
0001
0001
0010
0010
,
0001
0000
0001
0000
,
1000
1000
0100
0100
,
0001
0000
0001
0000
,
1000
1000
0100
0100
,
0001
0000
0001
0000
,
1000
1000
0100
0100
,
0010
0000
0100
0000
,
0010
0010
0100
0100
,
0010
0001
1000
0010
,
0100
0000
0000
0000
,
0010
0001
0010
1000
,
0010
0001
0010
1000
,
0001
0000
1000
0000
,
0010
1000
0001
0000
,
0100
1000
0001
0000
,
0010
1000
0001
0100
,
0001
0000
1000
0000
,
0010
0100
0001
0000
,
0010
1000
0010
0001
,
0010
1000
0010
0001
,
1000
0000
0001
0000
,
0010
0001
1000
0100
,
0100
0001
1000
0010
,
0010
0001
1000
0100
,
1000
0000
0001
0000
,
0010
0100
0001
0000
,
0100
1000
0100
0001
,
0100
1000
0100
0001
,
1000
0000
0001
0000
,
0100
0001
1000
0010
,
0010
0001
1000
0100
,
0100
0001
1000
0100
,
0001
0000
1000
0000
,
0010
0100
1000
0000
,
0100
0001
0100
1000
,
0100
0001
0100
1000
,
0001
0000
1000
0000
,
0100
1000
0001
0010
,
0010
1000
0001
0100
,
0100
1000
0001
0010
,
1000
1000
0001
0001
,
0010
1000
0010
0001
,
0010
0100
0001
0000
,
0100
1000
0100
0001
,
0100
0010
0001
0000
,
0010
1000
0010
0001
,
0010
0100
0001
0000
,
0100
1000
0100
0001
,
0100
0010
1000
0001
,
0010
1000
0010
0001
,
0010
0100
0001
0000
,
0100
1000
0100
0001
,
0100
0010
0001
0000
,
0010
1000
0010
0001
,
0010
0100
1000
0000
,
0100
0000
0100
0000
;

//--------------- dance-single - ----------------
#NOTES:
     dance-single:
     :
     Medium:
     4:
     0,0,0,0,0:
0000
0000
0000
0000
,
0000
0000
0000
0000
,
0000
0000
0000
0000
,
0000
0000
0000
0000
,
0000
0000
0000
0000
,
0000
0000
0000
0000
,
0010
0010
0100
0100
,
0001
0010
0100
1000
,
0010
0000
0010
0000
0001
0100
1000
0000
,
0010
0000
0010
0000
0001
0100
1000
0000
,
0001
0001
1000
1000
,
0010
0100
0010
1000
,
0001
0001
0001
0000
1000
1000
1000
0000
,
0010
0010
0100
0100
,
0010
1000
0100
0010
,
0001
0001
0010
1001
,
0010
0000
0010
0000
1000
0100
0001
0000
,
0010
0000
0010
0000
1000
0100
0001
0000
,
1000
1000
0001
0001
,
0010
0100
0010
0001
,
0010
0010
0010
0000
0100
0100
0100
0000
,
0001
0001
1000
1000
,
0010
0001
0100
0010
,
1000
0000
1000
0000
0001
0010
1000
0000
,
0001
0001
0001
0001
,
0010
1000
0100
0010
,
1000
1000
1000
1000
,
0100
0001
0010
0100
,
0001
0001
0001
0001
,
0010
1000
0100
0010
,
1000
1000
1000
1000
,
0100
0001
0010
0100
,
0010
0010
0000
0000
0001
1000
0100
0000
,
0010
0010
0000
0000
1000
0001
0100
0000
,
1000
1000
0001
0110
,
1001
0000
0000
0000
,
0001
0100
1000
0000
0001
0100
1000
0000
,
0001
0100
1000
0010
,
0001
0001
1000
1000
,
0010
0001
1000
0100
,
0001
0100
1000
0100
,
0010
0001
1000
0100
,
1001
0010
0100
0010
,
1000
0000
1000
0000
0010
0001
0100
0000
,
1000
0100
0001
0000
1000
0100
0001
0000
,
1000
0100
0001
0010
,
1000
1000
0001
0001
,
0010
1000
0001
0100
,
1000
0100
0001
0100
,
0010
1000
0001
0100
,
1001
0010
0100
0010
,
1000
0000
1000
0000
0010
0001
0100
0000
,
1001
0000
0000
0000
0000
0010
0100
0001
,
0000
0000
0000
0000
0010
0100
1000
0000
,
0001
0000
0001
0000
0001
0000
0100
0010
,
1000
0000
1000
0000
1000
0100
0010
0000
,
0001
0000
0001
0000
0001
0001
0001
0000
,
1000
0000
1000
0000
1000
1000
1000
0000
,
0010
1000
0100
0001
,
0010
0100
0010
0001
,
0100
0000
0100
0000
1000
0010
0001
0000
,
0100
0000
0100
0000
1000
0010
0001
0000
,
1000
1000
0001
0001
,
0010
0100
0010
0001
,
0010
1000
0100
0000
0010
0001
0100
0000
,
0001
0001
1000
1000
,
0010
0001
0100
0010
,
1000
0000
1000
0000
0001
0100
1000
0000
,
0100
0000
0100
0000
0001
0010
1000
0000
,
0100
0000
0100
0000
0001
0010
1000
0000
,
0001
0001
1000
1000
,
0010
0100
0010
0001
,
0010
0001
0100
0000
0010
1000
0100
0000
,
1000
1000
0001
0001
,
0010
1000
0100
0010
,
0001
0000
0001
0000
1000
0100
0001
0100
,
1000
1000
0010
0010
,
0001
0100
1000
0100
,
0001
0001
0010
0010
,
1000
0000
0100
0000
0001
0100
1000
0100
,
0001
0001
0010
0010
,
0100
1000
0001
0100
,
1000
1000
0010
0010
,
0100
0000
0001
0000
1000
0000
0000
0010
,
0100
0100
0000
0001
1000
1000
0000
0100
,
0010
0010
0000
1000
0001
0001
0000
0000
,
0010
0100
0010
1000
,
1001
0000
0000
0000
,
1000
0100
0001
0000
1000
0100
0001
0000
,
1000
0100
0001
0010
,
1000
1000
0001
0001
,
0010
1000
0001
0100
,
1000
0100
0001
0100
,
0010
1000
0001
0100
,
1001
0010
0100
0010
,
0001
0000
0001
0000
0010
1000
0100
0000
,
0001
0100
1000
0000
0001
0100
1000
0000
,
0001
0100
1000
0010
,
0001
0001
1000
1000
,
0010
0001
1000
0100
,
0001
0100
1000
0100
,
0010
0001
1000
0100
,
1001
0010
0100
0010
,
0001
0100
0001
0000
1000
0100
1000
0000
,
0010
0001
0100
0000
0010
1000
0100
0000
,
0010
0001
0100
0000
0010
1000
0100
0000
,
0010
0010
0100
0100
,
0010
0001
0100
0000
0010
1000
0100
0000
,
0001
0010
0100
1000
,
0010
0100
1000
0001
,
0100
0010
0001
1000
,
0010
0000
0010
0000
0100
0001
1000
0000
,
0010
1000
0100
0000
0010
0001
0100
0000
,
0010
1000
0100
0000
0010
0001
0100
0000
,
0010
0010
0100
0100
,
0010
1000
0100
0000
0010
0001
0100
0000
,
1000
0010
0100
0001
,
0010
0100
0001
1000
,
0100
0010
1000
0001
,
0010
0000
0010
0000
0001
0100
1000
0000
,
0010
0000
0010
0000
0001
0100
1000
0000
,
0010
0000
0010
0000
1000
0100
0001
0000
,
0010
0000
0010
0000
1000
0100
0001
0000
,
0010
1000
0001
0010
,
0100
0001
1000
0100
,
0001
0001
1000
1000
,
0001
0000
1000
0000
0010
0001
1000
0000
,
0100
0000
0100
0000
0001
0010
1000
0000
,
0100
0000
0100
0000
0001
0010
1000
0000
,
0100
0000
0100
0000
1000
0010
0001
0000
,
0100
0000
0100
0000
1000
0010
0001
0000
,
0100
0001
1000
0100
,
0010
0001
1000
0010
,
0001
0001
1000
1000
,
0001
0010
0100
1000
;

//--------------- dance-single - ----------------
#NOTES:
     dance-single:
     :
     Hard:
     7:
     0,0,0,0,0:
0000
0000
0000
0000
,
0000
0000
0000
0000
,
0000
0000
0000
0000
,
0000
0000
0000
0000
0000
0000
0001
1000
,
0100
0000
0100
0000
0100
0000
1000
0001
,
0010
0000
0010
0000
0010
0000
0001
1000
,
0100
0001
0010
1000
,
0100
0000
0001
0000
0010
0100
0001
1000
,
0010
0000
0100
0000
0001
1000
0001
0100
,
0010
0000
0100
0000
1000
0001
1000
0100
,
0001
0001
0010
0000
0100
0100
1000
0000
,
0010
1100
0010
0101
,
1000
0100
1000
0000
0010
0001
1000
0000
,
0001
0100
0001
0000
0100
1000
0001
0000
,
0100
1000
0010
0001
,
1000
0000
1000
0000
0001
0100
0010
0001
,
0010
0000
0100
0000
1000
0001
1000
0100
,
0010
0000
0100
0000
0001
1000
0001
0100
,
1000
1000
0010
0000
0100
0100
0001
0000
,
0010
0101
0010
1100
,
0001
0010
0001
0000
1000
0100
0001
0000
,
0001
0100
0001
0000
1000
0010
0001
0000
,
0100
0001
0010
1000
,
0001
0000
0001
0000
1000
0100
0010
0001
,
1000
0001
0010
0000
1000
0001
0010
0000
,
1000
0100
0010
0100
,
0001
1000
0010
0000
0001
1000
0010
0000
,
0001
0100
0010
0100
,
1000
0010
0100
0000
1000
0010
0100
0000
,
0001
0010
1000
0010
,
0001
0010
0100
0000
0001
0010
0100
0000
,
1000
0000
0100
0000
1001
0000
0000
0010
,
0100
0010
0000
1000
0001
1000
0000
0010
,
0001
0010
0000
0100
1000
0100
0000
0001
,
0100
1000
0010
0001
,
0110
0000
0000
0000
,
1000
0010
0100
0001
1000
0010
0100
1000
,
0001
0100
0010
1000
0001
0100
0010
0001
,
0001
1000
1000
0001
0010
0100
0001
1000
,
0001
0010
0100
0001
0010
0100
1000
0010
,
0010
0100
0100
0010
1000
0100
0010
0001
,
1000
0010
0001
0010
,
1000
0000
0100
0010
0001
0100
0010
1000
,
0001
0010
0100
1000
0010
0100
1000
0100
,
0001
0010
0100
1000
0001
0010
0100
0010
,
1000
0100
0010
0001
1000
0100
0010
0001
,
0001
1000
1000
0001
0010
0100
1000
0001
,
1000
0000
0100
0000
0010
0000
0001
0010
,
0010
0100
0100
0010
0001
0100
0010
1000
,
0001
0110
0101
1100
,
1001
0000
0100
0010
1000
0100
0010
0001
,
1000
1000
0001
0001
1000
0001
1000
0001
,
0010
0000
0000
0000
0000
1000
0001
1000
,
0010
0000
0000
0000
0001
0100
1000
0010
,
0000
0001
0000
0001
0000
0001
0000
0001
,
0000
1000
0000
1000
0000
1000
0010
0100
,
0001
1000
0100
0100
1000
0001
0100
0100
,
0001
0010
1000
0010
0001
0100
1000
0100
,
0001
0100
0001
1000
,
0010
0100
1000
0001
,
0010
0000
0100
0000
0001
1000
0001
0100
,
0010
0000
0100
0000
1000
0001
1000
0100
,
0001
0001
0010
0000
0100
0100
1000
0000
,
0001
0110
1000
0110
,
1000
0100
1000
0000
0010
0001
1000
0000
,
0001
0100
0001
0000
0100
1000
0001
0000
,
0100
1000
0010
0001
,
1000
0000
1000
0000
0001
0010
0100
1000
,
0010
0000
0100
0000
1000
0001
1000
0100
,
0010
0000
0100
0000
0001
1000
0001
0100
,
1000
1000
0010
0000
0100
0100
0001
0000
,
1000
0110
0001
0110
,
0001
0100
0001
0000
0010
1000
0001
0000
,
1000
0100
1000
0000
0100
0001
1000
0000
,
0100
0001
0010
1000
,
0001
0000
0001
0000
1000
0010
0100
0001
,
1000
0001
0010
0000
1000
0001
0010
0000
,
1000
0000
0100
0000
0010
1000
0010
0100
,
0001
1000
0010
0000
0001
1000
0010
0000
,
0001
0000
0100
0000
0010
0001
0010
0100
,
1000
0010
0100
0000
1000
0010
0100
1000
,
0001
0000
0010
0000
1000
0000
0010
0100
,
0001
0010
0100
0000
0001
0010
0100
0001
,
1000
0000
0100
0000
1001
0000
0000
1000
,
0100
1000
0000
0001
0100
0001
0000
1000
,
0010
0100
0000
0001
0010
0100
0000
1000
,
0010
0001
0100
1000
,
1001
0000
0000
0000
,
1000
0010
0100
0001
1000
0010
0100
1000
,
0001
0100
0010
1000
0001
0100
0010
0001
,
0001
1000
1000
0001
0010
0100
0001
1000
,
0001
0010
0100
0001
0010
0100
1000
0010
,
0010
0100
0100
0010
1000
0100
0010
0001
,
1000
0110
1001
0011
,
1010
0000
0100
0010
0001
0100
0010
1000
,
0001
0010
0100
1000
0010
0100
1000
0100
,
0001
0010
0100
1000
0001
0010
0100
0010
,
1000
0100
0010
0001
1000
0100
0010
0001
,
0001
1000
1000
0001
0010
0100
1000
0001
,
1000
0000
0100
0000
0010
0000
0001
0010
,
0010
0100
0100
0010
0001
0100
0010
1000
,
0001
0110
1000
0110
,
0001
0000
0100
0010
1000
0100
0010
0001
,
1000
0001
1000
0010
0001
0100
1000
0001
,
0010
0100
1000
0010
0100
0001
0010
0100
,
1000
0010
0100
0001
0010
0100
1000
0010
,
0010
0100
0100
0001
0010
1000
0100
0001
,
1000
0000
0100
0000
0001
0000
0100
1000
,
1000
0001
0001
0010
0100
0001
0010
1000
,
0010
1001
0010
1001
,
0110
0000
0001
0010
0100
1000
0010
0100
,
0001
0001
1000
1000
0001
1000
0001
1000
,
0010
0100
0001
0010
0100
1000
0010
0100
,
0001
0010
0100
1000
0010
0100
0001
0010
,
0010
0100
0100
1000
0010
0001
0100
1000
,
0001
0100
0001
1000
0100
1000
0010
0001
,
0001
1000
1000
0010
0100
1000
0010
0001
,
0010
1100
0010
0101
,
0110
0000
0001
0100
0010
1000
0001
0100
,
1000
0100
0001
0100
1000
0100
0001
0100
,
1000
0100
0001
0100
1000
0010
0001
0100
,
1000
0010
0001
0010
1000
0010
0001
0010
,
1000
0010
0001
0010
1000
0100
0001
0010
,
0100
1000
0001
0010
0100
0001
1000
0100
,
0010
1000
0001
0100
0010
0001
1000
0100
,
0000
0001
0000
0001
0000
0001
0000
0001
,
0000
1000
0000
1000
0000
1000
0100
0010
,
0001
0100
1000
0100
0001
0100
1000
0100
,
0001
0010
0100
1000
0001
0010
0100
0001
,
1000
0010
0001
0010
1000
0010
0001
0010
,
1000
0100
0010
0001
1000
0100
0010
1000
,
0001
0100
1000
0010
,
0001
0100
1000
0010
,
0100
0100
0100
0100
,
0100
0100
0100
0100
;
