#TITLE:Dance Into The Light;
#SUBTITLE:;
#ARTIST:♪♪♪♪♪;
#TITLETRANSLIT:;
#SUBTITLETRANSLIT:;
#ARTISTTRANSLIT:(ORIGINAL);
#GENRE:;
#CREDIT:;
#BANNER:Dance Into The Light.png;
#BACKGROUND:Dance Into The Light-bg.png;
#LYRICSPATH:;
#CDTITLE:;
#MUSIC:Dance Into The Light.ogg;
#OFFSET:-0.018000;
#SAMPLESTART:22.518000;
#SAMPLELENGTH:15.000000;
#SELECTABLE:YES;
#BPMS:0.000000=128.000000
;
#STOPS:
;
#BGCHANGES:;
#KEYSOUNDS:;
#ATTACKS:;

//---------------dance-single - ----------------
#NOTES:
     dance-single:
     :
     Easy:
     1:
     0.157494,0.317315,0.010738,0.000000,0.000000,308.000000,305.000000,3.000000,0.000000,0.000000,0.000000,0.157494,0.317315,0.010738,0.000000,0.000000,308.000000,305.000000,3.000000,0.000000,0.000000,0.000000:
// measure 0
0000
0000
0000
0000
,  // measure 1
0000
0000
0000
0000
,  // measure 2
0000
0000
0000
0000
,  // measure 3
0000
0000
0000
0000
,  // measure 4
0010
0000
0000
0000
,  // measure 5
1000
0000
1000
0000
,  // measure 6
1000
0000
1000
0000
,  // measure 7
0001
0000
0000
0000
,  // measure 8
0010
0000
0000
0000
,  // measure 9
0001
0000
0001
0000
,  // measure 10
0001
0000
0001
0000
,  // measure 11
0001
0000
0000
0000
,  // measure 12
0010
0000
0000
0000
,  // measure 13
0001
0000
1000
0000
,  // measure 14
0001
0000
0000
0000
,  // measure 15
0100
0000
0100
0000
,  // measure 16
0010
0000
0000
0000
,  // measure 17
1000
0000
0001
0000
,  // measure 18
1000
0000
0000
0000
,  // measure 19
0100
0000
0100
0000
,  // measure 20
0010
0000
0000
0000
,  // measure 21
1000
0000
1000
0000
,  // measure 22
0010
0000
0000
0000
,  // measure 23
0010
0000
0000
0000
,  // measure 24
0100
0000
1000
0000
,  // measure 25
0001
0000
0001
0000
,  // measure 26
0100
0000
0000
0000
,  // measure 27
0100
0000
0000
0000
,  // measure 28
0001
0010
0001
0000
,  // measure 29
0010
0001
0010
0000
,  // measure 30
1000
0000
1000
0000
,  // measure 31
0001
0000
0001
0000
,  // measure 32
1000
0010
1000
0000
,  // measure 33
0010
1000
0010
0000
,  // measure 34
0001
0000
0001
0000
,  // measure 35
1000
0000
1000
0000
,  // measure 36
0010
0000
0000
0000
,  // measure 37
1000
0000
0001
0000
,  // measure 38
0100
0000
0100
0000
,  // measure 39
0100
0000
0000
0000
,  // measure 40
0010
0000
0000
0000
,  // measure 41
0001
0000
1000
0000
,  // measure 42
0100
0000
0000
0000
,  // measure 43
0010
0000
0010
0000
,  // measure 44
0010
0000
0000
0000
,  // measure 45
0001
0000
1000
0000
,  // measure 46
0001
0000
0001
0000
,  // measure 47
1000
0000
1000
0000
,  // measure 48
0010
0000
0000
0000
,  // measure 49
1000
0000
0001
0000
,  // measure 50
1000
0000
1000
0000
,  // measure 51
0001
0000
0001
0000
,  // measure 52
1000
0100
1000
0000
,  // measure 53
0100
1000
0100
0000
,  // measure 54
0001
1000
0001
0000
,  // measure 55
1000
0001
1000
0000
,  // measure 56
0001
0100
0001
0000
,  // measure 57
0100
0001
0100
0000
,  // measure 58
1000
0001
1000
0000
,  // measure 59
0001
1000
0001
0000
,  // measure 60
0010
0100
0001
0000
,  // measure 61
0010
0100
0001
0000
,  // measure 62
0001
1000
0001
1000
,  // measure 63
0010
0000
0010
0000
,  // measure 64
0001
0000
0100
0000
,  // measure 65
1000
0000
0010
0000
,  // measure 66
0001
0000
1000
0000
,  // measure 67
0001
1000
0001
1000
,  // measure 68
0010
0000
0000
0000
,  // measure 69
0001
0000
0000
0000
,  // measure 70
0010
0000
0000
0000
,  // measure 71
1000
0000
0100
0000
,  // measure 72
0001
0000
0010
0000
,  // measure 73
1000
0000
0100
0000
,  // measure 74
0001
0000
0010
0000
,  // measure 75
1000
0000
0100
0000
,  // measure 76
0001
0000
1000
0000
,  // measure 77
0010
0000
0010
0000
,  // measure 78
0010
0000
0000
0000
,  // measure 79
0001
1000
0001
0100
,  // measure 80
1000
0000
0001
0000
,  // measure 81
0100
0000
0100
0000
,  // measure 82
0100
0000
0000
0000
,  // measure 83
1000
0001
1000
0010
,  // measure 84
0001
0000
0100
0000
,  // measure 85
1000
0000
0100
0000
,  // measure 86
0001
0000
0100
0000
,  // measure 87
1000
0000
0010
0000
,  // measure 88
0001
0000
0010
0000
,  // measure 89
1000
0000
1000
0000
,  // measure 90
0001
0000
0001
0000
,  // measure 91
0010
0000
0000
0000
,  // measure 92
1000
0000
0100
0000
,  // measure 93
0001
0000
0100
0000
,  // measure 94
1000
0000
0100
0000
,  // measure 95
0001
0000
0010
0000
,  // measure 96
1000
0000
0010
0000
,  // measure 97
0001
0000
0001
0000
,  // measure 98
1000
0000
1000
0000
,  // measure 99
0010
0000
0000
0000
,  // measure 100
1000
0100
0001
0000
,  // measure 101
1000
0100
0001
0000
,  // measure 102
1000
0100
0001
0100
,  // measure 103
1000
0000
0010
0000
,  // measure 104
0001
0010
1000
0000
,  // measure 105
0001
0010
1000
0000
,  // measure 106
0001
0010
1000
0010
,  // measure 107
0001
0000
1000
0000
,  // measure 108
0010
0000
0100
0000
,  // measure 109
1000
0000
1000
0000
,  // measure 110
1000
0000
1000
0000
,  // measure 111
0001
0000
0001
0000
,  // measure 112
0010
0000
0100
0000
,  // measure 113
0001
0000
0001
0000
,  // measure 114
0001
0000
0001
0000
,  // measure 115
1000
0000
1000
0000
,  // measure 116
0010
0000
0000
0000
,  // measure 117
0001
0000
1000
0000
,  // measure 118
0001
0000
0010
0000
,  // measure 119
0100
0000
0100
0000
,  // measure 120
0010
0000
0001
0000
,  // measure 121
1000
0000
0001
0000
,  // measure 122
1000
0000
0010
0000
,  // measure 123
0100
0000
0010
0000
,  // measure 124
1000
0010
0001
0000
,  // measure 125
0001
0010
1000
0000
,  // measure 126
0010
0000
0001
0000
,  // measure 127
0100
0000
1000
0000
,  // measure 128
0001
0100
1000
0000
,  // measure 129
1000
0100
0001
0000
,  // measure 130
0010
0000
1000
0000
,  // measure 131
0100
0000
0001
0000
,  // measure 132
0010
1000
0010
1000
,  // measure 133
0010
0010
0010
0000
,  // measure 134
0001
0100
0001
0100
,  // measure 135
0001
0001
0001
0000
,  // measure 136
0100
0000
1000
0000
,  // measure 137
0001
0000
0010
0000
,  // measure 138
1000
0000
0100
0000
,  // measure 139
0010
0000
0001
0000
,  // measure 140
1000
0000
0000
0000
,  // measure 141
0000
0000
0000
0000
,  // measure 142
0010
0000
0000
0000
,  // measure 143
0010
0000
0010
0000
,  // measure 144
0001
1000
0001
1000
,  // measure 145
0001
1000
0001
0110
,  // measure 146
1000
0001
1000
0001
,  // measure 147
1000
0001
0110
1001
;

//---------------dance-single - ----------------
#NOTES:
     dance-single:
     :
     Medium:
     3:
     0.264877,0.237987,0.000000,0.000000,0.000000,518.000000,518.000000,0.000000,0.000000,0.000000,0.000000,0.264877,0.237987,0.000000,0.000000,0.000000,518.000000,518.000000,0.000000,0.000000,0.000000,0.000000:
0000
0000
0000
0000
,
0000
0000
0000
0000
,
0000
0000
0000
0000
,
0000
0000
0000
0000
,
1000
0100
0001
0100
,
1000
0100
0001
0100
,
1000
0000
0001
0000
,
1000
0001
0010
1000
,
0001
0100
1000
0100
,
0001
0100
1000
0100
,
0001
0000
1000
0000
,
0010
0001
1000
0100
,
0001
0001
0010
0010
,
1000
0100
0001
0010
,
1000
1000
0100
0100
,
0001
0010
1000
0100
,
0001
0001
0000
0000
,
1000
1000
0000
0000
,
0001
0100
0010
1000
,
0001
0100
0010
1000
,
0001
0001
0010
0010
,
1000
0100
0001
0010
,
1000
1000
0100
0100
,
0001
0010
1000
0100
,
0001
0001
0000
0100
,
1000
1000
0000
0010
,
0001
0100
0010
1000
,
0001
0100
0010
1000
,
0001
0010
1000
0010
,
0001
0010
1000
0100
,
0010
0010
0100
0100
,
0010
0010
0100
0100
,
0001
0100
1000
0100
,
0001
0100
1000
0100
,
0001
0001
0001
0000
,
1000
1000
1000
0000
,
0001
0100
1000
0100
,
0001
0100
1000
0100
,
0001
0000
1000
0000
,
0001
1000
0010
0001
,
1000
0100
0001
0100
,
1000
0100
0001
0100
,
1000
0000
0001
0000
,
0010
1000
0001
0100
,
1000
1000
0010
0010
,
0001
0100
1000
0010
,
0001
0001
0100
0100
,
1000
0010
0001
0100
,
1000
1000
0000
0010
,
0001
0001
0000
0100
,
1000
0100
0010
0001
,
1000
0100
0010
0001
,
1000
0010
0001
0010
,
1000
0010
0001
0100
,
1000
1000
0001
0001
,
0010
0010
0100
0100
,
1000
0100
0001
0100
,
1000
0100
0001
0100
,
0010
0010
0010
0000
,
0100
0100
0100
0000
,
0010
0001
0010
0100
,
0010
0001
1000
0000
,
0010
1000
0010
0100
,
1000
1000
0001
0001
,
1000
0100
0001
0100
,
1000
0100
0001
0010
,
1000
0010
0010
1000
,
0001
0100
0100
0001
,
1000
0000
0000
0000
,
0010
0000
0000
0000
,
0001
0000
0100
0000
,
1000
0000
0010
0000
,
0001
0000
0100
1000
,
0010
0000
0001
1000
,
0100
0000
0010
1000
,
0001
0010
0100
1000
,
0001
0100
1000
0100
,
0001
0100
1000
0100
,
0001
0000
1000
0000
,
0001
1000
0010
0001
,
1000
0100
0001
0100
,
1000
0100
0001
0100
,
1000
0000
0001
0000
,
0010
1000
0001
0100
,
1000
1000
0010
0010
,
0001
0100
1000
0010
,
0001
0001
0100
0100
,
1000
0010
0001
0100
,
1000
1000
0000
0010
,
0001
0001
0000
0100
,
1000
0100
0010
0001
,
1000
0100
0010
0001
,
1000
1000
0010
0010
,
0001
0100
1000
0010
,
0001
0001
0100
0100
,
1000
0010
0001
0100
,
1000
1000
0100
0100
,
0001
0001
0010
0010
,
1000
0100
0010
0001
,
1000
0100
0010
0001
,
1000
0010
0001
0010
,
1000
0010
0001
0100
,
0010
0010
0100
0100
,
0010
0010
0100
0100
,
1000
0100
0001
0100
,
1000
0100
0001
0100
,
1000
1000
1000
0000
,
0001
0001
0001
0000
,
1000
0100
0001
0100
,
1000
0100
0001
0100
,
1000
0000
0001
0000
,
1000
0001
0010
1000
,
0001
0100
1000
0100
,
0001
0100
1000
0100
,
0001
0000
1000
0000
,
0010
0001
1000
0100
,
0001
0001
0010
0010
,
1000
0100
0001
0010
,
1000
1000
0100
0100
,
0001
0010
1000
0100
,
0001
0001
0001
0001
,
1000
1000
1000
1000
,
0001
0100
0100
0001
,
1000
0010
0010
1000
,
0001
0010
1000
0010
,
0001
0010
1000
0010
,
0001
0001
0100
0100
,
1000
1000
0010
0010
,
1000
0100
0001
0100
,
1000
0100
0001
0100
,
1000
0000
1000
0000
,
0001
0001
0001
0000
,
0010
1000
0001
0010
,
0100
0100
1000
0000
,
0010
0001
1000
0010
,
0100
0100
0001
0000
,
1000
1000
0100
0100
,
0001
0001
0100
0100
,
1000
0010
0001
0010
,
1000
0100
0001
1000
,
0010
0000
0000
0000
,
0100
0000
0010
0000
,
1000
0000
0001
0000
,
0010
1000
0100
0001
,
0010
0100
1000
0010
,
0100
0010
0001
0100
,
0010
0100
1000
0010
,
0100
0010
0001
1000
;

//---------------dance-single - ----------------
#NOTES:
     dance-single:
     :
     Hard:
     5:
     0.362544,0.423087,0.264877,0.000000,0.000000,709.000000,635.000000,74.000000,0.000000,0.000000,0.000000,0.362544,0.423087,0.264877,0.000000,0.000000,709.000000,635.000000,74.000000,0.000000,0.000000,0.000000:
0000
0000
0000
0000
,
0000
0000
0000
0000
,
0000
0000
0000
0000
,
0010
1001
0010
1100
,
0010
0001
0010
1000
,
0100
0001
0010
1000
,
0100
0001
0100
1000
,
0100
0011
0100
1010
,
0100
1000
0100
0001
,
0010
1000
0100
0001
,
0010
1000
0010
0001
,
0010
0000
1100
0000
0010
0001
0100
0000
,
0010
0001
0100
1000
,
0010
0001
1000
0010
,
0100
1000
0100
0010
,
0001
0100
0010
1000
,
0010
0001
0010
1000
,
0011
0100
1010
1001
,
0010
0001
0100
1000
,
0001
0000
1000
0000
0001
0010
0100
0000
,
0010
1000
0100
0001
,
0010
1000
0001
0010
,
0100
0001
0100
0010
,
1000
0100
0010
0001
,
0010
1000
0010
0001
,
1010
0100
0011
1001
,
0010
1000
0100
0001
,
1000
0001
1010
0101
,
0010
1000
0001
0100
0010
0000
0100
0000
,
0010
0001
1000
0100
0010
0000
0100
0000
,
0001
0100
1000
0100
,
0001
0010
1000
0010
,
0001
0010
1000
0100
0010
0000
0001
0000
,
1000
0010
0001
0100
0010
0000
1000
0000
,
0101
0000
1100
0000
,
0001
0010
0100
1000
,
0010
0001
0010
0100
,
1000
0011
0001
0110
,
0100
1000
0001
0010
,
1000
0100
0010
0001
,
0010
1000
0010
0100
,
0001
0011
1000
0110
,
0100
0001
1000
0010
,
0001
0100
0010
1001
,
0010
0100
1000
0100
,
0010
0001
0100
0010
,
1000
0001
0010
0100
,
0001
0010
1000
0010
0001
0100
1000
0000
,
0001
0010
1000
0100
,
0010
0001
0100
0010
,
0001
0010
0100
1000
,
0010
0010
0011
1100
,
0010
0001
1000
0100
0010
0000
0100
0000
,
0010
1000
0001
0100
0010
0000
0100
0000
,
1000
0100
0001
0100
,
1000
0010
0001
0010
,
1000
0010
0001
0100
0010
0000
1000
0000
,
0001
0010
1000
0100
0010
0000
0001
0000
,
1100
0000
0101
0000
,
1000
0010
0100
0000
,
0010
0001
0100
0000
1000
0010
0001
0000
,
1000
0100
0001
0010
0100
0001
0001
0000
,
0010
1000
0100
0000
0001
0010
1000
0000
,
0001
0100
1000
0010
0100
1000
1000
0000
,
0010
0100
0001
0000
,
0010
0100
1000
0000
,
0010
0100
0001
0000
0010
0100
1000
0000
,
0110
1001
0011
1100
,
0011
0001
0001
0001
,
1000
1000
1000
1100
,
0010
0010
0010
1001
,
0100
0011
0100
1010
,
0001
0100
0010
1100
,
0001
0100
0010
0101
,
1000
0100
0010
0101
,
1000
0100
0010
1100
,
0001
0010
0100
0010
,
1000
0001
0010
0100
,
1000
1010
0001
0011
,
0100
1001
0010
0110
,
1000
0010
0001
0010
,
0100
1000
0100
0001
,
0010
1001
0010
1100
,
1000
0000
0011
0000
0100
1000
0010
0000
,
0001
0100
1000
0010
,
1000
0100
0001
0010
,
0100
1000
0100
0001
,
1000
0101
0010
0101
,
0010
0100
0001
1000
,
0010
0001
1000
0100
,
0001
0010
0100
1000
,
0010
0100
0001
0001
,
1000
0100
0001
0010
,
0001
0100
1000
0010
,
0100
0001
0100
1000
,
0001
1100
0010
1100
,
0010
0100
1000
0001
,
0010
1000
0001
0100
,
1000
0010
0100
1000
,
0001
0010
0100
1000
0001
0000
0001
0000
,
0010
1000
0001
0010
0100
0000
1000
0000
,
0010
0001
1000
0010
0100
0000
0001
0000
,
0010
1100
0010
0101
,
0010
1000
0100
0001
,
0100
1000
0001
0010
1000
0000
1000
0000
,
0100
0001
1000
0010
0001
0000
0001
0000
,
0100
0001
1000
0100
,
0010
1001
1000
0110
,
0010
0001
0010
0100
,
1000
0011
0001
0110
,
0100
1000
0001
0010
,
1000
0100
0010
0001
,
0010
1000
0010
0100
,
0001
0011
1000
0110
,
0100
0001
1000
0010
,
0001
0100
0010
1001
,
0010
0100
1000
0100
,
0010
0001
0100
0010
,
1000
0001
0010
0100
,
0001
0010
1000
0010
0001
0100
1000
0000
,
0001
0010
1000
0100
,
0010
0001
0100
0010
,
0001
0010
0100
1000
,
0010
0010
0011
1100
,
0010
0001
1000
0100
0010
0000
0100
0000
,
0010
1000
0001
0100
0010
0000
0100
0000
,
1000
0100
0001
0100
,
1000
0010
0001
0010
,
1000
0010
0001
0100
0010
0000
1000
0000
,
0001
0010
1000
0100
0010
0000
0001
0000
,
1100
0000
0101
0000
,
1000
0010
0100
0000
,
0010
0001
0100
0000
1000
0010
0001
0000
,
1000
0100
0001
0010
0100
0001
0001
0000
,
0010
1000
0100
0000
0001
0010
1000
0000
,
0001
0100
1000
0010
0100
1000
1000
0000
,
0010
0100
0001
0000
,
0010
0100
1000
0000
,
0010
0100
0001
0000
0010
0100
1000
0000
,
0110
1001
0011
1100
,
0011
0001
0001
0001
,
1000
1000
1000
1100
,
0010
0010
0010
1001
,
0100
0011
0100
1010
,
0001
0100
0010
1100
,
0001
0100
0010
0101
,
1000
0100
0010
0101
,
1000
0100
0010
1001
;
