#VERSION:0.83;
#TITLE:In The End;
#SUBTITLE:;
#ARTIST:Linkin Park;
#TITLETRANSLIT:;
#SUBTITLETRANSLIT:;
#ARTISTTRANSLIT:;
#GENRE:;
#ORIGIN:;
#CREDIT:;
#BANNER:In The End.png;
#BACKGROUND:;
#PREVIEWVID:;
#JACKET:;
#CDIMAGE:;
#DISCIMAGE:;
#LYRICSPATH:;
#CDTITLE:;
#MUSIC:In The End.mp3;
#OFFSET:-7.943995;
#SAMPLESTART:45.236303;
#SAMPLELENGTH:17.820000;
#SELECTABLE:YES;
#BPMS:0.000=105.150;
#STOPS:;
#DELAYS:;
#WARPS:;
#TIMESIGNATURES:0.000=4=4;
#TICKCOUNTS:0.000=4;
#COMBOS:0.000=1;
#SPEEDS:0.000=1.000=0.000=0;
#SCROLLS:0.000=1.000;
#FAKES:;
#LABELS:0.000=Song Start;
#BGCHANGES:-14.040=In The End.mp4=1.000=0=0=1=====;
#KEYSOUNDS:;
#ATTACKS:
;

//---------------dance-single - ----------------
#NOTEDATA:;
#CHARTNAME:;
#STEPSTYPE:dance-single;
#DESCRIPTION:;
#CHARTSTYLE:;
#DIFFICULTY:Hard;
#METER:10;
#RADARVALUES:0.342832,0.407429,0.470704,0.092598,0.042441,311.000000,250.000000,61.000000,12.000000,0.000000,0.000000,0.000000,0.000000,0.000000,0.342832,0.407429,0.470704,0.092598,0.042441,311.000000,250.000000,61.000000,12.000000,0.000000,0.000000,0.000000,0.000000,0.000000;
#CREDIT:;
#NOTES:
// measure 0
0000
0000
0000
0000
,  // measure 1
0001
0011
0001
0000
0010
0100
0011
0000
,  // measure 2
0001
0010
0100
1000
0001
0010
0110
0000
,  // measure 3
0010
0100
1000
0001
0100
0010
1000
0100
,  // measure 4
0001
0100
0110
0000
1100
0000
1001
0000
,  // measure 5
0101
0000
0001
0100
0010
0001
0011
0000
,  // measure 6
0100
0010
1000
0100
0010
1000
1100
0000
,  // measure 7
0100
1000
0010
0001
0010
1000
0100
0001
,  // measure 8
0100
1000
0010
0000
1100
0000
1001
0000
,  // measure 9
1000
0000
0010
0000
1000
0000
0100
0000
0010
0000
0001
1000
0000
0000
1000
0000
,  // measure 10
0010
0000
1000
0000
0100
0000
0010
0001
0000
0001
0100
0000
1001
0000
0000
0000
,  // measure 11
1000
0000
0100
0000
0010
0000
0001
0000
1000
0000
0010
0000
1000
0000
0010
1000
,  // measure 12
0000
0010
0000
1000
0100
0000
0000
0000
1100
0000
0000
0000
0110
0000
0000
0000
,  // measure 13
0001
1000
0100
0010
0001
0100
0001
0010
,  // measure 14
0100
1000
0010
0100
0001
1000
0010
0001
,  // measure 15
0010
0000
1000
0000
0100
0000
0010
0000
0100
0001
0100
0000
1000
0000
0100
0010
,  // measure 16
0100
0000
0000
1000
1100
0100
0110
0010
,  // measure 17
0011
0000
0000
0000
0010
0000
0100
0000
0011
0000
0000
0110
0000
0000
2100
0000
,  // measure 18
0000
0000
0000
0000
3000
0110
0100
0220
,  // measure 19
0000
0000
0330
0001
0100
1000
0010
0110
,  // measure 20
0000
1100
0000
0001
0011
0010
0110
0100
,  // measure 21
1100
0000
0000
0000
0100
0000
0010
0000
1100
0000
0000
0110
0000
0000
0012
0000
,  // measure 22
0000
0000
0000
0000
0003
1001
0001
2002
,  // measure 23
0000
0000
3003
1000
0010
0001
0010
1000
,  // measure 24
0000
0010
0100
0020
0000
0100
0200
0000
,  // measure 25
0000
0330
0000
1000
0010
1000
0000
0110
,  // measure 26
0000
0000
0000
0000
0001
0010
0001
0001
,  // measure 27
0000
0010
0000
0000
0000
0010
0000
0001
,  // measure 28
0000
0100
0000
0010
1000
0100
0000
0110
,  // measure 29
0000
0000
0000
0000
0010
0100
0000
0100
,  // measure 30
0000
0000
0000
0100
1000
0010
0000
0010
,  // measure 31
0000
0100
0000
0001
0000
1000
0000
0020
,  // measure 32
0000
0000
0000
0000
0000
0000
0000
0100
,  // measure 33
0130
0000
0000
0010
0100
0010
0000
0000
,  // measure 34
1100
0000
0010
0001
0010
0100
1000
1100
,  // measure 35
0000
1100
0000
0000
0100
0110
0000
1100
,  // measure 36
0000
1001
0000
0101
0000
0110
0000
0011
,  // measure 37
0000
0000
0000
0000
0010
0011
0000
1100
,  // measure 38
0000
0000
0000
1000
0100
1000
0000
0110
,  // measure 39
0000
0011
0000
1001
0000
1010
0000
2100
,  // measure 40
0000
0000
0000
0000
0000
0000
0000
0100
,  // measure 41
3100
0000
0000
1000
1010
0010
0110
0100
,  // measure 42
0101
0000
1000
0000
0001
0000
1000
0000
0101
0000
0000
1001
0000
0000
1010
0000
,  // measure 43
1000
0100
1000
0100
1000
0110
0100
0110
,  // measure 44
0010
1000
0001
0010
0100
0010
0001
0100
,  // measure 45
1000
1100
0100
0101
1000
0100
0001
0100
,  // measure 46
0220
0000
0000
0000
,  // measure 47
0000
0000
0000
0000
,  // measure 48
0330
0000
0000
0000
;

//---------------dance-single - ----------------
#NOTEDATA:;
#CHARTNAME:;
#STEPSTYPE:dance-single;
#DESCRIPTION:;
#CHARTSTYLE:;
#DIFFICULTY:Beginner;
#METER:2;
#RADARVALUES:0.094802,0.124235,0.038582,0.038582,0.000000,86.000000,81.000000,5.000000,5.000000,0.000000,0.000000,0.000000,0.000000,0.000000,0.094802,0.124235,0.038582,0.038582,0.000000,86.000000,81.000000,5.000000,5.000000,0.000000,0.000000,0.000000,0.000000,0.000000;
#CREDIT:;
#NOTES:
// measure 0
0000
0000
0000
0000
,  // measure 1
0010
0000
0000
0100
,  // measure 2
0000
0000
0000
1000
,  // measure 3
0000
0000
0010
0000
,  // measure 4
0100
0000
0010
0010
,  // measure 5
0010
0000
1000
0000
,  // measure 6
0100
0000
0010
0000
,  // measure 7
0001
0000
0100
0000
,  // measure 8
0010
0000
1000
1000
,  // measure 9
1000
0000
0001
0000
,  // measure 10
0100
0000
0010
0000
,  // measure 11
1000
0000
0100
0000
,  // measure 12
1000
0000
0010
0010
,  // measure 13
0020
0000
0000
0000
,  // measure 14
0100
0000
0000
0000
,  // measure 15
0130
0000
0010
0000
,  // measure 16
1000
0000
0001
0001
,  // measure 17
0101
0000
0100
0000
,  // measure 18
0020
0000
0030
0000
,  // measure 19
0010
0000
0001
0000
,  // measure 20
0100
0000
0010
0000
,  // measure 21
1000
0000
0001
0000
,  // measure 22
1000
0000
0010
0000
,  // measure 23
2000
0000
3000
0000
,  // measure 24
0001
0000
0100
0000
,  // measure 25
0100
0000
0001
0000
,  // measure 26
1100
0000
0000
0000
,  // measure 27
0010
0000
0000
0000
,  // measure 28
0100
0000
0000
0000
,  // measure 29
1000
0000
0000
0000
,  // measure 30
0010
0000
0000
0000
,  // measure 31
1000
0000
0000
0000
,  // measure 32
0002
0000
0000
0000
,  // measure 33
1003
0000
0000
0000
,  // measure 34
0110
0000
0100
0000
,  // measure 35
0001
0000
1000
0000
,  // measure 36
0010
0000
1000
0000
,  // measure 37
0110
0000
1000
0000
,  // measure 38
0010
0000
1000
0000
,  // measure 39
0010
0000
1000
0000
,  // measure 40
0200
0000
0000
0000
,  // measure 41
0301
0000
1000
1000
,  // measure 42
1100
0000
0100
0000
,  // measure 43
0010
0000
1000
0000
,  // measure 44
0001
0000
0100
0000
,  // measure 45
0010
0000
1000
0000
,  // measure 46
0001
0000
0000
0000
;

//---------------dance-single - ----------------
#NOTEDATA:;
#CHARTNAME:;
#STEPSTYPE:dance-single;
#DESCRIPTION:;
#CHARTSTYLE:;
#DIFFICULTY:Easy;
#METER:4;
#RADARVALUES:0.189605,0.212974,0.162046,0.054015,0.000000,172.000000,151.000000,21.000000,7.000000,0.000000,0.000000,0.000000,0.000000,0.000000,0.189605,0.212974,0.162046,0.054015,0.000000,172.000000,151.000000,21.000000,7.000000,0.000000,0.000000,0.000000,0.000000,0.000000;
#CREDIT:;
#NOTES:
// measure 0
0000
0000
0000
0000
,  // measure 1
0010
1000
0001
0110
,  // measure 2
1000
0100
0010
1100
,  // measure 3
0001
1000
0010
1000
,  // measure 4
0100
0011
0010
0010
,  // measure 5
0110
1000
0001
1000
,  // measure 6
0010
1000
0010
1010
,  // measure 7
0010
0001
0010
0001
,  // measure 8
1000
0010
0100
0100
,  // measure 9
0110
1000
0001
1100
,  // measure 10
0001
0010
0100
0110
,  // measure 11
1000
0001
0100
0010
,  // measure 12
1000
1001
0010
0010
,  // measure 13
0021
0001
0001
0001
,  // measure 14
0031
0100
0010
0001
,  // measure 15
0100
1000
0010
0001
,  // measure 16
1100
0000
0001
0100
,  // measure 17
0101
0010
0100
0001
,  // measure 18
0120
0000
0130
1000
,  // measure 19
0010
0100
0001
1000
,  // measure 20
0200
0000
0310
0100
,  // measure 21
1100
0010
0001
0100
,  // measure 22
0200
0000
0000
0310
,  // measure 23
1000
0100
0001
0100
,  // measure 24
0001
1000
0100
0201
,  // measure 25
0000
0000
0300
0000
,  // measure 26
0110
0000
0001
0000
,  // measure 27
0010
0000
1000
0000
,  // measure 28
0100
0000
0001
0000
,  // measure 29
1000
0000
0100
0000
,  // measure 30
0010
0000
0001
0000
,  // measure 31
1000
0000
0100
0000
,  // measure 32
0002
0000
0000
0000
,  // measure 33
1003
0000
0100
0000
,  // measure 34
0110
1000
0100
0010
,  // measure 35
0001
0100
1000
0001
,  // measure 36
0010
0100
1000
0001
,  // measure 37
0010
0001
1000
0100
,  // measure 38
0010
0100
1000
0001
,  // measure 39
0010
0001
1000
0001
,  // measure 40
0200
0000
0000
0000
,  // measure 41
0301
0000
1000
0100
,  // measure 42
1100
0001
0100
1000
,  // measure 43
0110
0001
1000
0100
,  // measure 44
0011
1000
0100
0001
,  // measure 45
0010
0100
0001
1000
,  // measure 46
0011
0000
0000
0000
;

//---------------dance-single - ----------------
#NOTEDATA:;
#CHARTNAME:;
#STEPSTYPE:dance-single;
#DESCRIPTION:;
#CHARTSTYLE:;
#DIFFICULTY:Medium;
#METER:6;
#RADARVALUES:0.232596,0.259273,0.115747,0.084881,0.011575,211.000000,196.000000,15.000000,11.000000,0.000000,0.000000,0.000000,0.000000,0.000000,0.232596,0.259273,0.115747,0.084881,0.011575,211.000000,196.000000,15.000000,11.000000,0.000000,0.000000,0.000000,0.000000,0.000000;
#CREDIT:;
#NOTES:
// measure 0
0000
0000
0000
0000
,  // measure 1
0110
0000
1000
0000
0001
1000
0010
0000
,  // measure 2
1000
0000
0100
0000
0010
0001
0100
0000
,  // measure 3
0001
0000
1000
0000
0010
0100
1000
0000
,  // measure 4
0100
1100
0010
0100
,  // measure 5
0101
0000
0010
0000
0001
0100
0010
0000
,  // measure 6
1000
0000
0001
0000
0100
0010
1000
0000
,  // measure 7
0001
0000
0100
0000
0010
0100
0001
0000
,  // measure 8
1000
0001
0010
0010
,  // measure 9
1010
0000
0001
0010
0100
0000
0100
0000
,  // measure 10
0010
0000
0100
0000
1000
0001
0010
0000
,  // measure 11
0001
0000
0100
0000
0010
0100
1000
0000
,  // measure 12
0001
0100
1000
0000
2000
0000
3200
0000
,  // measure 13
0320
0001
0001
0001
,  // measure 14
0031
0000
0100
0000
0010
1000
0001
0000
,  // measure 15
0100
0001
1000
0000
0010
0100
0001
0000
,  // measure 16
1100
0000
0100
0000
0001
0010
0100
0000
,  // measure 17
0101
0000
0000
0000
0010
0000
0000
0000
0100
0000
0000
0100
0000
0000
0200
0000
,  // measure 18
0000
0000
0000
0000
0300
1000
0001
1000
,  // measure 19
0000
0000
0000
0100
0010
0100
0010
0100
,  // measure 20
0000
0110
0000
1000
0010
0000
0100
0000
,  // measure 21
1100
0000
0000
0000
0000
0000
0100
0000
0001
0000
0000
0001
0000
0000
0002
0000
,  // measure 22
0000
0000
0000
0000
0003
0100
0010
0100
,  // measure 23
0000
0000
0000
1000
0001
1000
0001
1000
,  // measure 24
0000
0001
0100
1000
0000
0100
0200
0000
,  // measure 25
0000
0000
0300
0100
0010
1000
0000
0110
,  // measure 26
0000
0000
0001
0100
,  // measure 27
0010
0000
1000
0000
0100
0000
1000
1000
,  // measure 28
1000
0010
0001
0100
,  // measure 29
1000
0000
0010
0000
0100
0000
0001
0001
,  // measure 30
0001
1000
0001
0100
,  // measure 31
0010
0000
0100
0000
0001
0000
1000
1000
,  // measure 32
2000
0000
0100
0000
,  // measure 33
3001
0000
0000
0001
0100
1000
0000
0000
,  // measure 34
0110
1000
0100
0010
,  // measure 35
0101
0000
0100
0000
1000
0100
0000
0010
,  // measure 36
0000
1000
0000
0010
1000
0010
0000
0110
,  // measure 37
0000
0000
0000
0000
1000
0001
0000
1001
,  // measure 38
0000
0000
0000
0001
1000
0100
0000
1000
,  // measure 39
0000
0010
0000
1000
0000
0001
0000
0200
,  // measure 40
0000
0000
0000
0000
0000
0000
0000
0300
,  // measure 41
0101
0000
0000
0100
0010
0000
1000
0000
,  // measure 42
1100
0000
0000
0000
0000
0000
0010
0000
0100
0000
0000
0100
0000
0000
0200
0000
,  // measure 43
0000
0000
0000
0000
0300
1000
0100
1000
,  // measure 44
0000
0000
0000
1000
0100
0010
0001
1000
,  // measure 45
0000
0010
0100
0001
0000
1000
2000
0000
,  // measure 46
0002
0000
0000
0000
,  // measure 47
0000
0000
0000
0000
,  // measure 48
3003
0000
0000
0000
;
