#VERSION:0.83;
#TITLE:I'm Free (Heaven Helps The Man);
#SUBTITLE:;
#ARTIST:Kenny Loggins;
#TITLETRANSLIT:;
#SUBTITLETRANSLIT:;
#ARTISTTRANSLIT:;
#GENRE:;
#ORIGIN:;
#CREDIT:;
#BANNER:I'm Free.png;
#BACKGROUND:;
#PREVIEWVID:;
#JACKET:;
#CDIMAGE:;
#DISCIMAGE:;
#LYRICSPATH:;
#CDTITLE:;
#MUSIC:I'm Free.mp3;
#OFFSET:-1.533000;
#SAMPLESTART:39.696381;
#SAMPLELENGTH:12.199998;
#SELECTABLE:YES;
#BPMS:0.000=160.120;
#STOPS:;
#DELAYS:;
#WARPS:;
#TIMESIGNATURES:0.000=4=4;
#TICKCOUNTS:0.000=4;
#COMBOS:0.000=1;
#SPEEDS:0.000=1.000=0.000=0;
#SCROLLS:0.000=1.000;
#FAKES:;
#LABELS:0.000=Song Start;
#BGCHANGES:-6.500=I'm Free.mp4=1.000=0=0=0=StretchNoLoop====,
99999=-nosongbg-=1.000=0=0=0 // don't automatically add -songbackground-
;
#KEYSOUNDS:;
#ATTACKS:
;

//---------------dance-single - ----------------
#NOTEDATA:;
#CHARTNAME:;
#STEPSTYPE:dance-single;
#DESCRIPTION:;
#CHARTSTYLE:;
#DIFFICULTY:Hard;
#METER:10;
#RADARVALUES:0.433636,0.467072,0.338189,0.445420,0.000000,368.000000,327.000000,41.000000,54.000000,0.000000,0.000000,0.000000,0.000000,0.000000,0.433636,0.467072,0.338189,0.445420,0.000000,368.000000,327.000000,41.000000,54.000000,0.000000,0.000000,0.000000,0.000000,0.000000;
#CREDIT:;
#NOTES:
0000
0000
0000
0000
,
0000
0000
0000
0000
,
0000
0000
0000
0000
,
0001
0000
1000
0010
0000
0010
1000
0000
,
0001
0010
0100
0010
,
0110
0000
0002
0000
,
0000
1003
0100
0002
0000
0000
0000
0000
,
0003
0100
1000
0020
0000
0000
0000
0000
,
0000
1030
0010
0001
,
0011
0000
0000
0000
1000
0010
1000
0000
,
0002
0000
0203
0000
0301
0010
0200
0000
,
2300
3002
0023
1030
,
0010
1000
0010
1000
0010
1000
0010
1000
,
0010
1000
0010
0000
0001
0100
0001
0000
,
2000
0000
3200
0000
0310
0000
0001
0010
,
0200
0320
0032
1003
,
0100
0001
0100
0001
0100
0001
0100
0001
,
0100
0001
0100
0020
0000
0000
0031
0010
,
1000
1010
0220
0330
,
0000
0000
0010
1000
,
0001
0000
0010
0200
0000
1300
1000
0001
,
1000
0000
0001
1000
0000
0100
1000
0000
,
1100
0000
0001
1000
0000
0010
1000
0000
,
1010
0000
0100
1000
0000
0010
1000
0000
,
0101
0000
0001
1000
0000
0010
1000
0000
,
1010
0000
1010
0000
0001
1000
0001
0010
,
0000
0000
1000
0001
0010
0100
0000
0000
,
0002
0000
1003
0000
0011
0000
0000
1001
,
0000
0000
0202
0000
0000
0303
0001
0010
,
0100
1000
0001
1000
0020
0000
0000
0200
,
0030
0000
0310
1000
0001
0010
0000
0000
,
0020
0000
0002
0030
2000
0003
0000
3000
,
0011
0000
0110
0000
1100
0000
0001
1000
,
0001
0010
0001
0010
0001
0000
0001
1000
,
0000
0010
0100
0000
0001
1000
0000
0100
,
0010
0000
0001
0000
1100
0000
0000
0110
,
0000
0000
1001
0000
0001
0010
0100
1000
,
0001
0010
0100
1000
0001
0000
0001
0010
,
0000
0100
1000
0000
0001
0010
0000
0100
,
1000
0010
0022
0033
,
1100
0110
0022
0000
,
0030
0000
0000
0000
1003
1000
0001
0010
,
0100
0010
0001
0010
0100
0000
0100
2000
,
0000
0000
3001
0000
0001
0020
0000
0000
,
0130
0000
0100
2000
0000
0000
3001
0000
,
0001
0200
0000
0000
0310
0000
0010
2000
,
0000
0000
3010
0000
0100
0010
0001
0000
,
0020
0000
0000
0230
0000
0000
0301
0000
,
1000
0100
0010
0000
1000
0100
0010
0001
,
2000
0000
0000
0000
0002
0000
0000
3003
,
0001
0010
0001
2000
0000
0000
0000
0001
,
0000
0000
0000
0000
0000
0000
0000
0000
0000
3000
0000
0000
0000
0000
0000
0000
0100
0000
0000
0000
0000
0000
0000
0000
0000
0000
0000
0000
0000
0000
0000
0000
0001
0000
0000
0000
0000
0000
0000
0000
0000
0000
0000
0000
0000
0000
0000
0000
0010
0000
0000
0000
0000
0000
0000
0000
0100
0000
0000
0000
0000
0000
0000
0000
,
1000
0001
0021
0001
,
0001
0001
0031
1000
,
0010
0000
0001
0020
0000
0000
0000
0000
,
0000
0030
0100
1000
0000
0001
0010
0000
,
0110
0000
0001
1000
0000
0100
1000
0000
,
1001
0000
0010
1000
0000
0001
0010
0000
,
0110
0000
0001
1000
0000
0100
0010
0000
,
1001
0000
1001
0000
1000
0001
1000
0100
,
0000
0000
0001
1000
0100
0010
0000
0000
,
2000
0000
3001
0000
1100
0000
0000
1001
,
0000
0000
2020
0000
0000
3030
1000
0100
,
0010
0001
1000
0001
0200
0000
0000
0020
,
0300
0000
0130
0001
1000
0100
0000
0000
,
0200
0000
2000
0300
0002
3000
0000
0003
,
0011
0000
0110
0000
1010
0000
1000
0001
,
1000
0100
1000
0100
1000
0000
1000
0001
,
0000
0100
0010
0000
1000
0001
0000
0010
,
0100
0000
1000
0000
0011
0000
0000
0110
,
0000
0000
1001
0000
1000
0100
0010
0001
,
1000
0100
0010
0001
1000
0000
1000
0100
,
0000
0010
0001
0000
1000
0100
0000
0010
,
0001
0100
2200
3300
,
0011
0110
2200
0000
,
0000
0000
3300
0000
;

//---------------dance-single - ----------------
#NOTEDATA:;
#CHARTNAME:;
#STEPSTYPE:dance-single;
#DESCRIPTION:;
#CHARTSTYLE:;
#DIFFICULTY:Easy;
#METER:5;
#RADARVALUES:0.176754,0.247455,0.049491,0.230958,0.000000,150.000000,144.000000,6.000000,28.000000,0.000000,0.000000,0.000000,0.000000,0.000000,0.176754,0.247455,0.049491,0.230958,0.000000,150.000000,144.000000,6.000000,28.000000,0.000000,0.000000,0.000000,0.000000,0.000000;
#CREDIT:;
#NOTES:
// measure 0
0000
0000
0000
0000
,  // measure 1
0000
0000
0000
0000
,  // measure 2
0000
0000
0000
0000
,  // measure 3
0000
0000
0000
0000
,  // measure 4
0001
0000
0000
0000
,  // measure 5
0001
0000
0200
0000
,  // measure 6
0000
0000
0000
2000
0300
0000
0000
0000
,  // measure 7
0000
0000
0000
3002
0000
0000
0000
0000
,  // measure 8
0000
0000
0000
0003
0100
0000
0000
0000
,  // measure 9
0010
0000
0100
0000
,  // measure 10
1000
0000
0001
0000
,  // measure 11
0100
0000
1000
0000
,  // measure 12
0002
0000
0023
0000
,  // measure 13
0032
0000
1003
0000
,  // measure 14
0001
0000
0010
0000
,  // measure 15
1000
0000
0001
0000
,  // measure 16
0020
0000
0032
0000
,  // measure 17
2003
0000
3010
0000
,  // measure 18
0100
0010
0110
0000
,  // measure 19
0000
0000
0001
0010
,  // measure 20
0100
0000
0000
1000
0000
0000
0000
0000
,  // measure 21
0000
0000
0000
0002
0000
0000
0000
0000
,  // measure 22
0003
0000
0010
0000
,  // measure 23
0110
0000
1000
0000
,  // measure 24
1100
0000
0000
0020
0000
0000
0000
0030
,  // measure 25
2000
0000
3000
0000
0010
0000
0000
0100
,  // measure 26
0000
0000
0001
0000
0000
0010
0000
0000
,  // measure 27
1000
0000
0100
0000
1000
0000
0000
0010
,  // measure 28
0000
0020
0000
0000
,  // measure 29
0000
0000
0030
0000
0001
0000
0000
0100
,  // measure 30
0000
0000
0010
0000
0000
0100
0000
0000
,  // measure 31
0100
0010
0100
0000
,  // measure 32
0200
0000
0302
0000
,  // measure 33
0003
0000
0000
0000
0010
0000
0000
0100
,  // measure 34
0000
0000
0001
0000
0000
1000
0000
0000
,  // measure 35
0001
0000
0100
0000
0001
0000
0000
0010
,  // measure 36
0000
0020
0000
0000
,  // measure 37
0000
0000
0030
0000
1000
0000
0000
0100
,  // measure 38
0000
0000
0010
0000
0000
0001
0000
0000
,  // measure 39
0100
1000
0100
0000
,  // measure 40
0001
0100
0200
0000
,  // measure 41
0000
0000
0310
0000
,  // measure 42
1000
0000
0000
0000
0010
0000
0000
0010
,  // measure 43
0000
0000
0100
0000
0000
0100
0000
0000
,  // measure 44
0010
0000
0000
0010
0000
0000
2000
0000
,  // measure 45
0000
0000
0000
0020
3000
0000
0000
0000
,  // measure 46
0000
0030
1000
0000
,  // measure 47
0002
0000
0000
0003
,  // measure 48
1000
0000
0100
0000
,  // measure 49
0002
0000
0020
0000
,  // measure 50
0003
0000
0230
0000
,  // measure 51
0000
0300
1000
0000
,  // measure 52
0001
0000
0110
0000
,  // measure 53
0000
0000
0001
0010
,  // measure 54
1000
0000
0000
1100
0000
0000
0000
0000
,  // measure 55
0000
0000
0000
0100
0000
0000
0000
0000
,  // measure 56
1000
0000
0000
0010
0000
0000
0000
0000
,  // measure 57
1000
0000
0000
0000
,  // measure 58
0001
0000
0000
0000
,  // measure 59
0010
0000
0010
0000
0100
0000
0000
0010
,  // measure 60
0000
0000
0100
0000
0000
1000
0000
0000
,  // measure 61
0100
0000
0010
0000
0100
0000
0000
1000
,  // measure 62
0000
0002
0000
0000
,  // measure 63
0000
0000
0003
0000
0010
0000
0000
1000
,  // measure 64
0000
0000
0001
0000
0000
0010
0000
0000
,  // measure 65
0100
1000
0100
0000
,  // measure 66
0001
0010
0020
0000
,  // measure 67
0000
0000
0000
0000
1030
0000
0000
0010
,  // measure 68
0000
0000
0100
0000
0000
0001
0000
0000
,  // measure 69
0010
0000
0100
0000
0010
0000
0000
0001
,  // measure 70
0000
2000
0000
0000
,  // measure 71
0000
0000
3000
0000
0010
0000
0000
1000
,  // measure 72
0000
0000
0001
0000
0000
0010
0000
0000
,  // measure 73
0001
0100
0001
0000
,  // measure 74
1000
0001
2002
0000
,  // measure 75
3003
0000
0000
0000
;

//---------------dance-single - ----------------
#NOTEDATA:;
#CHARTNAME:;
#STEPSTYPE:dance-single;
#DESCRIPTION:;
#CHARTSTYLE:;
#DIFFICULTY:Beginner;
#METER:2;
#RADARVALUES:0.102517,0.186210,0.032994,0.123728,0.000000,87.000000,83.000000,4.000000,15.000000,0.000000,0.000000,0.000000,0.000000,0.000000,0.102517,0.186210,0.032994,0.123728,0.000000,87.000000,83.000000,4.000000,15.000000,0.000000,0.000000,0.000000,0.000000,0.000000;
#CREDIT:;
#NOTES:
// measure 0
0000
0000
0000
0000
,  // measure 1
0000
0000
0000
0000
,  // measure 2
0000
0000
0000
0000
,  // measure 3
0000
0000
0000
0000
,  // measure 4
0000
0000
0001
0000
,  // measure 5
0000
0000
0020
0000
,  // measure 6
0000
0000
0000
0000
,  // measure 7
0030
0002
0000
0000
,  // measure 8
0000
0000
0000
0003
,  // measure 9
0000
0000
0100
0000
,  // measure 10
0000
0000
1000
0000
,  // measure 11
0000
0000
2000
0000
,  // measure 12
3000
0000
0000
0000
,  // measure 13
0010
0000
1000
0000
,  // measure 14
1000
0000
0001
0000
,  // measure 15
0010
0000
0200
0000
,  // measure 16
0300
0000
1000
0000
,  // measure 17
1000
0000
0000
0000
,  // measure 18
0010
0000
0110
0000
,  // measure 19
0000
0000
0000
0000
,  // measure 20
0001
0000
0011
0000
,  // measure 21
0000
0000
0000
0000
,  // measure 22
0001
0000
0000
0000
,  // measure 23
1000
0000
0000
0000
,  // measure 24
0010
0000
0000
0000
,  // measure 25
0100
0000
0010
0000
,  // measure 26
0000
0010
0000
0000
,  // measure 27
0001
0000
1000
0000
,  // measure 28
0000
0002
0000
0000
,  // measure 29
0003
0000
0001
0000
,  // measure 30
0000
0001
0000
0000
,  // measure 31
0000
0000
0001
0000
,  // measure 32
0000
0000
0020
0000
,  // measure 33
0000
0000
0031
0000
,  // measure 34
0000
0010
0000
0000
,  // measure 35
0100
0000
0100
0000
,  // measure 36
0000
0002
0000
0000
,  // measure 37
0003
0000
1000
0000
,  // measure 38
0000
0010
0000
0000
,  // measure 39
0100
0000
1000
0000
,  // measure 40
0000
0000
0020
0000
,  // measure 41
0000
0030
0000
0000
,  // measure 42
1000
0000
0000
0000
,  // measure 43
0010
0000
0000
1000
,  // measure 44
0000
0000
0010
0000
,  // measure 45
0000
0001
0000
0000
,  // measure 46
0100
0000
0000
0010
,  // measure 47
0000
2000
0000
0000
,  // measure 48
3002
0000
0000
0023
,  // measure 49
0000
0000
0030
0000
,  // measure 50
1000
0000
0200
0000
,  // measure 51
0000
0000
1300
0000
,  // measure 52
1000
0000
1001
0000
,  // measure 53
0000
0000
0010
0000
,  // measure 54
1000
0000
1010
0000
,  // measure 55
0000
0000
0100
0000
,  // measure 56
0001
0000
0000
0000
,  // measure 57
1000
0000
0000
0000
,  // measure 58
0010
0000
0000
0000
,  // measure 59
0001
0000
0010
0000
,  // measure 60
0000
0000
0000
1000
,  // measure 61
0000
0000
0010
0000
,  // measure 62
0000
2000
0000
0000
,  // measure 63
0000
3000
0010
0000
,  // measure 64
0000
1000
0000
0000
,  // measure 65
0000
0000
0010
0000
,  // measure 66
0000
0000
0100
0000
,  // measure 67
0000
0000
1000
0000
,  // measure 68
0000
0010
0000
0000
,  // measure 69
0000
0000
1000
0000
,  // measure 70
0000
0200
0000
0000
,  // measure 71
0300
0000
0001
0000
,  // measure 72
0000
1000
0000
0001
,  // measure 73
0000
1000
0000
0010
,  // measure 74
0000
0100
0200
0000
,  // measure 75
0000
0300
0000
0000
;

//---------------dance-single - ----------------
#NOTEDATA:;
#CHARTNAME:;
#STEPSTYPE:dance-single;
#DESCRIPTION:;
#CHARTSTYLE:;
#DIFFICULTY:Medium;
#METER:7;
#RADARVALUES:0.255704,0.371183,0.230958,0.263952,0.000000,217.000000,189.000000,28.000000,32.000000,0.000000,0.000000,0.000000,0.000000,0.000000,0.255704,0.371183,0.230958,0.263952,0.000000,217.000000,189.000000,28.000000,32.000000,0.000000,0.000000,0.000000,0.000000,0.000000;
#CREDIT:;
#NOTES:
0000
0000
0000
0000
,
0000
0000
0000
0000
,
0000
0000
0000
0000
,
0001
0000
0000
0000
,
0010
0000
1000
0000
,
0001
0000
0020
0000
,
0000
0000
0000
0002
0030
0000
0000
0000
,
0000
0000
0200
0003
0000
0000
0000
0000
,
0000
0300
0001
0000
,
0010
0000
0100
0001
,
1000
0010
0001
1000
,
0100
0001
1000
0010
,
0001
0100
0001
0000
0100
0001
0100
0000
,
0001
1000
0001
0000
0010
0000
0001
0000
,
1000
0010
1000
0010
,
0001
0100
0001
0010
,
0001
0010
0001
0000
0010
0100
0010
0000
,
0100
1000
0100
0000
0010
0000
0000
0000
,
0010
1000
2020
0000
,
0030
0000
3010
0001
,
0100
0000
0000
2002
0000
0000
0000
0003
,
0000
0000
0000
3100
0000
0000
0000
0000
,
1100
0000
0000
1000
0000
0000
0000
0000
,
1010
0000
0000
0100
0000
0000
0000
0000
,
0110
0000
0000
0010
0000
0000
0000
0000
,
0011
0000
0010
1000
,
0100
0001
0010
1000
,
0010
0000
1000
0000
0200
0000
0000
0001
,
0000
2000
0000
0000
,
3300
0000
0010
1000
,
0100
0010
1000
0100
,
0010
1000
0020
0000
,
1000
1000
2000
0000
,
3030
0000
0000
0000
0011
0000
0000
0110
,
0000
0000
0011
0000
0000
0110
0000
0000
,
0010
0000
0001
0000
0020
0000
0000
0001
,
0000
2000
0000
0000
,
0000
0000
3030
0000
1100
0000
0000
0110
,
0000
0000
1100
0000
0000
0110
0000
0000
,
0001
0100
0002
0000
,
1000
1000
2000
0000
,
0000
0000
3003
0010
,
1000
0000
0100
0000
0010
0000
0000
0002
,
0000
0000
0103
0000
0000
0200
0000
0000
,
0310
0000
0000
0020
0000
0000
1030
0000
,
0000
2000
0000
0000
3100
0000
0000
0200
,
0000
0000
0301
0000
0100
1000
0100
0000
,
0200
0000
0000
0300
,
0001
0010
1000
0001
,
0200
0000
0020
0000
,
0300
0000
2030
0000
,
0000
3000
0100
1000
,
0001
0100
0101
0000
,
0000
0000
0010
0100
,
1000
0000
0000
1100
0000
0000
0000
0000
,
0000
0000
0000
1000
0000
0000
0000
0000
,
1010
0000
0000
0010
0000
0000
0000
0000
,
0110
0000
0000
0100
0000
0000
0000
0000
,
0101
0000
0000
0001
0000
0000
0000
0000
,
0011
0000
0001
0100
,
0010
0001
0100
1000
,
0100
0000
1000
0000
0020
0000
0000
1000
,
0000
0002
0000
0000
,
0033
0000
0100
0010
,
1000
0001
0010
0100
,
1000
0001
0200
0000
,
0001
0001
0002
0000
,
0303
0000
0000
0000
1001
0000
0000
1100
,
0000
0000
1001
0000
0000
1100
0000
0000
,
0010
0000
0100
0000
0020
0000
0000
1000
,
0000
0002
0000
0000
,
0000
0000
0033
0000
0101
0000
0000
1001
,
0000
0000
0101
0000
0000
1001
0000
0000
,
0100
0010
0200
0000
,
0001
0001
0002
0000
,
0303
0000
0000
0000
;
