#TITLE:Colors of The Heart;
#SUBTITLE:;
#ARTIST:UVERworld;
#TITLETRANSLIT:;
#SUBTITLETRANSLIT:;
#ARTISTTRANSLIT:;
#CREDIT:;
#BANNER:Colors of The Heart.png;
#BACKGROUND:Colors of The Heart-bg.png;
#LYRICSPATH:;
#CDTITLE:;
#MUSIC:Colors of The Heart.mp3;
#OFFSET:0.120;
#SAMPLESTART:59.780;
#SAMPLELENGTH:15.000;
#SELECTABLE:YES;
#DISPLAYBPM:170.000;
#BPMS:0.000=170.100,21.500=170.520,46.000=172.020,54.500=170.260,69.000=169.020,82.000=170.520,118.500=170.020,133.000=169.720,152.500=170.020,170.000=170.020,224.000=170.180,237.000=167.020,242.000=165.020,242.500=164.020;
#STOPS:;
#BGCHANGES:-8.500=cdtitle.png=1.000=0=0=1,
0.000=Colors of The Heart.avi=1.000=0=0=1,
99999=-nosongbg-=1.000=0=0=0 // don't automatically add -songbackground-
;

//---------------dance-single - ----------------
#NOTES:
     dance-single:
     :
     Beginner:
     3:
     0.176,0.232,0.064,0.193,0.000:
0000
0000
0000
0000
,
0000
0000
0000
0000
,
0000
0000
0000
0000
,
0000
0000
0000
0000
,
0000
0000
2000
0000
,
0000
0000
0000
3000
0000
0000
0200
0000
,
0000
0300
0110
0000
,
1000
0000
1000
0000
,
0001
0000
0001
0000
,
0200
0000
0300
0000
,
0100
0000
0100
0000
,
0010
0000
0010
0000
,
0100
0000
0100
0000
,
0200
0000
0300
0000
,
0001
0000
0001
0000
,
0100
0000
0100
0000
,
1000
0000
1000
0000
,
0100
0200
0000
0300
,
0000
0000
1000
0000
,
1000
0000
0010
0000
,
0010
0000
0100
0000
,
0100
0000
0200
0000
,
0300
0000
0002
0000
,
0000
0000
0000
0000
,
0003
0000
2000
0000
,
0000
0000
3000
0000
,
1000
0000
1000
0000
,
2000
0000
3001
0000
,
0000
0000
0200
0000
,
0300
0000
0000
0010
0000
0010
0000
0000
,
0000
0000
0001
0000
,
0000
0000
0000
2000
0000
0000
0000
3000
,
0000
0000
0200
0000
,
0300
0000
0000
0010
0000
0010
0000
0000
,
0000
0000
0001
0000
,
0001
0000
1000
0000
,
1000
0000
2000
0000
,
3000
0000
0000
0010
0000
0000
0000
0100
,
0000
0100
0000
0000
1000
0000
0000
0000
,
1000
0000
0001
0000
,
0001
0000
0000
0200
,
0000
0000
0320
0000
,
0000
0000
0130
0000
,
0000
0000
1001
0000
,
0100
0000
0010
0000
,
0010
0000
1000
0000
,
1000
1000
0000
0000
,
0000
0000
1001
0000
,
0010
0000
0200
0000
,
0000
0300
0020
0000
,
0000
0030
0000
0001
0000
0001
0000
0000
,
0000
0000
0110
0000
,
1000
0000
1000
0000
,
0100
0000
0100
0000
,
0010
0010
0000
0000
,
0000
1000
0000
0000
,
0110
0000
1000
0000
,
1001
0000
1000
0000
,
0001
0000
0100
0100
,
0000
0000
0001
0000
,
1000
0000
0010
0020
,
0000
0000
0000
0030
;

//---------------dance-single - ----------------
#NOTES:
     dance-single:
     :
     Easy:
     5:
     0.264,0.298,0.150,0.140,0.000: // measure 1
0000
0000
0000
0000
,  // measure 2
0000
0000
0000
0000
,  // measure 3
0000
0000
0000
0000
,  // measure 4
0000
0000
0000
0000
,  // measure 5
0000
0000
1000
0001
,  // measure 6
1000
0000
0000
0200
0000
0000
0000
0300
,  // measure 7
0000
0000
1001
0000
,  // measure 8
0100
0000
0010
0001
,  // measure 9
0010
0001
0010
0001
,  // measure 10
0010
0010
0000
0000
,  // measure 11
0100
0000
0110
0000
,  // measure 12
1000
0000
1000
0100
,  // measure 13
1000
0100
1000
0100
,  // measure 14
1000
0000
0100
0000
0000
0100
0000
0000
,  // measure 15
1000
0000
0011
0000
,  // measure 16
0001
1000
0010
0100
,  // measure 17
0001
1000
0010
0100
,  // measure 18
0001
2000
0000
0000
,  // measure 19
3000
0000
1000
0000
,  // measure 20
1100
0000
0010
0000
,  // measure 21
0011
0000
1000
0001
,  // measure 22
1000
0001
1000
1000
,  // measure 23
0000
0000
0020
0000
,  // measure 24
0000
0000
0000
0000
0000
0000
0000
0100
,  // measure 25
0000
0130
0000
0000
2000
0000
0000
0000
,  // measure 26
0000
0000
3000
0010
,  // measure 27
0010
0100
0001
1000
,  // measure 28
2000
0000
3001
0000
,  // measure 29
0000
0100
1000
0100
,  // measure 30
2000
0000
0000
0100
0000
3100
0000
0000
,  // measure 31
0000
0010
0001
0100
,  // measure 32
0001
0100
0001
0001
,  // measure 33
0000
0000
0020
0000
,  // measure 34
0000
0000
0000
0100
0000
0130
0000
0000
,  // measure 35
0000
0000
0001
0000
,  // measure 36
0011
0000
1000
0000
,  // measure 37
1100
0000
0010
1000
,  // measure 38
0100
0000
0010
0000
0002
0000
0000
0100
,  // measure 39
0000
0103
0000
0000
1000
0000
0000
0000
,  // measure 40
1010
0000
0001
0000
,  // measure 41
0101
0000
0000
0200
,  // measure 42
0000
0000
0320
0000
,  // measure 43
0000
0000
0130
0000
,  // measure 44
0000
0000
1001
0100
,  // measure 45
0001
0000
0010
0001
,  // measure 46
0010
0100
1000
0001
,  // measure 47
1000
1000
0000
0000
,  // measure 48
0100
0000
1001
0000
,  // measure 49
0010
0000
0100
0010
,  // measure 50
1000
0001
0010
0100
,  // measure 51
2000
0000
0000
0001
0000
3001
0000
0000
,  // measure 52
1000
0000
0110
0000
,  // measure 53
0001
0010
0100
1000
,  // measure 54
0100
0010
0001
1000
,  // measure 55
0100
0100
0000
0000
,  // measure 56
0000
1000
1000
0000
,  // measure 57
0110
0000
0001
0000
,  // measure 58
1001
0000
1000
0010
,  // measure 59
0100
0001
1000
2000
,  // measure 60
0000
3000
0001
0100
,  // measure 61
0010
1000
0100
0200
,  // measure 62
0000
0000
0000
0300
;

//---------------dance-single - ----------------
#NOTES:
     dance-single:
     :
     Medium:
     7:
     0.348,0.398,0.247,0.107,0.005: // measure 1
0000
0000
0000
0000
,  // measure 2
0000
0000
0000
0000
,  // measure 3
0000
0000
0000
0000
,  // measure 4
0000
0000
0000
0000
,  // measure 5
0000
0000
1000
0001
,  // measure 6
1000
0000
0000
0000
0000
0000
0000
0000
0000
0020
0000
0000
0000
0000
0000
0000
0000
0000
0000
0000
0000
0000
0000
0000
0000
0000
0000
0000
0000
0000
0000
0000
,  // measure 7
0000
0030
0000
0000
1001
0000
0100
0000
,  // measure 8
0100
0010
0010
0001
,  // measure 9
0010
0001
0010
0001
,  // measure 10
0010
0110
0000
0000
,  // measure 11
0100
1000
0110
0100
,  // measure 12
0110
0000
1000
0100
,  // measure 13
1000
0100
1000
0100
,  // measure 14
1000
0000
1100
0000
0000
0110
0000
0000
,  // measure 15
1000
0001
0101
0000
,  // measure 16
0001
1000
0010
0100
,  // measure 17
0001
1000
0010
0100
,  // measure 18
0001
1000
0002
0000
0000
0000
0000
0000
,  // measure 19
0003
0000
0000
0000
1010
0000
0000
1000
,  // measure 20
1000
0000
0000
0000
0011
0000
0000
0001
,  // measure 21
0001
0000
1000
0001
,  // measure 22
1000
0001
1000
1001
,  // measure 23
0000
0000
0000
0010
0020
0000
0000
0000
,  // measure 24
0001
0000
0000
0000
0001
0000
0000
0100
,  // measure 25
0000
0130
0000
0000
1000
2000
0000
0000
,  // measure 26
0100
0000
3100
0010
,  // measure 27
0010
0000
0100
0000
0001
0000
1000
0001
,  // measure 28
2000
0000
3001
0100
,  // measure 29
0100
0000
0100
0000
1000
0000
0100
1000
,  // measure 30
0000
0100
0000
0100
0000
0100
0000
0000
,  // measure 31
0000
0000
0010
0001
0010
0000
1000
0100
,  // measure 32
0000
0001
0000
0100
0000
0001
0000
0001
,  // measure 33
0000
0000
0010
0100
0020
0000
0000
0100
,  // measure 34
0000
0000
0000
0100
0000
0130
0000
0000
,  // measure 35
0000
0000
0000
0000
0011
0000
0000
0001
,  // measure 36
0001
0000
0000
0000
1100
0000
0000
1000
,  // measure 37
1000
0000
0000
0000
0010
0000
0001
1000
,  // measure 38
0000
0100
0000
0010
0000
0002
0000
0100
,  // measure 39
0000
0103
0000
0000
1000
0000
1000
0100
,  // measure 40
1000
0000
0000
0000
0001
0000
0001
0010
,  // measure 41
0001
0000
0000
0200
,  // measure 42
0000
0000
0301
0001
,  // measure 43
0100
0100
1001
0000
,  // measure 44
0000
0000
0110
0001
,  // measure 45
0110
0000
1000
0001
,  // measure 46
0010
0100
1000
0001
,  // measure 47
1000
0001
1000
0000
0000
0000
0000
0000
,  // measure 48
0100
0001
1001
0100
,  // measure 49
1001
0000
0100
0010
,  // measure 50
1000
0001
0010
0100
,  // measure 51
2000
0000
0000
3001
0000
1001
0000
0000
,  // measure 52
1100
0010
1100
0000
,  // measure 53
0001
0010
0100
1000
,  // measure 54
0100
0010
0001
1000
,  // measure 55
0010
0001
0100
0010
,  // measure 56
1000
0100
0001
1000
,  // measure 57
0011
1000
0100
0001
,  // measure 58
1100
0010
1000
0100
,  // measure 59
0001
0100
0010
1001
,  // measure 60
0010
0000
0100
0000
1000
0001
0100
0010
,  // measure 61
1000
0000
0001
0010
0001
0000
0020
0000
,  // measure 62
0000
0000
0000
0030
;

//---------------dance-single - ----------------
#NOTES:
     dance-single:
     :
     Hard:
     11:
     0.516,0.564,0.376,0.140,0.000: // measure 1
0000
0000
0000
0000
,  // measure 2
0000
0000
0000
0000
,  // measure 3
0000
0000
0000
0000
,  // measure 4
0000
0000
0000
0000
,  // measure 5
0000
0000
1000
0001
,  // measure 6
1000
0000
0010
0200
0000
0000
0000
0000
,  // measure 7
0000
0300
0000
0000
1001
0000
0000
0100
,  // measure 8
0110
0000
0000
0010
1000
0000
0001
0000
,  // measure 9
0010
0000
0001
0100
0010
0000
1000
0000
,  // measure 10
0101
0000
1010
0000
0000
0000
0000
0100
,  // measure 11
0001
0010
1000
0010
0011
0000
0000
0100
,  // measure 12
1100
0000
0000
0001
0020
0000
0100
0000
,  // measure 13
0032
0100
2003
0100
,  // measure 14
3010
0000
1100
0000
0000
0110
0000
0000
,  // measure 15
0001
1000
0010
0100
0101
0000
0000
0001
,  // measure 16
0200
1000
0302
0010
,  // measure 17
2003
0000
3010
1000
0010
0000
0001
0000
,  // measure 18
1010
0102
0000
0000
,  // measure 19
0003
1000
0000
1000
1001
0000
0000
0010
,  // measure 20
0010
0000
0000
1000
1010
0000
0000
0001
,  // measure 21
0001
0000
0000
0100
0100
0000
0001
0000
,  // measure 22
1000
0000
0001
0010
0100
0000
1100
0000
,  // measure 23
0000
0000
0000
0000
0010
0020
0000
0100
,  // measure 24
0100
0100
0000
0001
0001
0001
0000
0100
,  // measure 25
0000
0130
0000
0000
1000
2000
0000
0100
,  // measure 26
0100
0100
0000
0001
3001
0000
1000
0000
,  // measure 27
0010
0000
0100
0000
0100
0010
1000
0001
,  // measure 28
0100
0010
0100
0010
1000
0001
0100
0010
,  // measure 29
1000
0100
1000
0100
0010
0001
0010
0100
,  // measure 30
0010
0001
0010
0100
0000
1100
0000
0000
,  // measure 31
0000
0000
0010
1000
0100
1000
0010
1000
,  // measure 32
0100
0010
0001
0100
0010
1000
0010
0100
,  // measure 33
0001
0010
0100
1000
0001
0100
0010
1000
,  // measure 34
0001
1000
0010
0100
0000
0101
0000
0000
,  // measure 35
0000
1000
0000
0010
0110
0000
0000
0001
,  // measure 36
0001
0000
0000
0000
1100
0000
0000
0010
,  // measure 37
0010
0000
0000
0000
0100
0000
0001
1000
,  // measure 38
0000
0010
0000
0100
0000
0002
0000
1000
,  // measure 39
0003
1001
0000
0000
1000
0000
1000
0010
,  // measure 40
1000
0000
0001
0100
0001
0000
0100
0010
,  // measure 41
0100
0000
0001
1000
0001
0000
0020
0000
,  // measure 42
0001
0000
0100
0030
1000
0001
1000
0100
,  // measure 43
0010
0001
0010
0100
1100
0000
0000
0000
,  // measure 44
0000
0000
0000
0000
1100
0100
0010
0001
,  // measure 45
0011
0000
0000
0001
1000
0001
0100
0010
,  // measure 46
1000
0010
0100
0001
1000
0001
0100
0000
,  // measure 47
0101
0101
0000
0000
,  // measure 48
0001
0100
0010
1000
1100
0100
0010
0001
,  // measure 49
0101
0000
0000
1000
0010
1000
0100
0010
,  // measure 50
0001
1000
0010
0100
0001
1000
0100
0010
,  // measure 51
0001
1000
0000
0010
0000
1001
0000
0000
,  // measure 52
0011
0100
0010
1000
1100
0000
0000
0001
,  // measure 53
0001
0000
1000
0000
0010
1000
0100
0000
,  // measure 54
1000
0000
0010
0100
1010
0000
0010
0000
,  // measure 55
1001
0000
1000
0100
0010
0000
1000
0100
,  // measure 56
0010
0000
1000
0100
0010
0001
1000
0010
,  // measure 57
0110
0000
0001
1000
0010
0100
0001
1000
,  // measure 58
1001
0000
0010
0100
0010
1000
0001
0100
,  // measure 59
0010
0100
0010
1000
0001
0000
0101
0000
,  // measure 60
0010
0000
1010
0000
0001
0010
0100
0010
,  // measure 61
0001
0000
1000
0100
1000
0000
0200
0000
,  // measure 62
0000
0000
0000
0300
;
