#VERSION:0.83;
#TITLE:Call Me Maybe;
#SUBTITLE:;
#ARTIST:Carly Rae Japsen;
#TITLETRANSLIT:;
#SUBTITLETRANSLIT:;
#ARTISTTRANSLIT:;
#GENRE:;
#ORIGIN:;
#CREDIT:;
#BANNER:Call Me Maybe_banner.png;
#BACKGROUND:;
#PREVIEWVID:;
#JACKET:Call Me Maybe_jacket.png;
#CDIMAGE:;
#DISCIMAGE:;
#LYRICSPATH:;
#CDTITLE:;
#MUSIC:Call Me Maybe.mp3;
#OFFSET:-0.038000;
#SAMPLESTART:92.040001;
#SAMPLELENGTH:16.180000;
#SELECTABLE:YES;
#BPMS:0.000=120.070,
152.000=90.051,
172.500=90.031,
176.000=120.050;
#STOPS:;
#DELAYS:;
#WARPS:;
#TIMESIGNATURES:0.000=4=4;
#TICKCOUNTS:0.000=4;
#COMBOS:0.000=1;
#SPEEDS:0.000=1.000=0.000=0;
#SCROLLS:0.000=1.000;
#FAKES:;
#LABELS:0.000=Song Start;
#BGCHANGES:-0.750=Call Me Maybe.avi=1.000=0=0=0=StretchNoLoop====,
99999=-nosongbg-=1.000=0=0=0 // don't automatically add -songbackground-
;
#KEYSOUNDS:;
#ATTACKS:
;

//---------------dance-single - ----------------
#NOTEDATA:;
#CHARTNAME:;
#STEPSTYPE:dance-single;
#DESCRIPTION:;
#CHARTSTYLE:;
#DIFFICULTY:Beginner;
#METER:2;
#RADARVALUES:0.121909,0.183511,0.113279,0.060415,0.000000,113.000000,98.000000,15.000000,8.000000,0.000000,0.000000,0.000000,0.000000,0.000000,0.121909,0.183511,0.113279,0.060415,0.000000,113.000000,98.000000,15.000000,8.000000,0.000000,0.000000,0.000000,0.000000,0.000000;
#CREDIT:;
#NOTES:
// measure 0
0000
0000
0000
0000
,  // measure 1
0000
0000
0000
0000
,  // measure 2
0000
0000
0000
0000
0000
0000
0000
0010
,  // measure 3
0000
0000
0000
0000
0000
0000
0000
0100
,  // measure 4
0000
0000
0000
0000
0000
0000
0000
0100
,  // measure 5
0000
0000
0000
0000
0000
0000
0000
1001
,  // measure 6
0000
0000
0000
0000
0000
0000
0000
0001
,  // measure 7
0000
0000
0000
0000
0000
0000
0000
1000
,  // measure 8
0000
0000
0000
0000
0000
0000
0000
1000
,  // measure 9
0000
0000
0000
0000
0000
0000
0000
0110
,  // measure 10
0000
0000
0000
1100
,  // measure 11
0000
0000
0000
0110
,  // measure 12
0000
0000
0000
0011
,  // measure 13
0100
0100
0100
0100
,  // measure 14
0000
0000
0000
0000
,  // measure 15
0001
0001
0000
0000
,  // measure 16
0010
0010
0000
0000
,  // measure 17
0001
0001
0000
0000
,  // measure 18
1001
0000
0000
0000
,  // measure 19
0010
0010
0000
0000
,  // measure 20
1000
1000
0000
0000
,  // measure 21
0100
0100
0000
0000
,  // measure 22
0110
0000
0000
0000
,  // measure 23
1000
1000
0000
0000
,  // measure 24
0010
0010
0000
0000
,  // measure 25
0100
0100
0000
0000
,  // measure 26
1010
0000
0000
0000
,  // measure 27
1000
1000
0000
0000
,  // measure 28
0001
0001
0000
0000
,  // measure 29
0010
0010
0000
0000
,  // measure 30
1001
0000
0000
0100
,  // measure 31
0000
0000
1000
1000
,  // measure 32
0000
0000
0001
0001
,  // measure 33
0000
0000
1000
1000
,  // measure 34
1000
0000
0010
0000
,  // measure 35
0001
0000
0010
0010
,  // measure 36
0000
0000
1000
1000
,  // measure 37
0000
0000
0001
0001
,  // measure 38
0001
0000
0000
0000
0000
2000
0000
0000
,  // measure 39
3000
0000
0000
0002
0000
0000
0003
0000
,  // measure 40
0000
0200
0000
0000
0300
0000
0000
0000
,  // measure 41
0010
0000
0000
0000
0000
2000
0000
0000
,  // measure 42
3000
0000
0000
0020
0000
0000
0030
0000
,  // measure 43
0000
0200
0000
0000
0300
0000
0000
0000
,  // measure 44
0010
0000
0000
0000
,  // measure 45
0001
0100
0000
0000
,  // measure 46
0010
0100
0000
0000
,  // measure 47
0010
1000
0000
0000
,  // measure 48
1010
0000
0000
0000
,  // measure 49
1000
0001
0000
0000
,  // measure 50
0100
0010
0000
0000
,  // measure 51
0010
1000
0000
0000
,  // measure 52
1010
0001
0000
0000
,  // measure 53
1000
0000
0010
0110
,  // measure 54
0000
0000
0100
0110
,  // measure 55
0000
0000
0010
0010
,  // measure 56
0010
0000
1000
0000
,  // measure 57
0000
0000
1000
1001
,  // measure 58
0000
0000
0001
1001
,  // measure 59
0000
0000
2000
0000
,  // measure 60
0002
0000
0000
3003
;

//---------------dance-single - ----------------
#NOTEDATA:;
#CHARTNAME:;
#STEPSTYPE:dance-single;
#DESCRIPTION:;
#CHARTSTYLE:;
#DIFFICULTY:Hard;
#METER:11;
#RADARVALUES:0.450956,0.412900,0.309628,0.151038,0.162366,418.000000,377.000000,41.000000,20.000000,0.000000,0.000000,0.000000,0.000000,0.000000,0.450956,0.412900,0.309628,0.151038,0.162366,418.000000,377.000000,41.000000,20.000000,0.000000,0.000000,0.000000,0.000000,0.000000;
#CREDIT:;
#NOTES:
0000
0000
0000
0000
,
0000
0000
0000
0000
,
0000
0100
0001
0000
1000
0100
0010
0010
,
0000
0001
0100
0010
1000
0001
0100
0100
,
0000
0010
0100
0001
1000
0010
1000
0001
,
0000
0000
0100
0000
1000
0000
0100
0000
0001
0000
0000
0001
0000
0000
0001
0000
,
0000
0010
0001
0100
0010
1000
0001
0001
,
0000
0001
1000
0010
0100
0001
1000
1000
,
0000
0010
0100
0001
1000
0010
0100
0001
,
0000
0000
0100
0000
0001
0000
0100
0000
1000
0000
0000
1000
0000
0000
1000
0000
,
0000
0000
0000
0000
0101
0000
0000
0000
0010
0000
0100
0001
0000
0100
0000
0000
,
0110
0000
0000
0000
1010
0000
0000
0000
0001
0000
1000
0010
0000
1000
0000
0000
,
1010
0000
0000
0000
1100
0000
0000
0000
0100
0000
1000
0001
0000
1000
0000
0000
,
0100
0000
1000
0000
0010
1000
0001
0100
,
0101
0000
0010
0000
0100
0001
1000
0100
,
0020
0100
0130
0010
0001
1000
0010
0100
,
0020
1000
1030
0000
0001
0010
0100
1000
,
0002
0100
0103
0000
0010
1000
0001
0100
,
0101
0000
0010
0100
0001
1000
0100
0010
,
0002
1000
1003
0000
0010
0100
0002
0000
,
0000
0103
0000
0010
1000
0001
0100
0001
,
2000
0010
3010
1000
0001
0100
0010
1000
,
1010
0000
0000
0000
0100
0000
0000
0000
0001
0000
0100
0001
0000
1000
0000
0000
,
0020
0000
0100
0000
0130
0000
0001
0000
0001
0010
0000
0200
0000
0000
0301
0000
,
0100
1000
1000
0001
0010
0100
0010
0200
,
1000
1300
0001
0010
0001
0010
0001
0001
,
0101
0000
0000
0000
1010
0000
0000
0000
0100
0000
0001
0010
0000
0100
1000
0000
,
0200
0010
0310
0000
0001
0010
0002
0000
,
0000
0013
0000
0100
1000
0010
0100
0001
,
1000
0010
0010
0100
0001
1000
0100
0010
,
0011
0000
1000
0001
0010
1000
0010
0100
,
0010
0001
0010
0100
0011
0000
1100
0000
,
0001
0010
0100
1000
1010
0000
0101
0000
,
0100
0001
0100
0010
0101
0000
1010
0000
,
1001
0000
0001
1000
0100
0001
0100
0010
,
0100
1000
0100
0010
1100
0000
0011
0000
,
1000
0100
0010
0001
0101
0000
1010
0000
,
0010
1000
0010
0100
1010
0000
0101
0000
,
1002
0000
0000
0000
0000
0000
0000
0000
0000
0000
0000
0000
0000
0000
0000
0000
0000
0000
0000
0000
0003
0000
1000
0000
0000
0000
0000
0010
0000
0000
1000
0000
,
0000
0000
0000
0000
0000
0000
0000
0000
0000
0000
0000
0000
0000
0000
0100
0000
0000
0000
0000
0001
0000
0000
0100
0000
0000
0000
0000
0000
0000
0000
0000
0000
,
0000
0000
0000
0000
0000
0000
0001
0000
0000
0000
0000
0010
0000
0000
0001
0000
0000
0000
0000
0000
0000
0000
0000
0000
0000
0000
0000
0000
0000
0000
0000
0000
,
0000
0000
0000
0000
0000
0001
0000
0000
0000
0000
0000
0000
1000
0000
0000
0100
0000
1000
0000
0000
0001
0000
0000
0000
0000
0000
0000
0000
0000
0000
0000
0000
,
0000
0000
0000
0000
0100
0000
0000
0010
0000
0000
2000
0000
0000
0000
0000
0000
0000
0000
3100
0000
0000
0000
0000
0000
0000
1000
0000
0000
0010
0000
0000
0100
,
0000
0000
0001
0000
0000
1000
0000
0000
0000
0000
0000
0000
0000
0000
0000
0000
0000
0010
0000
0000
1000
0000
0000
0010
0000
0000
0100
0000
0000
0010
0000
0000
,
1010
0000
0000
0000
0100
0000
0000
0000
0001
0000
0100
0001
0000
1000
0000
0000
,
0020
0000
0100
0000
0130
0000
0001
0000
0001
0010
0000
0200
0000
0000
0301
0000
,
1000
0100
0100
1000
0010
0100
0010
0200
,
0001
0301
1000
0010
0001
0010
0001
0001
,
0101
0000
0000
0000
1010
0000
0000
0000
0100
0000
0001
0010
0000
0100
1000
0000
,
0200
0010
0310
0000
0001
0010
0002
0000
,
0000
0013
0000
0100
1000
0010
0100
0001
,
1000
0010
0010
0100
0001
1000
0100
0010
,
0011
0000
1000
0001
0010
1000
0010
0100
,
0010
0001
0010
0100
0011
0000
1100
0000
,
0001
0010
0100
1000
1010
0000
0101
0000
,
0100
0001
0100
0010
0101
0000
1010
0000
,
1001
0000
0001
1000
0100
0001
0100
0010
,
0100
1000
0100
0010
1100
0000
0011
0000
,
1000
0100
0010
0001
0101
0000
1010
0000
,
0010
1000
0010
0100
0010
0001
0010
0100
,
0202
0000
0000
0303
;

//---------------dance-single - ----------------
#NOTEDATA:;
#CHARTNAME:;
#STEPSTYPE:dance-single;
#DESCRIPTION:;
#CHARTSTYLE:;
#DIFFICULTY:Easy;
#METER:5;
#RADARVALUES:0.237345,0.321145,0.249213,0.286972,0.000000,220.000000,187.000000,33.000000,38.000000,0.000000,0.000000,0.000000,0.000000,0.000000,0.237345,0.321145,0.249213,0.286972,0.000000,220.000000,187.000000,33.000000,38.000000,0.000000,0.000000,0.000000,0.000000,0.000000;
#CREDIT:;
#NOTES:
0000
0000
0000
0000
,
0000
0000
0000
0000
,
0000
0000
0000
0000
2000
0000
0000
3000
,
0000
0000
0000
0000
0002
0000
0000
0003
,
0000
0000
0000
0000
0200
0000
0000
0300
,
0000
0000
0000
0000
2000
0000
0000
3000
,
0000
0000
0000
0000
0200
0000
0000
0310
,
0000
0000
0000
0000
0020
0000
0000
1030
,
0000
0000
0000
0000
2000
0000
0000
3001
,
0000
0000
0000
0000
0002
0000
0000
0013
,
0000
0100
0002
0003
,
1000
0010
2000
3000
,
0001
0100
0020
0030
,
0100
0100
0100
0100
,
1010
0100
0001
0002
,
0103
0100
0001
0020
,
1030
1000
0010
0200
,
0301
0001
0100
0001
,
0011
0000
0010
0100
,
0200
0000
1300
0001
,
0002
0000
0013
0100
,
0010
0020
0000
0030
,
0110
0000
1000
0002
,
0100
0103
0010
2000
,
0010
3010
0100
0002
,
0010
0013
0001
1000
,
1001
0100
0010
2000
,
0100
3100
0001
0020
,
0100
0130
1000
0002
,
1000
1003
0010
0100
,
0110
0001
0100
0010
,
1000
0100
0110
0110
,
1000
0010
0110
0110
,
0001
0010
0110
0110
,
0110
0001
0010
1000
,
0100
0001
1001
1001
,
0001
0100
1001
1001
,
0010
0001
1001
1001
,
1002
0000
0000
0000
0000
2000
0000
0000
,
0003
0000
0000
3020
0000
0000
0000
0000
,
0000
0230
0000
0000
0000
0000
0000
0000
,
0320
0000
0000
0000
0000
2000
0000
0000
,
0030
0000
0000
0020
0000
3000
0000
0000
,
0000
0200
0000
0000
0330
0000
0000
0000
,
1001
0100
0010
0002
,
0100
0103
0001
2000
,
0100
3100
1000
0002
,
0100
0103
0001
1000
,
0110
0010
1000
0002
,
0100
0103
0001
2000
,
0010
3010
1000
0002
,
0100
0103
0001
0010
,
0110
1000
0100
0010
,
0001
0010
0110
0110
,
1000
0010
0110
0110
,
0001
0010
0110
0110
,
0110
0001
0010
0100
,
1000
0001
1001
1001
,
0010
1000
1001
1001
,
0001
1000
0010
0100
,
0020
0000
0000
0030
;

//---------------dance-single - ----------------
#NOTEDATA:;
#CHARTNAME:;
#STEPSTYPE:dance-single;
#DESCRIPTION:;
#CHARTSTYLE:;
#DIFFICULTY:Medium;
#METER:8;
#RADARVALUES:0.317180,0.344083,0.143486,0.151038,0.000000,294.000000,275.000000,19.000000,20.000000,0.000000,0.000000,0.000000,0.000000,0.000000,0.317180,0.344083,0.143486,0.151038,0.000000,294.000000,275.000000,19.000000,20.000000,0.000000,0.000000,0.000000,0.000000,0.000000;
#CREDIT:;
#NOTES:
0000
0000
0000
0000
,
0000
0000
0000
0000
,
0000
0001
2000
3001
,
0000
0100
0002
0103
,
0000
0010
0200
0310
,
0000
0000
0100
0000
2000
0000
0000
3100
,
0000
0010
0200
0310
,
0000
1000
0200
1300
,
0000
0001
2000
3001
,
0000
0000
0010
0000
0002
0000
0000
0013
,
0000
0100
1000
1000
,
0010
0100
0001
0001
,
0100
0010
1000
1000
,
0100
0000
1000
0000
0010
0100
0010
0100
,
1010
0000
0010
0000
0100
0000
0001
0100
,
0001
1000
0001
0000
0100
0000
0100
0010
,
1000
0001
1000
0000
0010
0000
1000
0100
,
0001
0100
1000
0000
1000
0000
0001
0000
,
0011
0000
0010
0000
1000
0000
0100
1000
,
0010
0001
0010
0000
1000
0000
0002
0000
,
0000
0013
0000
0000
0100
0000
1000
0100
,
0010
1000
0010
0000
1000
0000
0001
0000
,
1001
0000
0010
0000
1000
0000
0100
0010
,
0001
1000
1000
0000
0010
0000
1000
0001
,
0010
0100
0100
0000
1000
0000
0010
1000
,
0001
0100
0100
0000
0001
0000
1000
0000
,
1001
0000
0100
0000
0010
0000
1000
0001
,
0100
0010
0010
0000
1000
0001
0200
0000
,
0000
0310
0000
0100
0001
1000
0010
0100
,
0001
1000
1000
0000
0010
0000
0100
0000
,
0110
0000
0001
1000
0100
0010
0001
0100
,
0000
0100
0010
1000
0001
0000
1001
0000
,
1000
0010
1000
0100
1000
0000
1001
0000
,
0001
0100
0010
0100
0010
0000
0010
0000
,
0110
0000
0001
0100
0010
0001
1000
0100
,
0000
0010
0001
1000
0001
0000
1001
0000
,
0001
1000
0100
0010
0001
0000
1001
0000
,
0010
0100
1000
0001
0100
0000
0100
0000
,
0120
0000
0000
0000
0000
2000
0000
0000
,
0030
0000
0000
3002
0000
0000
0000
0000
,
0000
0203
0000
0000
0000
0000
0000
0000
,
0320
0000
0000
0000
0000
2000
0000
0000
,
0030
0000
0000
0020
0000
3000
0000
0000
,
0000
0200
0000
0000
0330
0000
0000
0000
,
1001
0000
0010
0000
1000
0000
0100
0010
,
0001
1000
1000
0000
0010
0000
1000
0001
,
0010
0100
0100
0000
1000
0000
0010
1000
,
0001
0100
0100
0000
0001
0000
1000
0000
,
1001
0000
0100
0000
0010
0000
1000
0001
,
0100
0010
0010
0000
1000
0001
0200
0000
,
0000
0310
0000
0100
0001
1000
0010
0100
,
0001
1000
1000
0000
0010
0000
0100
0000
,
0110
0000
0001
1000
0100
0010
0001
0100
,
0000
0100
0010
1000
0001
0000
1001
0000
,
1000
0100
0010
0001
1000
0000
1001
0000
,
0001
0100
0010
0100
0010
0000
0010
0000
,
0110
0000
1000
0100
0010
0001
1000
0100
,
0000
0010
0001
1000
0001
0000
1001
0000
,
0001
1000
0100
0010
0001
0000
1001
0000
,
0010
0000
0000
0100
0010
0100
0010
0100
,
0020
0000
0000
0030
;
