#VERSION:0.83;
#TITLE:you ain't seen nothin' yet;
#SUBTITLE:;
#ARTIST:BUS STOP feat. Randy Bachman;
#TITLETRANSLIT:;
#SUBTITLETRANSLIT:;
#ARTISTTRANSLIT:;
#GENRE:;
#ORIGIN:;
#CREDIT:;
#BANNER:;
#BACKGROUND:DDR CD-bg.JPG;
#PREVIEWVID:;
#JACKET:You ain't seen nothin' yet-jacket.jpg;
#CDIMAGE:;
#DISCIMAGE:;
#LYRICSPATH:;
#CDTITLE:;
#MUSIC:Bus_Stop_feat_Randy_Bachman_-_You_aint_seen_Nothin_Yet.ogg;
#OFFSET:-1.540000;
#SAMPLESTART:58.159943;
#SAMPLELENGTH:13.500006;
#SELECTABLE:YES;
#BPMS:0.000=118.540;
#STOPS:;
#DELAYS:;
#WARPS:;
#TIMESIGNATURES:0.000=4=4;
#TICKCOUNTS:0.000=4;
#COMBOS:0.000=1;
#SPEEDS:0.000=1.000=0.000=0;
#SCROLLS:0.000=1.000;
#FAKES:;
#LABELS:0.000=Song Start;
#BGCHANGES:;
#KEYSOUNDS:;
#ATTACKS:
;

//---------------dance-single - ----------------
#NOTEDATA:;
#CHARTNAME:;
#STEPSTYPE:dance-single;
#DESCRIPTION:;
#CHARTSTYLE:;
#DIFFICULTY:Hard;
#METER:7;
#RADARVALUES:0.300567,0.359565,0.208205,0.000000,0.000000,192.000000,173.000000,19.000000,0.000000,0.000000,0.000000,0.000000,0.000000,0.000000,0.300567,0.359565,0.208205,0.000000,0.000000,192.000000,173.000000,19.000000,0.000000,0.000000,0.000000,0.000000,0.000000,0.000000;
#CREDIT:;
#NOTES:
// measure 0
0000
0000
0000
0000
,  // measure 1
0000
0000
0000
0000
,  // measure 2
0000
0000
0000
0000
,  // measure 3
0000
0000
0000
0000
,  // measure 4
0000
0000
0000
0000
,  // measure 5
1001
0100
0000
0100
,  // measure 6
1001
0100
0100
0100
,  // measure 7
1001
0100
0100
0100
,  // measure 8
1001
0000
0100
0000
1000
0100
1000
0000
,  // measure 9
0001
0000
0100
0000
0010
0100
0001
0000
,  // measure 10
0100
0000
0010
0000
1000
0100
1000
0000
,  // measure 11
0001
0000
0000
0000
,  // measure 12
0110
0000
0001
0000
1000
0001
0100
0000
,  // measure 13
0010
0000
1000
0000
0100
1000
0100
0000
,  // measure 14
1000
0000
1000
0000
1000
1000
1000
0000
,  // measure 15
0001
0000
0001
0000
0001
0001
0001
0000
,  // measure 16
0100
0000
0100
0000
0100
0100
0100
0000
,  // measure 17
0010
0000
0010
0000
0010
0010
0010
0000
,  // measure 18
1000
0001
1000
0000
0001
1000
0001
0000
,  // measure 19
1001
0000
0000
0000
0000
0000
0100
0010
,  // measure 20
0100
0000
1001
0000
0100
0001
0100
0000
,  // measure 21
0010
1000
0010
0000
1000
0000
1001
0000
,  // measure 22
1000
0000
0100
0000
1000
0010
0100
0000
,  // measure 23
0001
0000
0100
0000
0010
0100
0001
0000
,  // measure 24
0101
0100
0000
0100
,  // measure 25
1010
0100
0000
0100
,  // measure 26
0011
0100
0000
0100
,  // measure 27
1001
0000
0000
0000
,  // measure 28
1001
0000
0100
0000
0010
0000
0100
0010
,  // measure 29
0100
0000
0001
0000
1000
0000
0100
1000
,  // measure 30
0100
0000
1000
0000
0010
0000
0100
0001
,  // measure 31
0100
0000
0001
0000
0010
0000
0001
0010
,  // measure 32
0001
0000
1000
0000
0010
0000
1000
0100
,  // measure 33
1000
0000
0010
0000
0100
0000
0001
0100
,  // measure 34
0001
0000
1000
0000
0100
0000
1000
0010
,  // measure 35
1000
0110
1001
0110
,  // measure 36
1001
0000
1000
0000
0100
1000
0100
0000
,  // measure 37
1000
0000
0010
0000
0100
0001
0100
0000
,  // measure 38
0001
0000
0010
0000
0001
0010
0001
0000
,  // measure 39
0100
0000
0010
0000
1000
0100
1000
0000
,  // measure 40
0001
0000
0100
0000
0010
0100
0001
0000
,  // measure 41
0100
0000
0010
0000
1000
0100
1000
0000
,  // measure 42
0010
0100
0001
1000
,  // measure 43
1001
0100
0100
1001
;

//---------------dance-single - ----------------
#NOTEDATA:;
#CHARTNAME:;
#STEPSTYPE:dance-single;
#DESCRIPTION:;
#CHARTSTYLE:;
#DIFFICULTY:Medium;
#METER:6;
#RADARVALUES:0.262996,0.335594,0.197247,0.000000,0.000000,168.000000,150.000000,18.000000,0.000000,0.000000,0.000000,0.000000,0.000000,0.000000,0.262996,0.335594,0.197247,0.000000,0.000000,168.000000,150.000000,18.000000,0.000000,0.000000,0.000000,0.000000,0.000000,0.000000;
#CREDIT:;
#NOTES:
// measure 0
0000
0000
0000
0000
,  // measure 1
0000
0000
0000
0000
,  // measure 2
0000
0000
0000
0000
,  // measure 3
0000
0000
0000
0000
,  // measure 4
0000
0000
0000
0000
,  // measure 5
0000
0000
0000
0000
,  // measure 6
1000
0000
0001
0000
,  // measure 7
0100
0100
0100
0100
,  // measure 8
1001
0100
0100
0010
,  // measure 9
1001
0010
0010
0100
,  // measure 10
1001
0001
1000
0001
,  // measure 11
1001
0000
0000
0000
,  // measure 12
0101
0001
1000
0100
,  // measure 13
1000
0100
1000
0010
,  // measure 14
0100
0001
0100
0001
,  // measure 15
0010
0001
1000
1000
,  // measure 16
1000
0100
0001
0010
,  // measure 17
1000
0100
0001
0010
,  // measure 18
1000
1000
1000
1000
,  // measure 19
0110
0000
0000
0000
,  // measure 20
1001
0100
0001
0100
,  // measure 21
1001
0100
1000
0100
,  // measure 22
1000
1000
0001
0001
,  // measure 23
0100
0100
0010
0010
,  // measure 24
1001
0100
0001
0100
,  // measure 25
1001
0100
1000
0100
,  // measure 26
1000
0001
0100
0010
,  // measure 27
1001
0000
0000
0000
,  // measure 28
1001
0100
0001
1000
,  // measure 29
0010
0000
1000
0000
0100
1000
0100
1000
,  // measure 30
0100
1000
0010
0100
,  // measure 31
0001
0000
0010
0000
0001
0010
0001
0010
,  // measure 32
0001
0100
0010
1000
,  // measure 33
0010
0000
1000
0000
1000
0010
1000
0010
,  // measure 34
0100
0001
0100
0010
,  // measure 35
0100
0001
0100
0001
0100
0001
0100
0000
,  // measure 36
1001
0100
0010
0100
,  // measure 37
1001
0010
0100
0010
,  // measure 38
1000
0100
0001
1100
,  // measure 39
0001
0100
1000
0101
,  // measure 40
1000
1000
0001
0001
,  // measure 41
0100
0100
0010
0010
,  // measure 42
1000
0001
1000
0001
,  // measure 43
1001
0100
0100
1001
;

//---------------dance-single - ----------------
#NOTEDATA:;
#CHARTNAME:;
#STEPSTYPE:dance-single;
#DESCRIPTION:;
#CHARTSTYLE:;
#DIFFICULTY:Easy;
#METER:3;
#RADARVALUES:0.187855,0.239710,0.054791,0.000000,0.000000,120.000000,115.000000,5.000000,0.000000,0.000000,0.000000,0.000000,0.000000,0.000000,0.187855,0.239710,0.054791,0.000000,0.000000,120.000000,115.000000,5.000000,0.000000,0.000000,0.000000,0.000000,0.000000,0.000000;
#CREDIT:;
#NOTES:
// measure 0
0000
0000
0000
0000
,  // measure 1
0000
0000
0000
0000
,  // measure 2
0000
0000
0000
0000
,  // measure 3
0000
0000
0000
0000
,  // measure 4
0000
0000
0000
0000
,  // measure 5
0000
0000
0000
0000
,  // measure 6
0000
0000
0000
0000
,  // measure 7
0000
0000
0000
0000
,  // measure 8
1000
0000
1000
0000
,  // measure 9
0001
0000
0001
0000
,  // measure 10
0100
0100
0100
0100
,  // measure 11
1001
0000
0000
0000
,  // measure 12
1000
1000
1000
1000
,  // measure 13
0001
0001
0001
0001
,  // measure 14
0100
0100
0100
0100
,  // measure 15
0010
0010
0010
0010
,  // measure 16
1000
0100
0001
0010
,  // measure 17
1000
0100
0001
0010
,  // measure 18
1000
1000
1000
1000
,  // measure 19
1001
0000
0000
0000
,  // measure 20
0001
0001
0001
0100
,  // measure 21
0010
0010
0010
0100
,  // measure 22
0001
1000
1000
1000
,  // measure 23
0010
0100
0100
0100
,  // measure 24
0010
1000
0100
1000
,  // measure 25
1000
0100
0010
0001
,  // measure 26
0000
0001
0000
0001
,  // measure 27
0110
0000
0000
0000
,  // measure 28
1001
1000
0000
1000
,  // measure 29
0001
0100
0000
0100
,  // measure 30
1000
0010
0000
0010
,  // measure 31
1000
0001
0000
0001
,  // measure 32
1000
0100
1000
0010
,  // measure 33
0100
0001
0100
0001
,  // measure 34
0010
0001
0010
0001
,  // measure 35
1001
0000
0000
0000
,  // measure 36
1000
1000
1000
0000
,  // measure 37
1000
1000
1000
0000
,  // measure 38
0001
0001
0001
0000
,  // measure 39
0001
0001
0001
0000
,  // measure 40
0100
0100
0100
0000
,  // measure 41
0100
0100
0100
0000
,  // measure 42
0010
0010
0010
0000
,  // measure 43
0010
0010
0010
0010
;

//---------------dance-single - ----------------
#NOTEDATA:;
#CHARTNAME:;
#STEPSTYPE:dance-single;
#DESCRIPTION:;
#CHARTSTYLE:;
#DIFFICULTY:Beginner;
#METER:1;
#RADARVALUES:0.134629,0.167797,0.000000,0.043833,0.000000,86.000000,86.000000,0.000000,4.000000,0.000000,0.000000,0.000000,0.000000,0.000000,0.134629,0.167797,0.000000,0.043833,0.000000,86.000000,86.000000,0.000000,4.000000,0.000000,0.000000,0.000000,0.000000,0.000000;
#CREDIT:;
#NOTES:
0000
0000
0000
0000
,
0000
0000
0000
0000
,
0000
0000
0000
0000
,
0000
0000
0000
0000
,
0000
0000
0000
0000
,
0000
0000
0000
0000
,
0000
0000
0000
0000
,
0000
0000
0000
0000
,
1000
0000
1000
0000
,
0001
0000
0001
0000
,
0100
0000
0100
0000
,
0020
0000
0030
0000
,
1000
1000
1000
0000
,
0001
0001
0001
0000
,
0100
0100
0100
0000
,
0010
0010
0010
0000
,
1000
0000
0001
0000
,
1000
0000
0001
0000
,
1000
1000
1000
0000
,
0002
0000
0000
0003
,
0001
0001
0001
0000
,
0010
0010
0010
0000
,
1000
1000
1000
0000
,
0100
0100
0100
0000
,
0010
0000
0100
0000
,
1000
0000
0010
0000
,
0001
0000
0001
0000
,
0002
0000
0000
0003
,
0001
0000
1000
0000
,
0001
0000
0100
0000
,
1000
0000
0010
0000
,
1000
0000
0001
0000
,
1000
0000
1000
0000
,
0100
0000
0100
0000
,
0010
0000
0010
0000
,
2000
0000
0000
3000
,
1000
1000
1000
0000
,
1000
1000
1000
0000
,
0001
0001
0001
0000
,
0001
0001
0001
0000
,
0100
0100
0100
0000
,
0100
0100
0100
0000
,
0010
0010
0010
0000
,
0010
0010
0010
0010
;
