#VERSION:0.83;
#TITLE:ska a go go;
#SUBTITLE:(CD Another);
#ARTIST:THE BALD HEADS;
#TITLETRANSLIT:;
#SUBTITLETRANSLIT:;
#ARTISTTRANSLIT:;
#GENRE:;
#ORIGIN:;
#CREDIT:;
#BANNER:ska a go go.png;
#BACKGROUND:ska a go go-bg.png;
#PREVIEWVID:;
#JACKET:ska a go go-jacket.png;
#CDIMAGE:;
#DISCIMAGE:;
#LYRICSPATH:;
#CDTITLE:;
#MUSIC:Ska a go go perfect mix.ogg;
#OFFSET:0.810000;
#SAMPLESTART:44.709999;
#SAMPLELENGTH:12.019000;
#SELECTABLE:YES;
#BPMS:0.000=160.000,
104.000=144.000,
116.000=160.015;
#STOPS:;
#DELAYS:;
#WARPS:;
#TIMESIGNATURES:0.000=4=4;
#TICKCOUNTS:0.000=4;
#COMBOS:0.000=1;
#SPEEDS:0.000=1.000=0.000=0;
#SCROLLS:0.000=1.000;
#FAKES:;
#LABELS:0.000=Song Start;
#BGCHANGES:;
#KEYSOUNDS:;
#ATTACKS:
;

//---------------dance-single - ----------------
#NOTEDATA:;
#CHARTNAME:;
#STEPSTYPE:dance-single;
#DESCRIPTION:;
#CHARTSTYLE:;
#DIFFICULTY:Beginner;
#METER:3;
#RADARVALUES:0.188203,0.296420,0.063953,0.000000,0.000000,103.000000,98.000000,5.000000,0.000000,0.000000,0.000000,0.000000,0.000000,0.000000,0.188203,0.296420,0.063953,0.000000,0.000000,103.000000,98.000000,5.000000,0.000000,0.000000,0.000000,0.000000,0.000000,0.000000;
#CREDIT:;
#NOTES:
0000
0000
0000
0000
,
0000
0000
0000
0000
,
0000
0000
0000
0000
,
0000
0000
0000
0000
,
0000
0000
0000
0000
,
0000
0000
0000
0000
,
1000
1000
1000
1000
,
1000
1000
1000
0000
,
0001
0001
0001
0001
,
0001
0001
0001
0000
,
0000
0001
0000
0001
,
0000
0001
0000
0001
,
0000
1000
0000
1000
,
1000
0000
0001
0000
,
0010
0010
0000
0000
,
0010
0010
0000
0000
,
0100
0100
0000
0000
,
0100
0100
0000
0000
,
0010
0010
0000
0000
,
0010
0010
0000
0000
,
0100
0100
0000
0000
,
0100
0100
0000
0000
,
1000
0000
0000
0000
,
0001
0000
0000
0000
,
1000
0000
0000
0000
,
0001
0000
0001
0000
,
0100
0000
0000
0000
,
0100
0000
0000
0000
,
0010
0000
0000
0000
,
0010
0000
0010
0000
,
1000
0000
0000
0000
,
0100
0000
0000
0000
,
0001
0000
0000
0000
,
0010
0000
0000
0000
,
1000
0000
0000
0000
,
0100
0000
0000
0000
,
0001
0000
0000
0000
,
0010
0000
0000
0000
,
0010
0010
0010
0010
,
0010
0010
0010
0010
,
0010
0010
0010
0000
,
1001
0000
1001
0000
,
0100
0100
0100
0100
,
0100
0100
0100
0100
,
0100
0100
0100
0000
,
1001
0000
1001
0000
,
1000
1000
1000
0000
,
1000
1000
1000
0000
,
1000
1000
1000
0000
,
1001
0000
0000
0000
,
0001
0001
0001
0000
,
0001
0001
0001
0000
;

//---------------dance-single - ----------------
#NOTEDATA:;
#CHARTNAME:;
#STEPSTYPE:dance-single;
#DESCRIPTION:;
#CHARTSTYLE:;
#DIFFICULTY:Easy;
#METER:8;
#RADARVALUES:0.334380,0.563981,0.102324,0.000000,0.051162,183.000000,175.000000,8.000000,0.000000,0.000000,0.000000,0.000000,0.000000,0.000000,0.334380,0.563981,0.102324,0.000000,0.051162,183.000000,175.000000,8.000000,0.000000,0.000000,0.000000,0.000000,0.000000,0.000000;
#CREDIT:;
#NOTES:
// measure 0
0000
0000
0000
0000
,  // measure 1
0000
0000
0000
0000
,  // measure 2
0000
0000
0000
0000
,  // measure 3
0000
0000
0000
0000
,  // measure 4
0000
0000
0000
0000
,  // measure 5
0000
0000
0000
0000
,  // measure 6
1000
1000
1000
1000
,  // measure 7
0001
0001
0001
0001
,  // measure 8
1000
1000
1000
1000
,  // measure 9
0001
0001
0001
0001
,  // measure 10
0000
0001
0000
0001
0000
0001
0000
0001
,  // measure 11
0000
1000
0000
1000
0001
0000
1001
0000
,  // measure 12
0000
0001
0000
0001
0000
0001
0000
0001
,  // measure 13
1000
0000
0000
0000
0000
0000
0000
0000
0000
0000
1000
0000
0000
0000
0000
0000
0000
0000
0000
0000
0000
1000
0000
0000
0000
0000
0000
0000
0000
0000
0000
0000
0001
0000
0000
0000
0000
0000
0000
0000
0000
0000
0000
0001
0000
0000
0000
0000
0000
0000
0000
0000
0000
0000
0001
0000
0000
0000
0000
0000
0000
0000
0000
0000
,  // measure 14
0000
1000
0000
1000
0000
1000
0000
1000
,  // measure 15
0000
0000
0000
0000
,  // measure 16
0000
0001
0000
0001
0000
0001
0000
0001
,  // measure 17
0000
0000
0000
0000
,  // measure 18
0000
1000
0000
1000
0000
1000
0000
1000
,  // measure 19
0000
0000
0000
0000
,  // measure 20
0000
0001
0000
0001
0000
0001
0000
0001
,  // measure 21
0000
0000
0000
0000
,  // measure 22
0000
1000
0000
1000
0000
1000
0000
1000
,  // measure 23
0000
1000
0000
1000
0000
1000
0000
1000
,  // measure 24
0000
1000
0000
1000
0000
1000
0000
1000
,  // measure 25
0000
1000
0000
1000
0001
0000
1001
0000
,  // measure 26
0100
0000
0010
0000
,  // measure 27
0001
0000
1000
0000
,  // measure 28
0100
0000
0010
0000
,  // measure 29
1000
0000
0000
0000
0000
0000
0000
0000
0000
0000
1000
0000
0000
0000
0000
0000
0000
0000
0000
0000
0000
1000
0000
0000
0000
0000
0000
0000
0000
0000
0000
0000
0001
0000
0000
0000
0000
0000
0000
0000
0000
0000
0000
0001
0000
0000
0000
0000
0000
0000
0000
0000
0000
0000
0001
0000
0000
0000
0000
0000
0000
0000
0000
0000
,  // measure 30
0100
0010
1000
0000
,  // measure 31
0100
0010
0001
0000
,  // measure 32
0100
0010
1000
0000
,  // measure 33
0100
0010
0001
0000
,  // measure 34
1000
0010
0100
0000
,  // measure 35
0001
0010
0100
0000
,  // measure 36
1001
0000
0110
0000
,  // measure 37
1001
0110
1001
0110
,  // measure 38
1000
0001
0010
0100
,  // measure 39
1000
0001
0010
0100
,  // measure 40
1000
0001
0010
0100
,  // measure 41
1000
1000
0000
0000
0001
0001
0000
0000
,  // measure 42
0100
0010
1000
0001
,  // measure 43
0100
0010
1000
0001
,  // measure 44
0100
0010
1000
0001
,  // measure 45
0100
0100
0000
0000
0010
0010
0000
0000
,  // measure 46
1000
0001
1000
0001
1000
0001
0001
0001
,  // measure 47
1000
0001
1000
0001
1000
0001
0001
0001
,  // measure 48
1000
0001
1000
0001
1000
0001
0001
0001
,  // measure 49
1000
0000
0000
0000
,  // measure 50
0001
1000
0010
0100
0001
1000
1000
1000
,  // measure 51
0001
1000
0010
0100
0001
1000
1000
1000
;

//---------------dance-single - ----------------
#NOTEDATA:;
#CHARTNAME:;
#STEPSTYPE:dance-single;
#DESCRIPTION:;
#CHARTSTYLE:;
#DIFFICULTY:Medium;
#METER:12;
#RADARVALUES:0.531720,1.096106,0.127905,0.000000,0.306972,291.000000,281.000000,10.000000,0.000000,0.000000,0.000000,0.000000,0.000000,0.000000,0.531720,1.096106,0.127905,0.000000,0.306972,291.000000,281.000000,10.000000,0.000000,0.000000,0.000000,0.000000,0.000000,0.000000;
#CREDIT:;
#NOTES:
// measure 0
0000
0000
0000
0000
,  // measure 1
0000
0000
0000
0000
,  // measure 2
0000
0000
0000
0000
,  // measure 3
0000
0000
0000
0000
,  // measure 4
0000
0000
0000
0000
,  // measure 5
0000
0000
0000
0000
,  // measure 6
0000
1000
0000
1000
0000
1000
0000
1000
,  // measure 7
0100
0001
0000
0001
0000
0001
0000
0001
,  // measure 8
0010
1000
0000
1000
0000
1000
0000
1000
,  // measure 9
0100
0001
0000
0001
0000
0001
0000
0001
,  // measure 10
0000
1000
0000
1000
0000
1000
0000
1000
,  // measure 11
0010
0100
0000
0100
0001
0000
1010
0000
,  // measure 12
0000
0001
0000
0100
0000
0010
0000
1000
,  // measure 13
0001
0000
0000
0000
0000
0000
0000
0000
0000
0000
0010
0000
0000
0000
0000
0000
0000
0000
0000
0000
0000
0100
0000
0000
0000
0000
0000
0000
0000
0000
0000
0000
1000
0000
0000
0000
0000
0000
0000
0000
0000
0000
0000
0010
0000
0000
0000
0000
0000
0000
0000
0000
0000
0000
0100
0000
0000
0000
0000
0000
0000
0000
0000
0000
,  // measure 14
0000
1000
0000
1000
0000
1000
0000
1000
,  // measure 15
0000
0000
0000
0000
0001
0010
0001
0000
,  // measure 16
0000
0001
0000
0001
0000
0001
0000
0001
,  // measure 17
0000
0000
0000
0000
1000
0010
1000
0000
,  // measure 18
0000
1000
0000
1000
0000
1000
0000
1000
,  // measure 19
0000
0000
0000
0000
0100
1000
1010
0000
,  // measure 20
0000
0001
0000
0001
0000
0001
0000
0001
,  // measure 21
0000
0000
0000
0000
0100
0001
0011
0000
,  // measure 22
0001
1000
0001
0010
0001
0100
0001
1000
,  // measure 23
0001
0010
0001
0100
0001
1000
0001
0010
,  // measure 24
0001
0100
0001
1000
0001
0010
0001
0100
,  // measure 25
0001
1000
0001
0010
0100
0000
1001
0000
,  // measure 26
0100
0100
0100
0000
0010
0010
0010
0000
,  // measure 27
0001
0001
0001
0000
1000
1000
1000
0000
,  // measure 28
0100
0100
0100
0000
0010
0010
0010
0000
,  // measure 29
0001
0000
0000
0000
0000
0000
0000
0000
0000
0000
0010
0000
0000
0000
0000
0000
0000
0000
0000
0000
0000
0100
0000
0000
0000
0000
0000
0000
0000
0000
0000
0000
1000
0000
0000
0000
0000
0000
0000
0000
0000
0000
0000
0010
0000
0000
0000
0000
0000
0000
0000
0000
0000
0000
0100
0000
0000
0000
0000
0000
0000
0000
0000
0000
,  // measure 30
0000
0000
0000
0000
0000
0100
0010
1000
,  // measure 31
0000
0000
0000
0000
0000
0100
0010
0001
,  // measure 32
0000
0000
0000
0000
0000
0100
0010
1000
,  // measure 33
0000
0000
0000
0000
0000
0100
0010
0001
,  // measure 34
0000
0000
0000
0000
0000
1000
0010
0100
,  // measure 35
0000
0000
0000
0000
0000
0001
0010
0100
,  // measure 36
1001
0000
0110
0000
,  // measure 37
1100
0011
0101
1010
,  // measure 38
0100
0001
1000
0010
0100
0001
1000
0010
,  // measure 39
0100
0001
1000
0010
0100
0001
1000
0010
,  // measure 40
0100
0001
1000
0010
0100
0001
1000
0010
,  // measure 41
0100
0100
0000
0000
0001
0001
0000
0000
,  // measure 42
1000
0100
0010
0001
1000
0100
0010
0001
,  // measure 43
1000
0100
0010
0001
1000
0100
0010
0001
,  // measure 44
1000
0100
0010
0001
1000
0100
0010
0001
,  // measure 45
1000
1000
0000
0000
0100
0100
0000
0000
,  // measure 46
0001
0010
0001
0010
0001
0010
0001
0010
0001
0010
0001
0010
0001
0010
0001
0010
,  // measure 47
0001
0010
0001
0010
0001
0010
0001
0010
0001
0010
0001
0010
0001
0010
0001
0010
,  // measure 48
0001
0010
0001
0010
0001
0010
0001
0010
0001
0010
0001
0010
0001
0010
0001
0010
,  // measure 49
0001
0000
0000
0000
,  // measure 50
1000
0100
1000
0100
1000
0100
1000
0100
1000
0100
1000
0100
1000
0100
1000
0100
,  // measure 51
1000
0100
1000
0100
1000
0100
1000
0100
1000
0100
1000
0100
1000
0100
1000
0100
;

//---------------dance-single - ----------------
#NOTEDATA:;
#CHARTNAME:;
#STEPSTYPE:dance-single;
#DESCRIPTION:;
#CHARTSTYLE:;
#DIFFICULTY:Hard;
#METER:13;
#RADARVALUES:0.628562,1.062891,0.217439,0.000000,0.153486,344.000000,327.000000,17.000000,0.000000,0.000000,0.000000,0.000000,0.000000,0.000000,0.628562,1.062891,0.217439,0.000000,0.153486,344.000000,327.000000,17.000000,0.000000,0.000000,0.000000,0.000000,0.000000,0.000000;
#CREDIT:;
#NOTES:
// measure 0
0000
0000
0000
0000
,  // measure 1
0000
0000
0000
0000
,  // measure 2
0000
0000
0000
0000
,  // measure 3
0000
0000
0000
0000
,  // measure 4
0000
0000
0000
0000
,  // measure 5
0000
0000
0000
0000
,  // measure 6
0100
1000
0100
1000
0100
1000
0100
1000
,  // measure 7
0100
0001
1000
0001
1000
0001
1000
0001
,  // measure 8
1000
0010
0100
0010
0100
0010
0100
0010
,  // measure 9
0100
1000
0001
1000
0001
1000
0001
0000
,  // measure 10
0000
1000
0000
1000
0000
1000
0000
1000
,  // measure 11
0100
0010
0001
1000
0100
0010
1001
0000
,  // measure 12
0010
0001
1000
0100
0010
0001
0100
1000
,  // measure 13
0011
0000
0000
0000
0000
0000
0000
0000
0000
0000
1001
0000
0000
0000
0000
0000
0000
0000
0000
0000
0000
0101
0000
0000
0000
0000
0000
0000
0000
0000
0000
0000
1010
0000
0000
0000
0000
0000
0000
0000
0000
0000
0000
1001
0000
0000
0000
0000
0000
0000
0000
0000
0000
0000
1100
0000
0000
0000
0000
0000
0000
0000
0000
0000
,  // measure 14
0000
1000
0000
0100
0000
0010
0000
0001
,  // measure 15
1000
0010
1000
0100
0001
0100
0001
0000
,  // measure 16
0000
0010
0000
0001
0000
0100
0000
1000
,  // measure 17
0100
0010
0100
0001
1000
0100
1000
0000
,  // measure 18
0000
1000
0000
0100
0000
0010
0000
0001
,  // measure 19
1000
0010
1000
0100
0001
0100
1100
0000
,  // measure 20
0000
0001
0000
0010
0000
0100
0000
1000
,  // measure 21
0001
0010
0001
0100
1000
0100
0101
0000
,  // measure 22
1000
0010
0001
0010
1000
0010
0001
0010
,  // measure 23
1000
0010
0001
0010
1000
0010
0001
0010
,  // measure 24
1000
0100
0001
0100
1000
0010
0001
0010
,  // measure 25
1000
0100
0001
0100
1010
0000
0101
0000
,  // measure 26
0010
1000
0010
1000
0100
0001
0100
0001
,  // measure 27
1000
0010
1000
0010
0001
0100
0001
0100
,  // measure 28
0010
1000
0010
1000
0100
0001
0100
0001
,  // measure 29
0011
0000
0000
0000
0000
0000
0000
0000
0000
0000
1001
0000
0000
0000
0000
0000
0000
0000
0000
0000
0000
0101
0000
0000
0000
0000
0000
0000
0000
0000
0000
0000
1010
0000
0000
0000
0000
0000
0000
0000
0000
0000
0000
1001
0000
0000
0000
0000
0000
0000
0000
0000
0000
0000
1100
0000
0000
0000
0000
0000
0000
0000
0000
0000
,  // measure 30
0001
0000
0010
0000
0100
1000
0010
0100
,  // measure 31
0001
0000
0010
0000
0100
1000
0010
0100
,  // measure 32
0001
0000
1000
0000
0100
0010
0001
0100
,  // measure 33
0001
0000
1000
0000
0100
0010
0001
0100
,  // measure 34
1000
0000
0100
0000
0001
0010
0100
1000
,  // measure 35
0001
0000
0100
0000
0010
1000
0100
0001
,  // measure 36
0100
1000
0000
1000
0001
0010
0000
0010
,  // measure 37
0100
1000
0001
0100
0010
1000
0001
0010
,  // measure 38
0100
1000
0010
0100
0001
1000
0100
0010
,  // measure 39
0001
1000
0010
0100
0001
0010
0100
1000
,  // measure 40
0010
0100
0001
1000
0100
0010
0001
0100
,  // measure 41
0010
0010
1000
0100
0001
0001
0000
0000
,  // measure 42
1000
0010
0100
1000
0100
0001
0010
0100
,  // measure 43
1000
0010
0100
0001
0010
0100
1000
0010
,  // measure 44
0100
0001
0010
1000
0010
0001
0100
0010
,  // measure 45
1000
1000
0001
0010
0100
0100
0000
0000
,  // measure 46
1000
0001
1000
0010
0100
0001
0001
0001
,  // measure 47
1000
0100
0010
0001
0100
0010
0010
0010
,  // measure 48
1000
0010
0001
0010
1000
0100
0100
0100
,  // measure 49
0001
0000
0000
0000
,  // measure 50
1000
0001
1000
0001
1000
0001
1000
0001
1000
0001
1000
0001
1000
0001
1000
0001
,  // measure 51
1000
0001
1000
0001
1000
0001
1000
0001
1000
0001
1000
0001
1000
0001
1000
0001
;

//---------------dance-single - Nifara----------------
#NOTEDATA:;
#CHARTNAME:Nifara;
#STEPSTYPE:dance-single;
#DESCRIPTION:Nifara;
#CHARTSTYLE:;
#DIFFICULTY:Challenge;
#METER:18;
#RADARVALUES:0.871582,1.129322,0.447668,0.051162,1.176726,477.000000,442.000000,35.000000,4.000000,0.000000,0.000000,0.000000,0.000000,0.000000,0.871582,1.129322,0.447668,0.051162,1.176726,477.000000,442.000000,35.000000,4.000000,0.000000,0.000000,0.000000,0.000000,0.000000;
#CREDIT:Nifara;
#NOTES:
// measure 0
0000
0000
0000
0000
,  // measure 1
0000
0000
0000
0000
,  // measure 2
0000
0000
0000
0000
,  // measure 3
0000
0000
0000
0000
,  // measure 4
0000
0000
0000
0000
,  // measure 5
0000
0000
0000
0000
,  // measure 6
0000
0000
1000
0010
0000
0000
0010
1000
0000
0000
1000
0010
0000
0000
0010
1000
,  // measure 7
0000
0000
0001
1000
0000
0000
0001
0010
0000
0000
0100
1000
0000
0000
1000
0010
,  // measure 8
0000
0000
0100
0010
0000
0000
0100
0001
0000
0000
1000
0100
0000
0000
0010
0001
,  // measure 9
0000
0000
0001
1000
0000
0000
1000
0010
0000
0000
0010
1000
0000
0000
1000
0001
,  // measure 10
0000
0000
1000
0100
0000
0000
1000
0100
0000
0000
1000
0100
0000
0000
1000
0100
,  // measure 11
0000
0000
1000
0100
0000
0000
1000
0100
1100
0000
0000
0000
1100
0000
0000
0000
,  // measure 12
0000
0000
0001
1000
0000
0000
1000
0001
0000
0000
0001
1000
0000
0000
1000
0010
,  // measure 13
0100
0000
0000
0000
0000
0010
0000
0000
0000
0000
0100
0000
0000
0000
0000
0010
0000
0000
0000
0000
0100
0000
0000
0000
0000
0010
0000
0000
0000
0000
0100
0000
0000
0000
0000
0000
0000
0000
0000
0000
0000
0110
0000
0000
0000
0000
0000
0000
0000
0000
0000
0000
0110
0000
0000
0000
0000
0000
0000
0000
0000
0000
0000
0000
,  // measure 14
0000
0000
1000
0100
0000
0000
1000
0010
0000
0000
0010
0100
0000
0000
0010
0100
,  // measure 15
0010
0100
0010
0100
0010
0000
0000
0010
0000
0010
0100
0000
0000
0000
0000
0000
,  // measure 16
0000
0000
0100
0001
0000
0000
0100
0010
0000
0000
0010
0100
0000
0000
0100
0010
,  // measure 17
0100
0010
0100
0010
0100
0010
0100
0010
0000
0010
0100
0000
0000
0000
0000
0000
,  // measure 18
0000
0000
0100
0010
0000
0000
0010
1000
0000
0000
1000
0001
0000
0000
0100
0010
,  // measure 19
0100
0001
0100
0010
0100
0001
0100
0010
0100
0010
0000
0010
0100
0000
0000
0000
,  // measure 20
0000
0000
1000
0100
0000
0000
1000
0100
0000
0000
1000
0100
0000
0000
1000
0100
,  // measure 21
1000
0010
1000
0001
1000
0010
1000
0100
0000
0100
1000
0000
0000
0000
0000
0000
,  // measure 22
0010
1000
0100
0010
0000
0001
0000
0010
,  // measure 23
0000
0100
0000
1000
0000
1000
0100
0001
,  // measure 24
0000
1000
0010
0001
0000
1000
0100
0001
,  // measure 25
0000
1000
0010
0001
0011
0000
0110
0000
,  // measure 26
0200
1000
1000
0000
,  // measure 27
0320
0100
0100
0000
,  // measure 28
0032
1000
1000
0000
,  // measure 29
0103
0000
0000
0000
0000
0010
0000
0000
0000
0000
1000
0000
0000
0000
0000
0010
0000
0000
0000
0000
0100
0000
0000
0000
0000
0010
0000
0000
0000
0000
1000
0000
0000
0000
0000
0000
0000
0000
0000
0000
0000
1010
0000
0000
0000
0000
0000
0000
0000
0000
0000
0000
0110
0000
0000
0000
0000
0000
0000
0000
0000
0000
0000
0000
,  // measure 30
2000
0000
3010
0000
0010
0110
1001
0110
,  // measure 31
1000
0100
1000
0010
1000
1100
0110
0011
,  // measure 32
0010
0100
1000
0100
0010
0011
0110
1100
,  // measure 33
1000
0100
0010
0001
0001
0011
0110
1100
,  // measure 34
0100
0000
1000
0000
0001
0011
0110
1100
,  // measure 35
0000
1000
0000
0100
1000
1100
1100
1100
,  // measure 36
1001
0000
0000
0100
0010
0000
0010
0100
0000
0000
0000
0100
0010
0000
0010
0100
,  // measure 37
0000
0000
0100
0010
0000
0000
0100
0010
0100
0000
0010
0100
0001
0010
0001
0100
,  // measure 38
0010
1000
0100
0010
0100
1000
0010
0100
0001
0010
0100
1000
0010
0100
0001
1000
,  // measure 39
0010
0100
0001
0010
0100
1000
0010
1000
0010
0100
0010
0100
0001
0010
0001
1000
,  // measure 40
0010
0100
0001
0010
0100
1000
0001
0100
0001
0010
0100
1000
0010
0100
0010
0100
,  // measure 41
0110
0000
0110
0000
0010
0100
0010
0000
0110
0000
0110
0000
0010
0100
0010
0000
,  // measure 42
0010
0100
0001
0010
0001
0100
0001
0010
0100
1000
0001
0100
0010
1000
0100
1000
,  // measure 43
0001
0010
0100
0010
0001
1000
0001
0100
0010
1000
0001
1000
0001
0100
0001
0010
,  // measure 44
0100
1000
0100
0010
0100
1000
0001
0100
0001
0010
0001
0100
0001
0010
0001
0100
,  // measure 45
0101
0101
0000
0000
1010
1010
0000
0000
,  // measure 46
0001
0010
0001
0100
0001
1000
0001
0100
0001
0010
0001
0100
0001
1000
0001
0100
,  // measure 47
0001
0010
0001
0100
0001
1000
0001
0100
0001
0010
0001
0100
0001
1000
0001
0100
,  // measure 48
0001
0010
0001
0100
0001
1000
0001
0100
0001
0010
0001
0100
0001
1000
0001
0100
,  // measure 49
0001
0010
0001
0100
0001
0000
1000
0001
1000
0001
1000
0001
1000
0001
1000
0001
,  // measure 50
1000
0100
1000
0010
1000
0001
1000
0010
1000
0100
1000
0010
1000
0001
1000
0010
,  // measure 51
1000
0100
1000
0010
1000
0001
1000
0010
1000
0100
1000
0010
1000
0001
1000
0010
;
