#TITLE:mnemoniq;
#SUBTITLE:;
#ARTIST:youhei shimizu;
#TITLETRANSLIT:;
#SUBTITLETRANSLIT:;
#ARTISTTRANSLIT:;
#GENRE:;
#CREDIT:;
#BANNER:;
#BACKGROUND:mnemoniq-bg.jpg;
#LYRICSPATH:;
#CDTITLE:;
#MUSIC:mnemoniq.mp3;
#OFFSET:-0.460005;
#SAMPLESTART:17.696999;
#SAMPLELENGTH:14.999995;
#SELECTABLE:YES;
#BPMS:0.000000=111.250000
;
#STOPS:
;
#BGCHANGES:;
#KEYSOUNDS:;
#ATTACKS:;

//---------------dance-single - ----------------
#NOTES:
     dance-single:
     :
     Medium:
     7:
     0.269544,0.306845,0.047647,0.209646,0.028588,198.000000,193.000000,5.000000,22.000000,0.000000,0.000000,0.269544,0.306845,0.047647,0.209646,0.028588,198.000000,193.000000,5.000000,22.000000,0.000000,0.000000:
0000
0000
0000
0000
,
0000
0000
0000
0000
,
0000
0000
0000
0000
,
0000
0000
0000
0000
,
0000
0000
1000
0000
0000
1000
0000
0000
2000
0000
0000
0000
3000
0000
0000
0000
,
0000
0000
0001
0000
0000
0001
0000
0000
0002
0000
0000
0000
0003
0000
0000
0000
,
0000
0000
0100
0000
0000
0100
0000
0000
0200
0000
0000
0000
0300
0000
0000
0000
,
0000
0000
0010
0000
0000
0010
0000
0000
0020
0000
0100
0000
0130
0000
0000
0000
,
0100
0000
0100
0000
0100
0000
0100
0010
,
1000
0000
1000
0000
1000
0000
1000
0100
,
0010
0000
0010
0000
0010
0000
0010
0001
,
0200
0320
2030
3002
,
1003
0000
1000
0000
1000
0000
1000
0001
,
0010
0000
0010
0000
0010
0000
0010
0001
,
0100
0000
0100
0000
0100
0010
0100
0010
,
0200
0000
0000
0300
,
1000
0001
1000
0000
0001
1000
0001
0000
,
0100
0010
0100
0000
0010
0100
0010
0000
,
1000
0100
1000
0000
0100
1000
0100
0000
,
0010
0001
0010
0000
0001
0010
0001
0000
,
1000
0001
0100
0000
0001
1000
0100
0000
,
1000
0001
0010
0000
0001
1000
0010
0000
,
1000
0100
0010
0000
0001
0010
0100
0000
,
1000
0010
0100
0000
0001
0100
0010
0000
,
1000
0000
0000
1000
0000
0000
1000
0000
0000
0000
0000
0000
0000
0000
0000
0000
,
0001
0000
0000
0001
0000
0000
0001
0000
0000
0000
0000
0000
0000
0000
0000
0000
,
2002
0000
0000
3003
,
1000
0001
1000
0000
0001
1000
0001
0000
,
0100
0010
0100
0000
0010
0100
0010
0000
,
1000
0100
1000
0000
0100
1000
0100
0000
,
0010
0001
0010
0000
0001
0010
0001
0000
,
1000
0001
0100
0000
0001
1000
0100
0000
,
1000
0001
0010
0000
0001
1000
0010
0000
,
1000
0100
0010
0000
0001
0010
0100
0000
,
1000
0010
0100
0000
0001
0100
0010
0000
,
2002
0000
0000
3003
,
0100
0000
0100
0000
0100
0000
0100
0010
,
1000
0000
1000
0000
1000
0000
1000
0100
,
0010
0000
0010
0000
0010
0000
0010
0001
,
0200
0320
2030
3002
,
1003
0000
1000
0000
1000
0000
1000
0001
,
0010
0000
0010
0000
0010
0000
0010
0001
,
0100
0000
0100
0000
0100
0010
0100
0010
,
0200
0000
0000
0300
,
2002
0000
0000
3003
,
0220
0000
0000
0330
,
1001
0000
0000
0000
;

//---------------dance-single - ----------------
#NOTES:
     dance-single:
     :
     Easy:
     4:
     0.221898,0.263010,0.190587,0.247763,0.000000,163.000000,143.000000,20.000000,26.000000,0.000000,0.000000,0.221898,0.263010,0.190587,0.247763,0.000000,163.000000,143.000000,20.000000,26.000000,0.000000,0.000000:
0000
0000
0000
0000
,
0000
0000
0000
0000
,
0000
0000
0000
0000
,
0000
0000
0000
0000
,
0200
0000
0000
0300
,
0100
0000
0000
0000
,
0020
0000
0000
0030
,
0010
0000
0000
0000
,
1001
1000
1000
1000
,
1001
0001
0001
0001
,
0110
0100
0100
0100
,
0110
0010
0010
0010
,
1001
0001
0001
0001
,
1001
1000
1000
1000
,
0110
0010
0010
0010
,
0110
0100
0100
0100
,
2000
0001
0001
3001
,
0002
0010
0010
0013
,
0020
0001
0001
0031
,
0002
1000
1000
1003
,
2000
0010
0010
3010
,
0020
0100
0100
0130
,
0200
0001
0001
0301
,
0002
1000
1000
1003
,
1000
2000
0000
3000
,
0001
0002
0000
0003
,
0000
0001
0010
0100
,
2000
0001
0001
3001
,
0002
0010
0010
0013
,
0020
0001
0001
0031
,
0002
1000
1000
1003
,
2000
0010
0010
3010
,
0020
0100
0100
0130
,
0200
0001
0001
0301
,
0002
1000
1000
1003
,
2002
0000
0000
3003
,
1001
1000
1000
1000
,
1001
0001
0001
0001
,
0110
0100
0100
0100
,
0110
0010
0010
0010
,
1001
0001
0001
0001
,
1001
1000
1000
1000
,
0110
0010
0010
0010
,
0110
0100
0100
0100
,
2002
0000
0000
3003
,
0220
0000
0000
0330
,
1001
0000
0000
0000
;

//---------------dance-single - ----------------
#NOTES:
     dance-single:
     :
     Hard:
     12:
     0.457409,0.547937,0.171528,0.133411,0.285880,336.000000,318.000000,18.000000,14.000000,0.000000,0.000000,0.457409,0.547937,0.171528,0.133411,0.285880,336.000000,318.000000,18.000000,14.000000,0.000000,0.000000:
0000
0000
0000
0000
,
0000
0000
0000
0000
,
0000
0000
0000
0000
,
0000
0000
0000
0000
,
0000
0000
1000
0000
0000
1000
0000
0000
2000
0000
0000
0000
3000
0000
0000
0000
,
0000
0000
0001
0000
0000
0001
0000
0000
0002
0000
0000
0000
0003
0000
0000
0000
,
0000
0000
0100
0000
0000
0100
0000
0000
0200
0000
0000
0000
0300
0000
0000
0000
,
0000
0000
0010
0000
0000
0010
0000
0000
0020
0000
0100
0000
1030
0000
0000
0000
,
1001
0000
0000
0000
1000
0000
0001
0100
0000
0001
0100
0000
0010
0000
1000
0000
,
1001
0000
0000
0000
1000
0000
0001
0100
0000
0001
0100
0000
0010
0000
1000
0000
,
1001
0000
0000
0000
1000
0000
0001
0100
0000
0001
0100
0000
0010
0000
1000
0000
,
1001
0000
0000
0000
1000
0000
0001
0100
0000
0001
0100
0000
0010
0000
1000
0000
,
0100
0000
0000
0000
1100
0000
0000
0000
1000
0000
0001
0000
1000
0001
0100
0001
,
0100
0000
0000
0000
1100
0000
0000
0000
1000
0000
0001
0000
1000
0001
0100
0001
,
0100
0000
0000
0000
1100
0000
0000
0000
1000
0000
0001
0000
1000
0001
0100
0001
,
0100
0000
0010
0000
0100
0001
0100
0010
1000
0100
1000
0010
0100
0001
0100
0010
,
1000
0100
1000
0010
0100
0001
0100
0010
,
1000
0100
1000
0010
0100
0001
0100
0010
,
1000
0010
0100
0010
0100
0010
1000
0010
,
0100
0010
0001
0010
0100
0010
1000
0010
,
0100
0010
1000
0100
0010
0001
0100
0010
,
1000
0100
0010
0100
1000
0010
0100
0010
,
0100
0001
0100
0010
0100
0001
0010
0001
,
0100
0000
0001
0000
0010
0000
0001
0000
1000
0000
0001
0000
1000
0010
0100
0001
,
1000
0000
0000
1100
0000
0000
2002
0000
0000
0000
0000
0000
3003
0000
0000
0000
,
0001
0000
0000
0101
0000
0000
2002
0000
0000
0000
0000
0000
0000
0000
0000
0000
,
0003
0001
0001
3001
,
1000
0010
0100
0001
0100
0010
1000
0100
,
1000
0010
0100
0001
0100
0010
0100
0001
,
0100
0010
0100
1000
0100
0010
0100
0001
,
0100
0010
0100
1000
0100
0010
0100
0001
,
1000
0100
1000
0100
0010
0001
0100
0010
,
1000
0100
0010
0100
1000
0010
0100
0010
,
1000
0001
0100
0001
0100
0010
0100
0001
,
0010
0000
0000
0001
0000
0000
1000
0000
0000
0100
0000
0000
1000
0000
0100
0010
0000
0001
0100
0000
0010
1000
0000
0100
,
2000
3000
0002
0003
0200
0300
0020
0030
,
1001
0000
0000
0000
1000
0000
0001
0100
0000
0001
0100
0000
0010
0000
1000
0000
,
1001
0000
0000
0000
1000
0000
0001
0100
0000
0001
0100
0000
0010
0000
1000
0000
,
1001
0000
0000
0000
1000
0000
0001
0100
0000
0001
0100
0000
0010
0000
1000
0000
,
1001
0000
0000
0000
1000
0000
0001
0100
0000
0001
0100
0000
0010
0000
1000
0000
,
0100
0000
0000
0000
1100
0000
0000
0000
1000
0000
0001
0000
1000
0001
0100
0001
,
0100
0000
0000
0000
1100
0000
0000
0000
1000
0000
0001
0000
1000
0001
0100
0001
,
0100
0000
0000
0000
1100
0000
0000
0000
1000
0000
0001
0000
1000
0001
0100
0001
,
0100
0000
0010
0000
0100
0001
0100
0010
1000
0100
1000
0010
0100
0001
0100
0010
,
0200
0000
0000
0001
0000
0000
0001
0000
0000
0001
0000
0000
0301
0000
2000
0000
,
0010
0000
0000
0000
0000
0000
0000
0000
0000
0010
0000
0000
0000
0000
0000
0000
0000
0000
0001
0000
0000
0000
0000
0000
3001
0000
0000
0000
0001
0000
0000
0000
1000
0000
0001
0000
1000
0000
0000
0000
0100
0000
0000
0000
0010
0000
0000
0000
,
0001
0000
0000
0000
;

//---------------dance-single - ----------------
#NOTES:
     dance-single:
     :
     Beginner:
     2:
     0.123881,0.153422,0.028588,0.057176,0.000000,91.000000,88.000000,3.000000,6.000000,0.000000,0.000000,0.123881,0.153422,0.028588,0.057176,0.000000,91.000000,88.000000,3.000000,6.000000,0.000000,0.000000:
// measure 0
0000
0000
0000
0000
,  // measure 1
0000
0000
0000
0000
,  // measure 2
0000
0000
0000
0000
,  // measure 3
0000
0000
0000
0000
,  // measure 4
0200
0000
0000
0300
,  // measure 5
0100
0000
0000
0000
,  // measure 6
0020
0000
0000
0030
,  // measure 7
0010
0000
0000
0000
,  // measure 8
1000
1000
1000
0000
,  // measure 9
0001
0001
0001
0000
,  // measure 10
0100
0100
0100
0000
,  // measure 11
0010
0010
0010
0000
,  // measure 12
0001
0001
0001
0000
,  // measure 13
1000
1000
1000
0000
,  // measure 14
0010
0010
0010
0000
,  // measure 15
0100
0100
0100
0000
,  // measure 16
1000
0000
0001
0000
,  // measure 17
0001
0000
0010
0000
,  // measure 18
0010
0000
0001
0000
,  // measure 19
0001
0000
1000
0000
,  // measure 20
1000
0000
0010
0000
,  // measure 21
0010
0000
0100
0000
,  // measure 22
0100
0000
0001
0000
,  // measure 23
0001
0000
1000
0000
,  // measure 24
2000
0000
3000
0000
,  // measure 25
0002
0000
0003
0000
,  // measure 26
0000
0000
0000
0000
,  // measure 27
1000
0000
0001
0000
,  // measure 28
0001
0000
0010
0000
,  // measure 29
0010
0000
0001
0000
,  // measure 30
0001
0000
1000
0000
,  // measure 31
1000
0000
0010
0000
,  // measure 32
0010
0000
0100
0000
,  // measure 33
0100
0000
0001
0000
,  // measure 34
0001
0000
1000
0000
,  // measure 35
2000
0000
0000
3000
,  // measure 36
1000
1000
1000
0000
,  // measure 37
0001
0001
0001
0000
,  // measure 38
0100
0100
0100
0000
,  // measure 39
0010
0010
0010
0000
,  // measure 40
0001
0001
0001
0000
,  // measure 41
1000
1000
1000
0000
,  // measure 42
0010
0010
0010
0000
,  // measure 43
0200
0300
0000
0000
,  // measure 44
1001
0000
0000
0000
,  // measure 45
1001
0000
0000
0000
,  // measure 46
1001
0000
0000
0000
;
