#TITLE:greed eater;
#SUBTITLE:;
#ARTIST:The Dust Fathers;
#TITLETRANSLIT:;
#SUBTITLETRANSLIT:;
#ARTISTTRANSLIT:;
#GENRE:;
#CREDIT:;
#BANNER:;
#BACKGROUND:greed eater-bg.jpg;
#LYRICSPATH:;
#CDTITLE:;
#MUSIC:greed eater.mp3;
#OFFSET:-0.498000;
#SAMPLESTART:47.641048;
#SAMPLELENGTH:12.000000;
#SELECTABLE:YES;
#BPMS:0.000000=111.933998
;
#STOPS:
;
#BGCHANGES:;
#KEYSOUNDS:;
#ATTACKS:;

//---------------dance-double - Niferoni----------------
#NOTES:
     dance-double:
     Niferoni:
     Beginner:
     2:
     0.078098,0.113181,0.013667,0.000000,0.000000,40.000000,39.000000,1.000000,0.000000,0.000000,0.000000,0.078098,0.113181,0.013667,0.000000,0.000000,40.000000,39.000000,1.000000,0.000000,0.000000,0.000000:
00000000
00000000
00000000
00000000
,
00000000
00000000
00000000
00000000
,
00000000
00100000
00000000
00000000
00000000
00000000
00000000
00000000
,
00000000
00001000
00000000
00000000
00000000
00000000
00000000
00000000
,
00000000
00100000
00000000
00000000
00000000
00000000
00000000
00000000
,
00000000
00010000
00000000
00000000
00000000
00000000
00000000
00000000
,
00000000
00000100
00000000
00000000
00000000
00000000
00000000
00000000
,
00000000
00001000
00000000
00000000
00000000
00000000
00000000
00000000
,
00000000
00010000
00000000
00000000
00000000
00000000
00000000
00000000
,
00000000
00100000
00000000
00000000
00000000
00000000
00000000
00000000
,
00000000
10000000
00000000
00000000
00000000
00000000
00000000
00000000
,
00000000
00100000
00000000
00000000
00000000
00000000
00000000
00000000
,
00000000
00000100
00000000
00000000
00000000
00000000
00000000
00000000
,
00000000
00001000
00000000
00000000
00000000
00000000
00000000
00000000
,
00000000
00010000
00000000
00000000
00000000
00000000
00000000
00000100
,
00000000
00000000
00000000
00000000
00000000
00001000
00000000
00010000
,
00000000
00001000
00000000
00000000
00000000
00000000
00000000
01000000
,
00000000
00000000
00000000
00100000
00000000
00000000
00000000
00010000
,
00000000
00100000
00000000
00000000
00000000
00000000
00000000
00000000
,
00000000
00010000
00000000
00000000
00000000
00000100
00000000
00001000
,
00000000
00000010
00000000
00000000
00000000
00000000
00000000
00000000
,
00000000
00000100
00000000
00000000
00000000
00000001
00000000
00000010
,
00000000
00000100
00000000
00000000
00000000
00000000
00000000
00000000
,
00000000
00001000
00000000
00000000
00000000
00000000
00000000
00000000
,
00000000
00010000
00000000
00000000
00000000
00000000
00000000
00000000
,
00000000
00000000
00000000
00000000
,
00000000
00100000
00000000
00000000
00000000
00000000
00000000
00000000
,
00000000
01000000
00000000
00000000
00000000
00000000
00000000
00000000
,
00000000
10000000
00000000
00000000
00000000
00000000
00000000
00000000
,
00000000
01000000
00000000
00100000
00000000
00010000
00000000
00000100
,
00000000
00000000
00000000
00000000
,
00000000
00000000
00000000
00000000
,
00000000
00000000
00000000
00000000
,
00000000
00011000
00000000
00000000
00000000
00000000
00000000
00000000
;

//---------------dance-double - ----------------
#NOTES:
     dance-double:
     :
     Easy:
     6:
     0.156196,0.226448,0.000000,0.000000,0.000000,80.000000,80.000000,0.000000,0.000000,0.000000,0.000000,0.156196,0.226448,0.000000,0.000000,0.000000,80.000000,80.000000,0.000000,0.000000,0.000000,0.000000:
00000000
00000000
00000000
00000000
,
00000000
00000000
00000000
00000000
,
00000000
00010000
00000000
00000000
00000000
00000000
00000000
00000000
,
00000000
00001000
00000000
00000000
00000000
00100000
00000000
00001000
,
00000000
00010000
00000000
00000000
00000000
00000000
00000000
00000000
,
00000000
01000000
00000000
00100000
00000000
00010000
00000000
00001000
,
00000000
00000000
00000000
00010000
00000000
00000000
00000000
00000100
,
00000000
00100000
00000000
00001000
00000000
00000000
00000000
00000000
,
00000000
00010000
00000000
00100000
00000000
00010000
00000000
00001000
,
00000000
00000000
00000000
00000000
,
00000000
01000000
00000000
00100000
00000000
00010000
00000000
10000000
,
00000000
00000000
00000000
00001000
00000000
00000100
00000000
00000010
,
00000000
00000000
00000000
00000001
00000000
00001000
00000000
00010000
,
00000000
00000000
00000000
00000000
,
00000000
01000000
00000000
00010000
00000000
00000000
00000000
00000000
,
00000000
00001000
00000000
00000010
00000000
00000000
00000000
00000000
,
00000000
10000000
00000000
00010000
00000000
00000000
00000000
00000000
,
00000000
00001000
00000000
00000001
00000000
00000000
00000000
00000000
,
00000000
00100000
00000000
00010000
00000000
00000000
00000000
00000000
,
00000000
00001000
00000000
00000100
00000000
00001000
00000000
00000100
,
00000000
00100000
00000000
00010000
00000000
00000000
00000000
00000000
,
00000000
00010000
00000000
00001000
00000000
00001000
00000100
00001000
,
00000000
00010000
00000000
00010000
00000000
00010000
00000000
00010000
,
00000000
00001000
00000000
00001000
00000000
00001000
00000000
00001000
,
00000000
00000100
00000000
00000100
00000000
00000100
00000000
00000100
,
00000000
00000000
00000000
00000100
00000010
00000100
00000000
00000000
,
00000000
00000000
00000000
00001000
00000000
00000100
00000000
00000010
,
00000000
00000000
00000000
00010000
00000000
00010000
00000000
00010000
,
00000000
00000000
00000000
00100000
00000000
00100000
00000000
00100000
,
00000000
01000000
10000000
01000000
10000000
01000000
10000000
01000000
,
00000000
00100000
00000000
00000000
00000000
00000000
00000000
00000000
;

//---------------dance-double - ----------------
#NOTES:
     dance-double:
     :
     Medium:
     8:
     0.294821,0.359447,0.082003,0.082003,0.082003,151.000000,145.000000,6.000000,6.000000,0.000000,0.000000,0.294821,0.359447,0.082003,0.082003,0.082003,151.000000,145.000000,6.000000,6.000000,0.000000,0.000000:
00000000
00000000
00000000
00000000
,
00000000
00000000
00000000
00000000
,
00000000
00000000
10000000
01000000
10000000
01000000
10000000
01000000
,
00000000
00000000
01000000
00100000
01000000
00100000
01000000
00100000
,
00000000
00000000
00100000
00010000
00100000
00010000
00100000
00010000
,
00000000
00000000
00010000
00001000
00010000
00001000
00010000
00001000
,
00000000
00000000
00001000
00000100
00001000
00000100
00001000
00000100
,
00000000
00000000
00000100
00000010
00000100
00000010
00000100
00000010
,
00000000
00000000
00000010
00000001
00000010
00000001
00000010
00000001
,
00000000
00001001
00000000
00000000
00000000
00000000
00000000
00000000
,
00000000
00000000
00000010
00000001
00000010
00000001
00000010
00000001
,
00000000
00000000
00000010
00000100
00000010
00000100
00000010
00000100
,
00000000
00000000
00000100
00001000
00000100
00001000
00000100
00001000
,
00000000
00011000
00000000
00011000
00000000
00011000
00000000
00011000
,
00000000
00011000
00000000
00010000
00000000
00000000
00001000
00010000
,
00000000
00001000
00000000
00000100
00000000
00001000
00010000
00100000
,
00000000
01000000
00000000
00010000
00100000
00010000
00100000
00010000
,
00000000
00000000
00001000
00000000
00000000
00000000
00100000
00000000
00001000
00000000
00010000
00001000
00000000
00000000
00001000
00010000
,
00000000
00100000
00000000
00100000
00010000
00000000
00010000
00001000
,
00000000
00001000
00000100
00000000
00000100
00000010
00000000
00000010
,
00000000
00000100
00000000
00000000
00000100
00000000
00000010
00000000
,
00000000
00000100
00000000
00001000
00000000
00010000
00000000
00100000
,
00000000
00000000
01000000
00000000
10000000
02000000
00000000
00000000
00000000
00000000
00000000
00000000
00000000
00000000
00000000
00000000
,
03000000
00000000
00001000
00000000
00010000
00002000
00000000
00000000
00000000
00000000
00000000
00000000
00000000
00000000
00000000
00000000
,
00003000
00000000
00010000
00000000
00001000
00020000
00000000
00000000
00000000
00000000
00000000
00000000
00000000
00000000
00000000
00000000
,
00030000
00000000
01000000
00000000
00000000
00000000
00100000
00000000
00000000
01000000
00000000
00000000
00100000
01000000
00000000
00000000
,
00000000
00000000
00100000
00000000
00100000
02000000
00000000
00000000
00000000
00000000
00000000
00000000
00000000
00000000
00000000
00000000
,
03000000
00000000
01000000
00000000
01000000
20000000
00000000
00000000
00000000
00000000
00000000
00000000
00000000
00000000
00000000
00000000
,
30000000
00000000
01000000
00000000
00100000
00020000
00000000
00000000
00000000
00000000
00000000
00000000
00000000
00000000
00000000
00000000
,
00030000
00000000
00001000
00000000
00000000
00000000
00000100
00000000
00000000
00001000
00000000
00000000
00000100
00001000
00000000
00000000
,
00000000
00001000
00000000
00001000
00000000
00001000
00000000
00001000
,
00001000
00001000
00000000
00001000
00000000
00000100
00000000
00000100
,
00000010
00000100
00000000
00000100
00000000
00000000
00000000
00000010
;

//---------------dance-double - ----------------
#NOTES:
     dance-double:
     :
     Hard:
     11:
     0.382681,0.475361,0.123005,0.136672,0.252843,196.000000,187.000000,9.000000,10.000000,0.000000,0.000000,0.382681,0.475361,0.123005,0.136672,0.252843,196.000000,187.000000,9.000000,10.000000,0.000000,0.000000:
00000000
00000000
00000000
00000000
,
00000000
00000000
00000000
00000000
,
00000000
00000000
00010000
00000000
00001000
00000000
00010000
00000000
00001000
00000000
00010000
00001000
00000000
00000000
00011000
00000000
,
00000000
00000000
00000100
00000010
00000100
00000010
00000100
00000010
,
00000100
00000000
00000000
00000000
00000010
00000000
00000001
00000000
00000010
00000000
00000001
00000010
00000000
00000000
00000011
00000000
,
00000000
00000001
00000010
00000100
00001000
00010000
00100000
01000000
,
10000000
00000000
10000000
00000000
01000000
00000000
00100000
00000000
01000000
00000000
00010000
00100000
00000000
00000000
00110000
00000000
,
00000000
00000000
10000000
01000000
00100000
00010000
00001000
00000100
,
00000010
00000000
00000001
00000000
00000100
00000000
00000010
00000000
00000100
00000000
00000100
00000010
00000000
00000000
00000110
00000000
,
00000000
00000000
00000001
00000010
00000000
00000010
00000000
00000000
00000010
00000100
00000000
00000010
00000000
00000000
00000010
00000001
,
00000000
00000000
00000001
00000000
00001000
00000000
00000010
00000000
00000100
00000000
00000001
00001000
00000000
00000000
00000110
00000000
,
00000000
00000000
00000001
00000010
00000100
00001000
00010000
00100000
,
01000000
00000000
10000000
00000000
01000000
00000000
00100000
00000000
10000000
00000000
01000000
00100000
00000000
00000000
01100000
00000000
,
00000000
00000000
10000000
00100000
00000000
01000000
00000000
00000000
00010000
01000000
00000000
00100000
00000000
00000000
01000000
00100000
,
00000000
20000000
00000000
01000000
00000000
00100000
00000000
01000000
,
01000000
01000000
00000000
00100000
00000000
01000000
30000000
00100000
,
00000000
02000000
00000000
00010000
00000000
00100000
00000000
00100000
,
00000000
00000000
00010000
00000000
00000000
00000000
00100000
00000000
03000000
00000000
00100000
00010000
00000000
00000000
00010000
00100000
,
00000000
00020000
00000000
00100000
00000000
00100000
00000000
01000000
,
00000000
00100000
00000000
01000000
00000000
10000000
00000000
01000000
,
00000000
00230000
00000000
00010000
00000000
01000000
00000000
01000000
,
00000000
00000000
00000000
01000000
00000000
00000000
00000000
00000000
00000000
00010000
00000000
00000000
00000000
00000000
00000000
00010000
00000000
00000000
00000000
00000000
00000000
00000000
00010000
00000000
,
00300000
00000000
00100000
00000000
00100000
00020000
00000000
00000000
00000000
00000000
00000000
00000000
00000000
00000000
00000000
00000000
,
00030000
00000000
00001000
00000000
00000100
00002000
00000000
00000000
00000000
00000000
00000000
00000000
00000000
00000000
00000000
00000000
,
00003000
00000000
00000100
00000000
00000010
00000200
00000000
00000000
00000000
00000000
00000000
00000000
00000000
00000000
00000000
00000000
,
00000300
00000000
00001100
00000000
00001000
00000100
00001000
00000000
00001000
00000100
00000000
00000000
00000100
00000010
00000000
00000000
,
00000100
00000000
00000010
00000000
00000010
00000002
00000000
00000000
00000000
00000000
00000000
00000000
00000000
00000000
00000000
00000000
,
00000003
00000000
00000100
00000000
00000010
00000200
00000000
00000000
00000000
00000000
00000000
00000000
00000000
00000000
00000000
00000000
,
00000300
00000000
00000100
00000000
00000100
00002000
00000000
00000000
00000000
00000000
00000000
00000000
00000000
00000000
00000000
00000000
,
00003000
00000000
00011000
00000000
00001000
00010000
00001000
00000000
00010000
00001000
00000000
00000000
00001000
00010000
00000000
00000000
,
00010000
00000000
00001000
00010000
00001000
00010000
00001000
00000000
00010000
00000000
00001000
00000000
00010000
00000000
00001000
00000000
,
00010000
00000000
00001000
00010000
00001000
00010000
00001000
00000000
00010000
00000000
00001000
00000000
00010000
00000000
00001000
00000000
,
00010000
00000000
00010000
00001000
00010000
00001000
00010000
00000000
00001000
00000000
00010000
00000000
00001000
00000000
00010000
00000000
,
00000000
00011000
00000000
00000000
00000000
00000000
00000000
00000000
;

//---------------dance-single - ----------------
#NOTES:
     dance-single:
     :
     Hard:
     11:
     0.370966,0.451017,0.123005,0.000000,0.116171,190.000000,181.000000,9.000000,0.000000,0.000000,0.000000,0.370966,0.451017,0.123005,0.000000,0.116171,190.000000,181.000000,9.000000,0.000000,0.000000,0.000000:
0000
0000
0000
0000
,
0000
0000
0000
0000
,
0000
0000
0000
0000
,
0000
0000
0000
0000
,
0000
0000
0000
0000
,
1000
0100
0000
0010
0100
0000
1000
0100
0000
0010
0100
0000
1000
0000
0100
0000
,
1000
1000
1000
0000
0001
0001
0001
0000
,
1000
1000
1000
0000
0001
0001
0001
0000
,
1000
0001
0100
0000
0001
1000
0100
0000
,
0100
0100
0100
0100
0100
0000
1001
0000
,
0010
0010
0010
0000
0100
0100
0100
0000
,
0001
0001
0001
0000
1000
1000
1000
0000
,
0100
0010
0001
0000
1000
0100
0010
0000
,
0010
0010
0010
0010
0010
0000
1001
0000
,
1000
0001
1000
0100
1000
0001
1000
1000
,
0001
1000
0001
0100
0001
1000
0001
0001
,
1000
0100
1000
0010
0100
0001
0100
0100
,
0001
0100
0001
0010
0100
1000
0100
0100
,
1000
0010
0100
0010
1000
0100
0010
0100
,
1000
0001
0010
0100
0010
0001
0100
0010
,
0100
0001
1000
0100
0010
0001
0100
0010
,
1000
0100
0010
0001
1001
0000
0000
0000
,
1000
1000
1000
1000
1000
0000
0110
0000
,
0001
0001
0001
0001
0001
0000
0110
0000
,
1000
1000
1000
1000
1000
0000
0110
0000
,
0001
0100
0000
0010
1000
0000
0100
1000
0000
0010
0100
0001
0100
0010
1000
0100
,
0010
0010
0010
0010
0010
0000
1001
0000
,
0100
0100
0100
0100
0100
0000
1001
0000
,
0010
0010
0010
0010
0010
0000
1001
0000
,
1000
0100
0000
0100
0001
0000
0001
0010
0000
0010
1000
0000
1000
0100
0010
0001
,
0100
0000
0000
0000
;

//---------------dance-single - ----------------
#NOTES:
     dance-single:
     :
     Medium:
     8:
     0.275296,0.328012,0.232342,0.000000,0.000000,141.000000,124.000000,17.000000,0.000000,0.000000,0.000000,0.275296,0.328012,0.232342,0.000000,0.000000,141.000000,124.000000,17.000000,0.000000,0.000000,0.000000:
0000
0000
0000
0000
,
0000
0000
0000
0000
,
0000
0000
0000
0000
,
0000
0000
0000
0000
,
0000
0000
0000
0000
,
0001
0000
1000
0000
0001
0001
0001
0000
,
1000
1000
1000
0000
0001
0001
0001
0000
,
1000
1000
1000
0000
0001
0001
0001
0000
,
0100
0100
0100
0000
0010
0010
0010
0000
,
0100
0100
0100
0000
1001
0000
0100
0000
,
0010
0010
0010
0000
0100
0100
0100
0000
,
0001
0001
0001
0000
1000
1000
1000
0000
,
0001
0001
0001
0000
1000
1000
1000
0000
,
0010
0010
0010
0000
1001
0000
0010
0000
,
1000
0000
0000
0000
,
1000
0000
0000
0000
,
0001
0001
0001
0001
,
0001
0001
0001
0001
,
0100
0010
0100
0000
0010
0100
0010
0000
,
0100
0001
0010
0000
0100
1000
0010
0000
,
0100
0001
0100
0000
0010
1000
0010
0000
,
1000
0100
1000
0000
0001
0010
0001
0000
,
1000
0000
1000
1000
1000
0000
0110
0000
,
0001
0000
0001
0001
0001
0000
0110
0000
,
1000
0000
1000
1000
1000
0000
0110
0000
,
1001
1001
1001
1001
,
0010
0000
0010
0010
0010
0000
1001
0000
,
0100
0000
0100
0100
0100
0000
1001
0000
,
0010
0000
0010
0010
0010
0000
1001
0000
,
0110
0110
0110
0110
,
1001
0000
0000
0000
;

//---------------dance-single - ----------------
#NOTES:
     dance-single:
     :
     Easy:
     5:
     0.210865,0.287011,0.150339,0.000000,0.000000,108.000000,97.000000,11.000000,0.000000,0.000000,0.000000,0.210865,0.287011,0.150339,0.000000,0.000000,108.000000,97.000000,11.000000,0.000000,0.000000,0.000000:
0000
0000
0000
0000
,
0000
0000
0000
0000
,
0000
0000
0000
0000
,
0000
0000
0000
0000
,
0000
0000
0000
0000
,
0001
1000
0001
1000
,
1000
1000
0001
0001
,
1000
1000
0001
0001
,
0100
0100
0010
0010
,
0100
0100
0100
0000
1001
0000
0100
0000
,
0010
0010
0100
0100
,
0001
0001
1000
1000
,
0001
0001
1000
1000
,
0010
0010
0010
0000
1001
0000
0010
0000
,
1000
0000
0000
0000
,
1000
0000
0000
0000
,
0001
0001
0001
0001
,
0001
0001
0001
0001
,
0100
0100
0010
0010
,
0100
0010
0100
0010
,
1000
1000
0001
0001
,
1000
0001
1000
0001
,
1000
0000
1000
1000
1000
0000
0000
0000
,
0001
0000
0001
0001
0001
0000
0000
0000
,
1000
0000
1000
1000
1000
0000
0000
0000
,
1001
1001
1001
1001
,
0010
0000
0010
0010
0010
0000
0000
0000
,
0100
0000
0100
0100
0100
0000
0000
0000
,
0010
0000
0010
0010
0010
0000
0000
0000
,
0110
0110
0110
0110
,
1001
0000
0000
0000
;

//---------------dance-single - ----------------
#NOTES:
     dance-single:
     :
     Beginner:
     1:
     0.109337,0.164006,0.000000,0.000000,0.000000,56.000000,56.000000,0.000000,0.000000,0.000000,0.000000,0.109337,0.164006,0.000000,0.000000,0.000000,56.000000,56.000000,0.000000,0.000000,0.000000,0.000000:
// measure 0
0000
0000
0000
0000
,  // measure 1
0000
0000
0000
0000
,  // measure 2
0000
0000
0000
0000
,  // measure 3
0000
0000
0000
0000
,  // measure 4
0000
0000
0000
0000
,  // measure 5
0001
0000
1000
0000
,  // measure 6
1000
1000
0000
0000
,  // measure 7
0001
0001
0000
0000
,  // measure 8
0100
0100
0000
0000
,  // measure 9
0010
0010
0000
0000
,  // measure 10
0010
0010
0000
0000
,  // measure 11
0001
0001
0000
0000
,  // measure 12
1000
1000
0000
0000
,  // measure 13
0100
0100
0000
0000
,  // measure 14
1000
0000
0000
0000
,  // measure 15
1000
0000
0000
0000
,  // measure 16
0001
0000
0000
0000
,  // measure 17
0001
0000
0000
0000
,  // measure 18
0010
0010
0000
0000
,  // measure 19
0100
0000
0100
0000
,  // measure 20
0001
0001
0000
0000
,  // measure 21
1000
0000
1000
0000
,  // measure 22
1000
1000
1000
0000
,  // measure 23
0001
0001
0001
0000
,  // measure 24
1000
1000
1000
0000
,  // measure 25
0001
0001
0001
0000
,  // measure 26
0010
0010
0010
0000
,  // measure 27
0100
0100
0100
0000
,  // measure 28
0010
0010
0010
0000
,  // measure 29
0100
0100
0100
0100
,  // measure 30
0100
0000
0000
0000
;
