#VERSION:0.83;
#TITLE:fffff;
#SUBTITLE:;
#ARTIST:Five Hammer;
#TITLETRANSLIT:;
#SUBTITLETRANSLIT:;
#ARTISTTRANSLIT:;
#GENRE:;
#ORIGIN:;
#CREDIT:;
#BANNER:;
#BACKGROUND:;
#PREVIEWVID:;
#JACKET:;
#CDIMAGE:;
#DISCIMAGE:;
#LYRICSPATH:;
#CDTITLE:;
#MUSIC:fffff.ogg;
#OFFSET:-1.148942;
#SAMPLESTART:35.915989;
#SAMPLELENGTH:12.000000;
#SELECTABLE:YES;
#BPMS:0.000=138.000;
#STOPS:;
#DELAYS:;
#WARPS:;
#TIMESIGNATURES:0.000=4=4;
#TICKCOUNTS:0.000=4;
#COMBOS:0.000=1;
#SPEEDS:0.000=1.000=0.000=0;
#SCROLLS:0.000=1.000;
#FAKES:;
#LABELS:0.000=Song Start;
#BGCHANGES:;
#KEYSOUNDS:;
#ATTACKS:
;

//---------------dance-single - ----------------
#NOTEDATA:;
#CHARTNAME:;
#STEPSTYPE:dance-single;
#DESCRIPTION:;
#CHARTSTYLE:;
#DIFFICULTY:Hard;
#METER:13;
#RADARVALUES:0.614884,0.555143,0.136951,0.136951,0.293467,440.000000,426.000000,14.000000,14.000000,0.000000,0.000000,0.000000,0.000000,0.000000,0.614884,0.555143,0.136951,0.136951,0.293467,440.000000,426.000000,14.000000,14.000000,0.000000,0.000000,0.000000,0.000000,0.000000;
#CREDIT:;
#NOTES:
0000
0000
0000
0000
,
0000
0000
0000
0000
,
1000
0100
0001
0010
1000
0100
0001
0010
,
0001
0100
1000
0010
0001
0100
1000
0010
,
1000
0100
0010
0001
1000
0100
0010
0001
,
1000
0100
0010
0001
1000
0100
0010
0001
,
1000
0010
0100
0001
1000
0010
0100
0001
,
1000
0010
0100
1000
0100
0001
0100
0110
,
0001
0100
0010
1000
0001
0100
0010
1000
,
0001
0100
0010
1000
0001
0100
0010
1000
,
0001
0010
0100
1000
0001
0010
0100
1000
,
0001
0010
0100
0001
0100
1000
0100
0110
,
1000
1000
0010
0010
0100
0100
0001
0001
,
0010
0010
0100
0100
1000
1000
0010
0010
,
0100
0100
1000
1000
0100
0100
0001
0001
,
0100
0100
0010
0010
1000
1000
0100
1001
,
0001
0001
0010
0010
0100
0100
1000
1000
,
0010
0010
0100
0100
0001
0001
0010
0010
,
0100
0100
0001
0001
0100
0100
1000
1000
,
0100
0000
0100
0000
0010
0000
0010
0000
0001
0000
0000
0101
0000
0000
0110
0000
,
1001
0000
0000
0000
0010
0000
0000
0000
0100
0000
0000
0100
0000
0000
0001
0000
,
0010
0000
0100
0000
0010
0000
0001
0000
1000
0100
1000
0001
0000
0000
0000
0000
,
0000
0000
0010
0000
0010
0000
0100
0000
1000
0000
0000
0010
0000
0000
0100
0000
,
0001
0000
0000
0000
0010
0000
0000
0000
0001
0000
0000
0000
1000
0000
0000
0000
0010
0000
0000
0000
1000
0000
0000
0000
0001
0000
0000
0000
0000
0000
0000
0000
0000
0100
0000
0000
0000
0000
0000
0000
0000
0000
0110
0000
0000
0000
0000
0000
,
0000
0000
1000
0000
0001
0000
0001
0000
0100
0000
0000
0010
0000
0000
1000
0000
,
0100
0000
0010
0000
0001
0000
1000
0000
0100
0000
0000
0001
0000
0000
0000
0000
,
0000
0000
1000
0000
0001
0000
0100
0000
0010
0000
0000
0010
0000
0000
1000
0000
,
0100
0010
0100
0010
0100
0010
0100
0000
0000
0000
1000
0000
0000
0001
0000
0000
,
0010
0000
0010
0000
0100
0000
0100
0000
1000
0000
0001
0100
0000
0001
0100
0000
,
0001
0000
2000
3100
0000
1000
0200
0300
0010
0000
0002
1003
0000
0001
2000
3000
,
0010
0000
0010
0000
0100
0000
0100
0000
0001
0000
1000
0100
0000
1000
0100
0000
,
0010
0000
0002
0103
0000
0001
0200
0300
0010
0000
2000
3001
0000
1000
0002
0003
,
1000
0000
1000
0000
0010
0000
0010
0000
0100
0000
0001
0010
0000
0001
1000
0000
,
0100
0000
2000
3010
0000
1000
0002
0003
0010
0000
0200
1300
0000
0010
2000
3000
,
0001
0000
0001
0000
0010
0000
0010
0000
0100
0000
1000
0010
0000
1000
0001
0000
,
0100
0000
0001
0010
0000
0001
1000
0000
0010
0000
0100
0001
0000
0010
0001
0000
,
1000
0000
1000
0000
0010
0000
0100
0000
0001
1000
0000
0100
0000
0000
0000
0000
,
0000
0000
0010
0001
1000
0001
0000
0100
0000
0010
0000
1000
0000
0001
0000
0000
,
0000
0000
0100
0010
0100
0010
0000
1000
0000
0001
0000
0100
0000
0010
0000
1000
,
0001
1000
0000
0100
0000
0010
0000
0001
0000
0000
1000
0000
0000
0000
0010
0000
,
0100
0001
0100
1000
0100
0010
0100
0001
,
0010
0100
1000
0010
0100
0001
1000
0010
,
1000
0001
0010
0100
1000
0001
0010
0100
,
0010
1001
1100
0101
,
1000
0010
1000
0100
0001
0010
0001
0100
,
1000
0010
1000
0100
0001
0010
0001
0100
,
1000
0100
0010
0001
1000
0010
0100
0001
,
1000
0100
0010
0001
1000
0100
0010
0001
,
0100
0010
0100
0001
0100
0010
0100
0001
,
1000
0100
1000
0001
1000
0100
1000
0001
,
0010
0100
1000
0010
0100
0001
1000
0100
,
0010
0101
1100
1001
,
0001
0100
1000
1000
0001
0100
1000
1000
,
0001
0100
0010
0010
0001
0100
0010
0010
,
1000
0100
0010
0010
1000
0100
0001
0001
,
1000
0100
0010
0010
0001
1000
0010
0010
,
0000
0000
0000
2002
0000
0000
3003
0000
;

//---------------dance-single - ----------------
#NOTEDATA:;
#CHARTNAME:;
#STEPSTYPE:dance-single;
#DESCRIPTION:;
#CHARTSTYLE:;
#DIFFICULTY:Challenge;
#METER:16;
#RADARVALUES:0.824504,0.888228,0.792362,0.136951,0.841273,590.000000,509.000000,81.000000,14.000000,0.000000,0.000000,0.000000,0.000000,0.000000,0.824504,0.888228,0.792362,0.136951,0.841273,590.000000,509.000000,81.000000,14.000000,0.000000,0.000000,0.000000,0.000000,0.000000;
#CREDIT:;
#NOTES:
0000
0000
0000
0000
,
0000
0000
0000
0000
,
1000
0010
0100
0001
1000
0010
0100
0001
,
1000
0100
0010
0001
1000
0100
0010
0001
,
1000
0010
1000
0000
0010
0100
0010
0000
0100
0001
0100
0000
0001
1000
0001
0000
,
0010
0001
0010
0000
0100
0010
0100
0000
1000
0100
1000
0000
0001
1000
0001
0000
,
0100
0010
0100
0000
0010
1000
0010
0000
1000
0001
1000
0000
0100
0010
0100
0000
,
0010
0001
0010
0000
0001
1000
0001
0000
0100
0010
0100
0000
0010
0000
1001
0000
,
0001
0010
0001
0000
0010
0100
0010
0000
0100
1000
0100
0000
1000
0001
1000
0000
,
0010
1000
0010
0000
0100
0010
0100
0000
0001
0100
0001
0000
1000
0001
1000
0000
,
0100
0010
0100
0000
0010
0001
0010
0000
0001
1000
0001
0000
0100
0010
0100
0000
,
0010
1000
0010
0000
1000
0001
1000
0000
0100
0010
0100
0000
0010
0000
1001
0000
,
0100
0010
0101
0010
0100
0010
1100
0010
,
0100
0010
0101
0010
0100
0010
1100
0010
,
0100
0010
0101
0010
0100
0010
1100
0010
,
0100
0010
0101
0010
1000
0001
0100
1001
,
0010
0100
0101
0010
0100
1000
1100
0010
,
0100
0001
0101
0010
0100
1000
1100
0010
,
0100
0001
0101
0010
0100
1000
1100
0010
,
0100
0000
0001
0000
0101
0000
0010
0000
0100
0000
0000
1000
0000
0000
0010
0000
,
0100
0000
0000
0000
1001
0000
0000
0000
1010
0000
0000
1100
0000
0000
1001
0000
,
0011
0000
0110
0000
1100
0000
1001
0000
1000
0010
0100
0001
0000
0000
0000
0000
,
0000
0000
0101
0000
1010
0000
1100
0000
0011
0000
0000
1001
0000
0000
0110
0000
,
1000
0000
0000
0000
0100
0000
0000
0000
1000
0000
0000
0000
0001
0000
0000
0000
0100
0000
0000
0000
0001
0000
0000
0000
1000
0000
0000
0000
0000
0000
0000
0000
0000
0110
0000
0000
0000
0000
0000
0000
0000
0000
1001
0000
0000
0000
0000
0000
,
0000
0000
0011
0000
0101
0000
1010
0000
1100
0000
0000
0011
0000
0000
1100
0000
,
0110
0000
0011
0000
1001
0000
1010
0000
0101
0000
0000
1010
0000
0000
0000
0000
,
0000
0000
0101
0000
0011
0000
1100
0000
1010
0000
0000
1001
0000
0000
0110
0000
,
0001
1000
0001
1000
0001
1000
0001
0000
0000
0000
1100
0000
0000
0011
0000
0000
,
0100
0000
0100
0000
0001
0000
0001
0000
1000
0000
0010
0100
0000
0001
0100
0000
,
0010
0000
2000
3100
0000
0010
0200
0300
1000
0000
0002
0013
0000
1000
0020
0030
,
0001
0000
0001
0000
1000
0000
1000
0000
0100
0000
0001
0100
0000
1000
0100
0000
,
0010
0000
0002
0103
0000
1000
0200
0300
0010
0000
2000
3001
0000
0100
0002
0003
,
0110
0000
0011
0000
0101
0000
1010
0000
1100
0000
1000
0001
0000
0100
0001
0000
,
1000
0000
0002
1003
0000
0100
2000
3000
0001
0000
0020
0130
0000
0010
0002
0003
,
0110
0000
1010
0000
1001
0000
0011
0000
0110
0000
0100
1000
0000
0100
0001
0000
,
0110
0000
0100
1000
0000
0100
0001
0000
0110
0000
0100
1000
0000
0100
0001
0000
,
0110
0000
0001
0000
1000
0000
0010
0000
0100
0001
0000
1000
0000
0000
0010
0000
,
0010
0000
0100
0001
1000
0100
0000
0010
0000
0001
0000
1000
0000
0110
0000
0000
,
0001
0000
1000
0100
1000
0001
0000
0010
0000
0100
0000
1000
0000
0010
0000
0100
,
0001
1000
0000
0010
0000
0010
0000
0100
0000
0000
1001
0000
0000
0000
0000
0000
,
1000
0100
1000
0100
0010
0100
0010
0001
0010
0001
1000
0001
,
0100
0001
0100
0010
0100
0010
1000
0010
1000
0001
1000
0100
,
0010
0000
0001
0000
0100
0000
0010
0000
1000
0000
0100
0000
0010
0000
0001
0000
1000
0000
0100
0000
0000
0010
0000
0000
,
1001
1100
0101
1001
,
0001
0100
0000
0010
1000
0000
0100
0001
0000
0100
1000
0000
0001
0010
0000
0100
,
0010
0001
0000
1000
0010
0000
0001
0010
0000
1000
0010
0000
0100
0010
0000
1000
,
0001
0100
0000
0010
0100
0000
0001
1000
0000
0100
0010
0000
0001
1000
0000
0100
,
0010
0001
0000
1000
0010
0000
0100
0001
0000
1000
0100
0000
0010
0100
1000
0001
,
0010
0100
0000
1000
0010
0000
0100
0001
0000
1000
0100
0000
0010
0100
0000
1000
,
0001
0010
0000
1000
0010
0000
0001
0010
0000
0100
1000
0000
0001
0100
0000
0010
,
0001
0010
0000
1000
0010
0000
0100
0001
0000
1000
0100
0000
0010
0000
0100
0000
,
1001
0101
1100
1001
,
0010
0001
0010
0000
1001
0000
0100
0000
0010
1000
0010
0000
1001
0000
0100
0000
,
0010
0001
0010
0000
1001
0000
0100
0000
0010
1000
0010
0000
1001
0000
0000
0000
,
0010
0100
1000
0010
0100
0001
1000
0100
0010
0001
1000
0010
0100
0001
1000
0100
,
0010
0001
0010
0100
1000
0010
0100
0001
1000
0100
0010
0001
1000
0010
0100
0001
,
0000
0000
0000
2002
0000
0000
3003
0000
;

//---------------dance-single - ----------------
#NOTEDATA:;
#CHARTNAME:;
#STEPSTYPE:dance-single;
#DESCRIPTION:;
#CHARTSTYLE:;
#DIFFICULTY:Medium;
#METER:10;
#RADARVALUES:0.444394,0.471871,0.234774,0.078258,0.044020,318.000000,294.000000,24.000000,8.000000,0.000000,0.000000,0.000000,0.000000,0.000000,0.444394,0.471871,0.234774,0.078258,0.044020,318.000000,294.000000,24.000000,8.000000,0.000000,0.000000,0.000000,0.000000,0.000000;
#CREDIT:;
#NOTES:
0000
0000
0000
0000
,
0000
0000
0000
0000
,
1000
0100
0001
0010
,
0001
0000
0100
0000
1000
0010
0100
0001
,
1000
1000
0001
0001
,
0010
0010
0100
0100
,
1000
1000
0001
0001
,
0100
0000
0100
0000
0010
1000
0100
0010
,
0001
0001
1000
1000
,
0010
0010
0100
0100
,
0001
0001
1000
1000
,
0100
0000
0100
0000
0010
0001
1000
0010
,
0100
0110
0001
0101
,
1000
1100
0001
0011
,
1000
1010
0001
0101
,
1000
0000
1010
0000
0001
0010
0100
1000
,
0001
1100
1000
0101
,
1000
1010
0001
0011
,
1000
0110
0001
0110
,
1000
0000
0000
0000
0001
0000
0000
0000
1000
0000
0000
1000
0000
0000
0001
0000
,
0100
0000
0000
0000
0010
0000
0000
0000
1000
0000
0000
0100
0000
0000
0010
0000
,
0001
0000
0100
0000
0001
0000
1000
0000
0001
0000
0000
0001
0000
0000
0000
0000
,
0000
0000
1000
0000
0100
0000
0010
0000
0001
0000
0000
1000
0000
0000
0100
0000
,
0020
0000
0000
0000
0000
0030
0000
0000
0001
0000
0000
0001
0000
0000
0100
0000
,
0000
0000
0010
0000
1000
0000
0000
0000
0100
0000
0000
0100
0000
0000
1000
0000
,
0001
0000
0100
0000
0010
0000
0000
0000
1000
0000
0000
1000
0000
0000
0000
0000
,
0000
0000
0010
0000
0100
0000
0001
0000
0010
0000
0000
0100
0000
0000
1000
0000
,
0002
0000
0000
0000
0003
0000
1000
0000
0000
0000
1000
0000
0000
0100
0000
0000
,
0010
0001
0100
1000
,
0010
0100
0010
0100
0001
0100
0010
0100
,
0001
0010
1000
0100
,
0010
0001
1000
0001
0010
0001
0100
0001
,
0010
1000
0100
0001
,
0010
0100
0010
0100
1000
0100
0010
0100
,
1000
0010
0001
0100
,
0010
1000
0001
1000
0010
1000
0100
1000
,
0001
0010
0010
0000
1000
0010
0100
0001
,
1000
0000
0010
0100
0010
1000
0100
0010
,
0001
0000
1000
0100
1000
0001
0100
0010
,
0100
0000
0010
1000
0010
0100
0010
0000
,
0210
0001
0010
0301
,
0120
1000
0100
1030
,
1200
0000
0310
0000
0201
0000
0310
0010
,
0100
0101
1100
1001
,
1000
0100
0010
0001
1000
0100
0010
0001
,
1000
0100
0010
0001
1000
0100
0010
0001
,
1000
0010
0100
0001
1000
0010
0100
0001
,
1000
0010
0100
0001
1000
0010
0100
0001
,
1000
0000
0010
0100
0010
0000
0001
1000
,
0001
0000
0010
0100
0010
0000
1000
0100
,
1000
0000
0001
0010
0100
0000
1000
0100
,
0010
0101
1100
1001
,
0001
0100
1000
0000
0001
0100
1000
0000
,
0001
0100
1000
0000
0010
0100
0001
0000
,
1000
0100
0001
0000
1000
0100
0001
0000
,
0010
0100
1000
0000
0001
0010
0100
1000
,
0000
0000
0000
2002
0000
0000
3003
0000
;

//---------------dance-single - ----------------
#NOTEDATA:;
#CHARTNAME:;
#STEPSTYPE:dance-single;
#DESCRIPTION:;
#CHARTSTYLE:;
#DIFFICULTY:Easy;
#METER:6;
#RADARVALUES:0.322814,0.416357,0.293467,0.088040,0.000000,231.000000,201.000000,30.000000,9.000000,0.000000,0.000000,0.000000,0.000000,0.000000,0.322814,0.416357,0.293467,0.088040,0.000000,231.000000,201.000000,30.000000,9.000000,0.000000,0.000000,0.000000,0.000000,0.000000;
#CREDIT:;
#NOTES:
0000
0000
0000
0000
,
0000
0000
0000
0000
,
0001
0001
1000
1000
,
0010
0010
0100
0100
,
0001
0010
0001
0010
,
0001
1000
0001
1000
,
0001
0100
0001
0100
,
0010
0010
0010
0010
,
1000
0100
1000
0100
,
1000
0001
1000
0001
,
1000
0010
1000
0010
,
0100
0100
0100
0100
,
0001
0011
1000
1010
,
0001
0011
1000
1010
,
0001
0101
1000
1100
,
0001
0010
0100
1000
,
0010
0110
1000
1100
,
0001
0101
0010
0011
,
0100
1100
1000
0110
,
1000
0001
0200
0300
,
0010
0010
1000
0100
,
0010
0010
0001
1000
,
0000
0001
0001
0100
,
0020
0000
0030
1000
,
0001
0001
1000
1000
,
0100
0010
0001
1000
,
0000
1000
0100
0010
,
0002
0003
0100
0010
,
0100
0100
0010
0010
,
1000
0001
1000
0001
,
0010
0010
0100
0100
,
0010
0001
1000
0100
,
0010
0010
0001
0001
,
0100
0101
1000
1010
,
0100
0100
1000
1000
,
0001
0011
1000
1010
,
0100
0001
0010
0000
,
0100
1000
0010
0010
,
1000
0001
0100
0001
,
1000
0000
1000
0100
,
0020
0000
0000
0000
,
0200
0000
0000
0330
,
2002
0000
3003
0100
,
0010
0010
1000
1000
,
0100
0001
0010
1000
,
1000
0010
0001
0100
,
0001
1000
0100
0010
,
0001
0001
0010
0100
,
1000
1000
0010
0100
,
0001
0001
0100
0010
,
1000
1000
0100
0010
,
1100
0101
1001
0110
,
1000
1010
0010
1010
,
0100
0110
0010
0110
,
0001
0101
0100
0101
,
1000
1100
0100
0110
,
0000
0000
0000
2002
0000
0000
3003
0000
;

//---------------dance-single - ----------------
#NOTEDATA:;
#CHARTNAME:;
#STEPSTYPE:dance-single;
#DESCRIPTION:;
#CHARTSTYLE:;
#DIFFICULTY:Beginner;
#METER:3;
#RADARVALUES:0.143939,0.221079,0.146734,0.088040,0.000000,103.000000,88.000000,15.000000,9.000000,0.000000,0.000000,0.000000,0.000000,0.000000,0.143939,0.221079,0.146734,0.088040,0.000000,103.000000,88.000000,15.000000,9.000000,0.000000,0.000000,0.000000,0.000000,0.000000;
#CREDIT:;
#NOTES:
0000
0000
0000
0000
,
0000
0000
0000
0000
,
0001
0000
0000
0000
,
1000
0000
0000
0000
,
0110
0000
0100
0000
,
0010
0000
0010
0000
,
0001
0000
0001
0000
,
1000
0000
1000
0000
,
0010
0000
0010
0000
,
0100
0000
0100
0000
,
0001
0000
1000
0000
,
0100
0000
0010
0000
,
0100
0000
1001
0000
,
0100
0000
1001
0000
,
0010
0000
1001
0000
,
0100
0000
0010
0000
,
1000
0000
0110
0000
,
0001
0000
0110
0000
,
0001
0000
1001
0000
,
0010
0000
0200
0000
,
0300
0000
0010
0000
,
0010
0000
0001
0000
,
0001
0000
1000
0000
,
0020
0000
0030
0000
,
0100
0000
0100
0000
,
0010
0000
0010
0000
,
1000
0000
0001
0000
,
0020
0000
0030
0000
,
0100
0000
0100
0000
,
0010
0000
0001
0000
,
0100
0000
0100
0000
,
1000
0000
0010
0000
,
0100
0000
0001
0000
,
0001
0000
1000
0000
,
1000
0000
0100
0000
,
0010
0000
0100
0000
,
0020
0000
0030
0000
,
0002
0000
0003
0000
,
2000
0000
3000
0000
,
0020
0000
0030
0000
,
0200
0000
0000
0000
,
0000
0000
0000
0000
,
0000
0000
0000
0300
,
0010
0000
0010
0000
,
1001
0000
0000
0000
,
1001
0000
0000
0000
,
1001
0000
0000
0000
,
0110
0000
0000
0000
,
1000
0000
0000
0000
,
0001
0000
0000
0000
,
0010
0000
0000
0000
,
0100
0000
0100
0000
,
0010
0000
1001
0000
,
0100
0000
1001
0000
,
0010
0000
0110
0000
,
0100
0000
0110
0000
,
0002
0000
0003
0000
;
