#VERSION:0.83;
#TITLE:era;
#SUBTITLE:(gc-phat mix);
#ARTIST:TaQ;
#TITLETRANSLIT:;
#SUBTITLETRANSLIT:;
#ARTISTTRANSLIT:;
#GENRE:Drum'n Bass;
#ORIGIN:;
#CREDIT:;
#BANNER:era (gc-phat mix)-bn.png;
#BACKGROUND:era (gc-phat mix)-bg.png;
#PREVIEWVID:;
#JACKET:;
#CDIMAGE:;
#DISCIMAGE:;
#LYRICSPATH:;
#CDTITLE:./CDTITLES/EM3.png;
#MUSIC:era (gc-phat mix).ogg;
#OFFSET:-0.817045;
#SAMPLESTART:54.098282;
#SAMPLELENGTH:12.000000;
#SELECTABLE:YES;
#BPMS:0.000=180.010,
221.000=90.005,
249.000=180.010;
#STOPS:92.000=1.000;
#DELAYS:;
#WARPS:;
#TIMESIGNATURES:0.000=4=4;
#TICKCOUNTS:0.000=4;
#COMBOS:0.000=1;
#SPEEDS:0.000=1.000=0.000=0;
#SCROLLS:0.000=1.000;
#FAKES:;
#LABELS:0.000=Song Start;
#BGCHANGES:;
#KEYSOUNDS:;
#ATTACKS:
;

//---------------dance-single - ----------------
#NOTEDATA:;
#CHARTNAME:;
#STEPSTYPE:dance-single;
#DESCRIPTION:;
#CHARTSTYLE:;
#DIFFICULTY:Hard;
#METER:12;
#RADARVALUES:0.565745,0.599939,0.326268,0.123757,0.005625,352.000000,323.000000,29.000000,11.000000,0.000000,0.000000,0.000000,0.000000,0.000000,0.565745,0.599939,0.326268,0.123757,0.005625,352.000000,323.000000,29.000000,11.000000,0.000000,0.000000,0.000000,0.000000,0.000000;
#CREDIT:;
#NOTES:
0000
0000
0000
0000
,
0000
0000
0000
0000
,
0000
0000
0000
0000
,
0000
0000
0000
0000
,
0000
0000
0000
0000
,
0000
0000
0000
0000
,
0000
0000
0000
0000
,
2001
0000
0000
0000
3010
0000
0000
1000
0001
0000
0010
0000
0100
0000
0000
0000
,
1000
0100
0001
0100
1000
0000
0010
0100
,
0001
0000
1000
0100
0010
0001
0010
0100
,
1000
0000
0001
0100
1000
0000
0010
1000
,
0010
0000
0100
0001
1000
0100
0010
0001
,
0001
0100
1000
0100
0001
0000
1000
0010
,
0100
0000
0001
1000
0100
0010
0100
1000
,
0001
0000
0010
0100
1000
0000
0001
0100
,
0010
0000
1000
0001
1000
0010
0100
0000
,
1001
0000
0001
0100
1000
0000
0001
0100
,
1000
0000
0001
0100
0010
1000
0010
0100
,
0001
0000
1000
0100
0001
0000
1000
0100
,
0001
0000
1000
0100
0010
0001
0010
0100
,
1000
0000
0001
0010
0100
0000
1000
0010
,
0100
0000
0001
1000
0010
1000
0001
0100
,
0010
0000
0100
0001
1000
0000
0100
0010
,
0110
0001
0100
0001
1000
0000
1010
0000
,
0001
0010
0100
0000
0010
0001
0000
0001
,
0010
0100
0000
1000
0001
0000
1001
0001
,
1000
0010
0100
0000
0100
0010
0000
1000
,
0001
0100
0000
0101
0000
1100
0000
1010
,
0000
0001
0010
1000
0010
0001
1000
0000
,
1000
0100
0001
0100
1000
0001
0010
0000
,
0001
0100
1000
0100
0001
1000
0000
1001
,
0000
0110
0000
1010
0000
0001
0100
0010
,
0010
1000
0100
0000
0001
1000
0100
0010
,
0001
0010
0100
1000
0000
1000
0010
0100
,
0001
0100
0010
0000
1000
1000
0100
0010
,
0001
0000
1000
0100
1000
0001
1000
0010
,
1000
0001
1000
0000
0110
0000
0001
0100
,
0001
1000
0001
0000
0010
0100
1000
0010
,
0100
0001
0000
0101
0000
1100
0000
1001
,
1001
0000
0110
0000
1000
0010
0100
0000
,
0001
0010
0000
1000
0100
0000
1001
0000
,
0010
1000
0000
0101
0000
1100
0000
0001
,
0010
0100
1000
0001
0000
1001
0000
1000
,
0010
0100
0000
0001
0100
0010
1000
0100
,
0100
0100
0010
0001
0100
0010
1000
0001
,
0001
0001
1000
0100
0010
0001
1000
0100
,
0100
0100
1000
0010
1000
0010
1000
0000
,
0101
0000
0110
0000
0001
0010
0100
0000
,
1000
0010
0000
0001
0100
0000
1001
0000
,
0010
0001
0000
1100
0000
0101
0000
1000
,
0010
0100
0001
1000
0000
1001
0000
0001
,
0010
0100
0000
1000
0100
0010
0001
0100
,
0100
0100
0010
1000
0100
0010
0001
1000
,
1000
1000
0001
0100
0010
1000
0001
0100
,
0100
0100
0001
0010
0001
0010
0001
0010
,
0001
0010
0210
2000
0000
0300
0001
0001
,
0002
0000
0000
3000
2003
0020
0000
0000
,
0000
3030
0210
0002
0000
0300
1000
1000
,
2000
0000
0000
3000
0023
0200
0000
0000
,
0000
0330
0000
0000
;

//---------------dance-single - ----------------
#NOTEDATA:;
#CHARTNAME:;
#STEPSTYPE:dance-single;
#DESCRIPTION:;
#CHARTSTYLE:;
#DIFFICULTY:Medium;
#METER:8;
#RADARVALUES:0.323053,0.396584,0.078754,0.090005,0.000000,201.000000,194.000000,7.000000,8.000000,0.000000,0.000000,0.000000,0.000000,0.000000,0.323053,0.396584,0.078754,0.090005,0.000000,201.000000,194.000000,7.000000,8.000000,0.000000,0.000000,0.000000,0.000000,0.000000;
#CREDIT:;
#NOTES:
0000
0000
0000
0000
,
0000
0000
0000
0000
,
0000
0000
0000
0000
,
0000
0000
0000
0000
,
0000
0000
0000
0000
,
0000
0000
0000
0000
,
0000
0000
0000
0000
,
0020
0000
0030
0000
,
0001
0001
1000
1000
,
0001
0000
0001
0000
1000
0100
1000
0000
,
0001
0001
1000
1000
,
0001
0000
0001
0000
0010
0100
0010
0000
,
0001
0001
0100
0100
,
1000
0000
1000
0000
0001
0100
0001
0000
,
1000
1000
0010
0010
,
0001
0000
0001
0000
1000
0010
1000
0000
,
0100
0010
0001
0100
,
0010
0000
1000
0000
0100
0010
0100
0000
,
1000
0001
0100
0010
,
0100
0000
0001
0000
1000
0010
1000
0000
,
0100
0010
0001
0100
,
0010
0000
1000
0000
0001
0010
0001
0000
,
0010
0100
1000
0010
,
0110
0001
0001
1000
,
1000
0100
0100
0010
,
0000
0001
1000
0100
,
0010
0100
0010
0000
0001
0000
1000
0000
,
0000
0001
0001
0100
,
0100
1000
1000
0010
,
0010
0100
0001
0010
,
0100
0000
1000
0000
0001
1000
0000
1001
,
0000
0000
0100
0100
,
0001
0001
0010
0010
,
0000
0100
0100
1000
,
1000
0010
0010
0100
,
0000
0001
0100
0001
,
1000
0100
0110
0000
,
0001
0001
1000
1000
,
0100
0010
0001
0100
,
0010
0000
1001
0000
1000
0001
1000
0000
,
0100
0010
0001
0100
,
0010
0010
1000
1000
,
0001
0001
0100
0200
,
0000
0300
0000
0010
,
0010
1000
1000
0100
,
0010
0001
0001
1000
,
0100
0000
0001
1000
0001
1000
0001
0000
,
0010
0110
0000
0000
,
0000
0001
0001
0001
,
0000
1000
1000
0010
,
0100
0001
1000
1000
,
0000
0100
0010
0001
,
0100
0000
0010
1000
0010
1000
0010
0000
,
0000
0100
0001
1000
,
0100
0000
0010
0001
0010
0001
0010
0000
,
0100
2002
0000
0003
,
0000
0200
0000
3300
,
0000
2002
0000
0000
,
3000
0200
0000
0303
;

//---------------dance-single - ----------------
#NOTEDATA:;
#CHARTNAME:;
#STEPSTYPE:dance-single;
#DESCRIPTION:;
#CHARTSTYLE:;
#DIFFICULTY:Easy;
#METER:5;
#RADARVALUES:0.247514,0.297438,0.011251,0.056253,0.000000,154.000000,153.000000,1.000000,5.000000,0.000000,0.000000,0.000000,0.000000,0.000000,0.247514,0.297438,0.011251,0.056253,0.000000,154.000000,153.000000,1.000000,5.000000,0.000000,0.000000,0.000000,0.000000,0.000000;
#CREDIT:;
#NOTES:
0000
0000
0000
0000
,
0000
0000
0000
0000
,
0000
0000
0000
0000
,
0000
0000
0000
0000
,
0000
0000
0000
0000
,
0000
0000
0000
0000
,
0000
0000
0000
0000
,
0200
0000
0300
0000
,
0010
0010
0010
0000
,
0100
0100
0100
0000
,
1000
1000
1000
0000
,
0001
0001
0001
0000
,
0100
0010
1000
0000
,
0100
0100
0100
0000
,
0001
0010
0100
0000
,
1000
1000
1000
0000
,
0001
0000
0001
0000
,
1000
0001
0100
0000
,
1000
0000
1000
0000
,
0001
1000
0100
0000
,
0010
0000
0010
0000
,
0100
1000
0010
0000
,
0100
0000
0100
0000
,
1001
0001
0001
0001
,
0000
1000
1000
1000
,
0000
0010
1000
0100
,
0000
0010
0001
0100
,
0000
1000
1000
0001
,
0001
1000
0100
0010
,
0000
0001
0001
1000
,
0000
0100
1000
0001
,
0000
0100
0100
0100
,
0100
0100
0100
0100
,
0000
0010
0010
0010
,
0010
1000
0001
0100
,
0000
0010
1000
0100
,
1000
0001
0000
0001
,
0000
1000
1000
0100
,
0000
0001
0001
0010
,
0000
0100
0100
0100
,
0100
0100
0100
0000
,
0000
0010
0001
0100
,
0001
1000
0010
0100
,
0000
1000
1000
1000
,
0000
0001
0001
0001
,
0000
0010
0010
0010
,
0000
0100
1000
0100
,
0010
0001
0100
0001
,
0100
0001
0100
0001
,
0000
1000
0100
1000
,
0100
1000
0100
1000
,
0000
0001
0001
0001
,
0001
0001
0001
0001
,
0000
1000
1000
1000
,
1000
0100
0010
0001
,
0100
0020
0000
0000
,
0000
0200
0000
0330
,
0000
2000
0000
0000
,
0000
0002
0000
3003
;

//---------------dance-single - ----------------
#NOTEDATA:;
#CHARTNAME:;
#STEPSTYPE:dance-single;
#DESCRIPTION:;
#CHARTSTYLE:;
#DIFFICULTY:Beginner;
#METER:2;
#RADARVALUES:0.075540,0.131070,0.033752,0.078754,0.000000,47.000000,44.000000,3.000000,7.000000,0.000000,0.000000,0.000000,0.000000,0.000000,0.075540,0.131070,0.033752,0.078754,0.000000,47.000000,44.000000,3.000000,7.000000,0.000000,0.000000,0.000000,0.000000,0.000000;
#CREDIT:;
#NOTES:
0000
0000
0000
0000
,
0000
0000
0000
0000
,
0000
0000
0000
0000
,
0000
0000
0000
0000
,
0000
0000
0000
0000
,
0000
0000
0000
0000
,
0000
0000
0000
0000
,
0020
0000
0030
0000
,
0001
0000
0000
0000
,
0001
0000
0000
0000
,
1000
0000
0000
0000
,
1000
0000
0000
0000
,
0010
0000
0000
0000
,
0010
0000
0000
0000
,
0100
0000
0000
0000
,
0100
0000
0000
0000
,
0002
0000
0000
0000
,
0003
0000
0000
0000
,
2000
0000
0000
0000
,
3000
0000
0000
0000
,
0200
0000
0000
0000
,
0300
0000
0000
0000
,
0020
0000
0030
0000
,
0100
0000
0000
1000
,
0000
0000
0000
1000
,
0000
0000
0000
0001
,
0000
0000
0000
0001
,
0000
0000
0000
0100
,
0000
0000
0000
0100
,
0000
0000
0000
0010
,
0000
0000
0000
0010
,
0000
0000
0000
1000
,
0000
0000
0000
1000
,
0000
0000
0000
0001
,
0000
0000
0000
0001
,
0000
0000
0000
0010
,
0000
0000
0000
0010
,
0000
0000
0000
0100
,
0000
0000
0000
0100
,
0000
0000
0000
0000
,
0000
1001
0000
0000
,
0000
0000
0000
0000
,
0000
0010
0000
0000
,
0000
0100
0000
0000
,
0000
0100
0000
0000
,
0000
0010
0000
0000
,
0000
0010
0000
0000
,
0000
1001
0000
0000
,
0000
0000
0000
0000
,
0000
0110
0000
0000
,
0000
0000
0000
0000
,
0000
0001
0000
0000
,
0000
0001
0000
0000
,
0000
1000
0000
0000
,
0000
1000
0000
0000
,
0000
0020
0000
0000
,
0000
0030
0000
0000
,
0000
0200
0000
0000
,
0000
0300
0000
0000
;
