#TITLE:ekstasis;
#SUBTITLE:;
#ARTIST:d-complex;
#TITLETRANSLIT:;
#SUBTITLETRANSLIT:;
#ARTISTTRANSLIT:;
#GENRE:;
#CREDIT:;
#BANNER:Ekstasis.png;
#BACKGROUND:Ekstasis-bg.png;
#LYRICSPATH:;
#CDTITLE:;
#MUSIC:Ekstasis.ogg;
#OFFSET:-0.080000;
#SAMPLESTART:20.639997;
#SAMPLELENGTH:12.000000;
#SELECTABLE:YES;
#BPMS:0.000000=140.040237
;
#STOPS:
;
#BGCHANGES:;
#KEYSOUNDS:;
#ATTACKS:;

//---------------dance-single - ----------------
#NOTES:
     dance-single:
     :
     Hard:
     12:
     0.489231,0.478771,0.168978,0.000000,0.135182,304.000000,289.000000,15.000000,0.000000,0.000000,0.000000,0.489231,0.478771,0.168978,0.000000,0.135182,304.000000,289.000000,15.000000,0.000000,0.000000,0.000000:
0000
0000
0000
0000
,
0000
0000
0000
0000
,
0000
0000
0000
0000
,
0000
0000
0000
0000
,
0001
1000
0100
1000
0001
1000
0100
1000
,
1000
0001
0100
0001
1000
0001
0100
0001
,
0001
1000
0100
1000
0010
1000
0100
1000
,
1000
0001
1000
0010
1000
0100
1000
0001
,
0001
0001
0010
0010
0100
0100
1000
1000
,
0100
0100
1000
1000
0010
0010
0100
0100
,
0001
0001
0010
0010
0001
0001
1000
1000
,
0100
0100
1000
1000
0010
0010
0100
0100
,
0001
0000
0000
0001
0000
0000
0001
0000
1000
0000
0000
1000
0000
0000
1000
0000
,
0010
0000
0000
0010
0000
0000
0010
0000
0100
0000
0000
0100
0000
0000
0100
0000
,
0001
0000
0000
0001
0000
0000
0001
0000
0010
0000
0000
0010
0000
0000
0010
0000
,
0100
0000
0000
0100
0000
0000
0100
0000
1000
0000
0000
1000
0000
0000
1000
0000
,
0001
0000
0000
1000
0000
0000
0010
0000
1000
0000
0000
0001
0000
0000
0100
0000
,
0001
0000
0000
1000
0000
0000
0010
0000
1000
0000
0000
0100
0000
0000
0010
0000
,
0001
0000
0000
0100
0000
0000
0010
0000
1000
0000
0000
0100
0000
0000
1000
0000
,
0010
0000
0000
0100
0000
0000
0001
0000
0010
0000
0000
0001
0000
0000
0100
0000
,
1001
0000
0100
1001
0000
0100
1001
0000
,
0110
0000
1000
0110
0000
0001
0110
0000
,
1000
0000
1100
0100
0000
1100
1000
0000
,
0001
0000
0101
0100
0000
0101
0001
0000
,
1000
1000
1000
1000
,
0001
0001
0001
0001
,
1000
0001
1000
0001
,
1000
0001
1000
0001
1000
0001
1000
0001
,
0100
0100
0100
0100
,
0100
0100
0100
0100
,
1001
0100
0100
0100
,
1001
0100
1001
0100
,
1001
1000
0001
0100
,
0010
1000
0100
1000
,
0010
0100
0001
0010
,
0001
1000
0100
1000
,
0001
1000
0001
1000
0001
1000
0001
0000
,
1000
0001
1000
0001
1000
0001
1000
0000
,
0010
0100
0010
0100
0010
0100
0010
0000
,
0100
0010
0100
0010
0100
0010
0100
0000
,
0001
0001
0001
0100
0010
0010
0010
1000
,
0100
0100
0100
1000
0010
0010
0010
1000
,
1000
1000
0001
0100
0010
0010
0010
0100
,
0001
0001
0001
1000
1000
1000
0100
1000
,
0100
0100
0100
0010
0100
0100
0100
1000
,
0010
0010
0010
0100
0001
0001
0001
1000
,
0100
1000
0010
0100
0001
0100
0010
1000
,
0100
1000
0010
0100
0001
0100
0010
1000
,
0100
0000
0100
0000
0100
0000
1000
0000
1000
0000
1000
0000
,
0001
0000
0001
0000
0001
0000
0010
0000
0010
0000
0010
0000
,
1001
0000
0000
0000
;

//---------------dance-single - ----------------
#NOTES:
     dance-single:
     :
     Challenge:
     15:
     0.756377,0.929379,0.394282,0.000000,0.630851,470.000000,435.000000,35.000000,0.000000,0.000000,0.000000,0.756377,0.929379,0.394282,0.000000,0.630851,470.000000,435.000000,35.000000,0.000000,0.000000,0.000000:
0000
0000
0000
0000
,
0000
0000
0000
0000
,
0000
0000
0000
0000
,
0000
0000
0000
0000
,
0001
1000
0100
1000
0001
1000
0100
1000
,
1000
0001
0100
0001
1000
0001
0100
0001
,
0001
1000
0100
1000
0010
1000
0100
1000
,
1000
0001
1000
0010
1000
0100
1000
0001
,
0001
0001
0010
0010
0100
0100
1000
1000
,
0100
0100
1000
1000
0010
0010
0100
0100
,
0001
0001
0010
0010
0001
0001
1000
1000
,
0100
0100
1000
1000
0010
0010
0100
0100
,
0001
0000
0000
0001
0000
0000
0001
0000
1000
0000
0000
1000
0000
0000
1000
0000
,
0010
0000
0000
0010
0000
0000
0010
0000
0100
0000
0000
0100
0000
0000
0100
0000
,
0001
0000
0000
0001
0000
0000
0001
0000
0010
0000
0000
0010
0000
0000
0010
0000
,
0100
0000
0000
0100
0000
0000
0100
0000
1000
0000
0000
1000
0000
0000
1000
0000
,
0001
0000
0000
1000
0000
0000
0010
0000
1000
0000
0000
0001
0000
0000
0100
0000
,
0001
0000
0000
1000
0000
0000
0010
0000
1000
0000
0000
0100
0000
0000
0010
0000
,
0001
0000
0000
0100
0000
0000
0010
0000
1000
0000
0000
0100
0000
0000
1000
0000
,
0010
0000
0000
0100
0000
0000
0001
0000
0010
0000
0000
0001
0000
0000
0100
0000
,
1001
0010
0100
1001
0010
0100
1001
0000
,
0110
0001
1000
0110
1000
0001
0110
0000
,
1000
0100
1100
0100
1000
1100
1000
0001
,
0001
0100
0101
0100
0001
0101
0001
1000
,
1001
1000
1001
0001
1001
1000
1001
0001
,
1001
0001
1001
1000
1001
0001
1001
1000
,
1001
1000
1001
0001
1001
1000
1001
0100
,
1001
0100
1001
0010
1001
0010
1001
1000
,
1000
0100
1000
0100
1000
0001
1000
0001
0100
0001
0100
0001
0100
0010
0100
0010
,
0100
0001
0100
0001
0010
0001
0010
0001
1000
0001
1000
0001
1000
0100
1000
0100
,
1000
0010
1000
0010
0100
0010
0100
0010
0100
0001
0100
0001
1000
0001
1000
0001
,
1000
0010
0100
0001
1000
0010
0100
0001
1000
0010
0100
0001
1000
0010
0100
0001
,
1000
0100
0010
0001
1000
0100
0010
0001
1000
0100
0010
0001
1000
0100
0010
0001
,
1000
0100
1000
0100
0010
0001
0010
0001
1000
0100
1000
0100
0010
0001
0010
0001
,
1000
0010
1000
0010
0100
0001
0100
0001
1000
0010
1000
0010
0100
0001
0100
0001
,
1000
0010
0100
0001
1000
0010
0100
0001
1000
0010
0100
0001
1000
0010
0100
0001
,
1000
1000
0001
1000
0001
1000
1001
1001
,
0001
0001
1000
0001
1000
0001
1001
1001
,
0100
0100
0010
0100
0010
0100
0110
0110
,
0010
0010
0100
0010
0100
0010
0110
0110
,
0001
1000
0001
1000
0001
0000
0100
0000
0010
0100
0010
0100
0010
0000
1000
0000
,
0100
1000
0100
1000
0100
0000
1000
0000
0010
0100
0010
0100
0010
0000
1000
0000
,
1000
0001
1000
0010
0100
0000
0100
0000
0010
0100
0010
0100
0010
0000
0100
0000
,
0001
0010
0001
0010
0001
0000
1000
0000
1000
0100
1000
0100
0010
0000
0001
0000
,
0100
0010
0100
0010
0100
0000
0010
0000
0100
0001
0100
0001
0100
0000
1000
0000
,
0010
1000
0010
1000
0010
0000
0100
0000
0001
0100
0001
0100
0001
0000
1000
0000
,
0100
1000
0010
0100
0001
0100
0010
1000
,
0100
1000
0010
0100
0001
0100
0010
1000
,
0100
0000
0100
0000
0100
0000
1000
0000
1000
0000
1000
0000
,
0001
0000
0001
0000
0001
0000
0010
0000
0010
0000
0010
0000
,
1001
0000
0000
0000
;

//---------------dance-single - ----------------
#NOTES:
     dance-single:
     :
     Medium:
     9:
     0.397500,0.450608,0.202773,0.000000,0.045061,247.000000,229.000000,18.000000,0.000000,0.000000,0.000000,0.397500,0.450608,0.202773,0.000000,0.045061,247.000000,229.000000,18.000000,0.000000,0.000000,0.000000:
0000
0000
0000
0000
,
0000
0000
0000
0000
,
0000
0000
0000
0000
,
0000
0000
0000
0000
,
1000
0001
0100
0001
,
1000
0010
1000
0001
,
0100
0010
1000
0100
,
1001
0110
1001
0110
,
1001
0000
0010
0010
0100
0000
0001
1000
,
0100
0000
1000
1000
0010
0000
0001
0100
,
0001
0000
0010
0010
0001
0000
1000
1000
,
0100
0000
1000
1000
0010
0000
0100
0100
,
0001
0000
0000
0001
0000
0000
0001
0000
0100
0000
0000
0000
0100
0000
0000
0000
,
1000
0000
0000
1000
0000
0000
1000
0000
0100
0000
0000
0000
0100
0000
0000
0000
,
0001
0000
0000
0001
0000
0000
0001
0000
0100
0000
0000
0000
0100
0000
0000
0000
,
1000
0000
0000
1000
0000
0000
1000
0000
0100
0000
0000
0000
0100
0000
0000
0000
,
0010
0000
0000
0010
0000
0000
0010
0000
0001
0000
0000
0000
0001
0000
0000
0000
,
0100
0000
0000
0100
0000
0000
0100
0000
1000
0000
0000
0000
1000
0000
0000
0000
,
0010
0000
0000
0010
0000
0000
0010
0000
0001
0000
0000
0000
0001
0000
0000
0000
,
0100
0000
0000
0100
0000
0000
0100
0000
1000
0000
0000
0000
1000
0000
0000
0000
,
1001
0000
0100
0001
0000
0100
0001
0000
,
0110
0000
1000
0100
0000
0001
0100
0000
,
1100
0000
1000
0100
0000
0100
1000
0000
,
0101
0000
0001
0100
0000
0100
0001
0000
,
1000
1000
1000
1000
,
0001
0001
0001
0001
,
1000
0001
1000
0001
,
1000
0001
1000
0001
1000
0001
1000
0001
,
0100
0100
0100
0100
,
0100
0100
0100
0100
,
1001
0100
0100
0100
,
1001
0100
1001
0100
,
1001
1000
0001
0100
,
0010
1000
0100
1000
,
0010
0100
0001
0010
,
0001
1000
0100
1000
,
0001
1000
0001
1000
0001
0000
0001
0000
,
1000
0001
1000
0001
1000
0000
1000
0000
,
0010
0100
0010
0100
0010
0000
0010
0000
,
0100
0010
0100
0010
0100
0000
0100
0000
,
0001
0001
0001
0100
0010
0000
0010
0000
,
0100
0001
0100
0001
0010
0000
0010
0000
,
0001
1000
0001
0100
0010
0000
0010
0000
,
0001
1000
0001
1000
0100
0000
0100
0000
,
1000
0100
0010
0100
1000
0000
1000
0000
,
0010
0100
0010
0100
0001
0000
0001
0000
,
0100
1000
0010
0100
0001
0000
0010
0000
,
0100
1000
0010
0100
0001
0000
1000
0000
,
1001
0000
0110
0000
,
1001
0000
0110
0000
,
1001
0000
0000
0000
;

//---------------dance-single - ----------------
#NOTES:
     dance-single:
     :
     Easy:
     6:
     0.300942,0.394282,0.236569,0.000000,0.000000,187.000000,166.000000,21.000000,0.000000,0.000000,0.000000,0.300942,0.394282,0.236569,0.000000,0.000000,187.000000,166.000000,21.000000,0.000000,0.000000,0.000000:
0000
0000
0000
0000
,
0000
0000
0000
0000
,
0000
0000
0000
0000
,
0000
0000
0000
0000
,
1000
0001
0100
0001
,
1000
0010
1000
0001
,
0100
0010
1000
0100
,
1001
0110
1001
0110
,
1001
0010
0100
0001
,
0100
1000
0010
0001
,
0001
0010
0001
1000
,
0100
1000
0010
0100
,
0001
0001
0100
0100
,
1000
1000
0100
0100
,
0001
0001
0100
0100
,
1000
1000
0100
0100
,
0010
0100
0001
1000
,
0100
0100
1000
1000
,
0010
0100
0001
0001
,
0100
0010
1000
1000
,
1001
0000
0000
0001
0000
0000
0001
0000
,
0110
0000
0000
0100
0000
0000
0100
0000
,
1100
0000
0000
0100
0000
0000
1000
0000
,
0101
0000
0000
0100
0000
0000
0001
0000
,
1000
1000
1000
1000
,
0001
0001
0001
0001
,
1000
0001
1000
0001
,
1000
0001
1000
0001
,
0100
0000
0000
0000
,
0100
0000
0000
0000
,
1001
0000
0000
0000
,
0110
0000
1001
0000
,
1000
1000
0001
0100
,
0010
1000
0100
1000
,
0010
0100
0001
0010
,
0001
1000
0100
1000
,
0001
0001
0001
1001
,
1000
1000
1000
1001
,
0010
0010
0010
0110
,
0100
0100
0100
0110
,
0001
0001
0010
0010
,
0100
0100
1000
1000
,
0001
1000
0010
0100
,
0001
1000
0010
0100
,
0001
0010
0100
1000
,
0010
0100
0001
1000
,
0001
0010
0001
0010
,
0100
1000
0100
1000
,
1001
0000
0110
0000
,
1001
0000
0110
0000
,
1001
0000
0000
0000
;

//---------------dance-single - ----------------
#NOTES:
     dance-single:
     :
     Beginner:
     3:
     0.152885,0.197141,0.067591,0.000000,0.000000,95.000000,89.000000,6.000000,0.000000,0.000000,0.000000,0.152885,0.197141,0.067591,0.000000,0.000000,95.000000,89.000000,6.000000,0.000000,0.000000,0.000000:
// measure 0
0000
0000
0000
0000
,  // measure 1
0000
0000
0000
0000
,  // measure 2
0000
0000
0000
0000
,  // measure 3
0000
0000
0000
0000
,  // measure 4
1000
0000
0100
0000
,  // measure 5
1000
0000
1000
0000
,  // measure 6
0100
0000
0001
0000
,  // measure 7
0001
0000
0001
0000
,  // measure 8
1001
0000
0100
0000
,  // measure 9
0100
0000
0010
0000
,  // measure 10
0001
0000
0001
0000
,  // measure 11
0100
0000
0010
0000
,  // measure 12
0001
0001
0000
0000
,  // measure 13
1000
1000
0000
0000
,  // measure 14
0001
0001
0000
0000
,  // measure 15
1000
1000
0000
0000
,  // measure 16
0010
0000
0001
0000
,  // measure 17
0100
0000
1000
0000
,  // measure 18
0010
0000
0001
0000
,  // measure 19
0100
0000
1000
0000
,  // measure 20
1001
0000
0000
0000
,  // measure 21
0110
0000
0000
0000
,  // measure 22
1001
0000
0000
0000
,  // measure 23
0110
0000
0000
0000
,  // measure 24
1000
1000
1000
0000
,  // measure 25
0001
0001
0001
0000
,  // measure 26
1000
0000
0001
0000
,  // measure 27
1000
0000
0001
0000
,  // measure 28
0100
0000
0000
0000
,  // measure 29
0000
0000
0000
0000
,  // measure 30
0010
0000
0000
0000
,  // measure 31
0000
0000
0000
0000
,  // measure 32
1000
0000
0001
0000
,  // measure 33
0010
0000
0100
0000
,  // measure 34
1000
0000
0001
0000
,  // measure 35
1000
0000
0100
0000
,  // measure 36
0001
0001
0001
0000
,  // measure 37
1000
1000
1000
0000
,  // measure 38
0010
0010
0010
0000
,  // measure 39
0100
0100
0100
0000
,  // measure 40
0001
0001
0000
0000
,  // measure 41
0100
0100
0000
0000
,  // measure 42
0010
0010
0000
0000
,  // measure 43
1000
1000
0000
0000
,  // measure 44
0001
0000
0100
0000
,  // measure 45
1000
0000
0100
0000
,  // measure 46
0001
0000
0001
0000
,  // measure 47
1000
0000
1000
0000
,  // measure 48
0001
0000
0010
0000
,  // measure 49
0100
0000
1000
0000
,  // measure 50
1001
0000
0000
0000
;
