#VERSION:0.83;
#TITLE:butterfly;
#SUBTITLE:(Hyper K Mix);
#ARTIST:SMILE.dk;
#TITLETRANSLIT:;
#SUBTITLETRANSLIT:;
#ARTISTTRANSLIT:;
#GENRE:;
#ORIGIN:;
#CREDIT:;
#BANNER:butterfly (Hyper K Mix).png;
#BACKGROUND:butterfly (Hyper K Mix)-bg.png;
#PREVIEWVID:;
#JACKET:butterfly (Hyper K Mix)-jacket.png;
#CDIMAGE:;
#DISCIMAGE:;
#LYRICSPATH:;
#CDTITLE:;
#MUSIC:butterfly (Hyper K Mix).ogg;
#OFFSET:-0.018000;
#SAMPLESTART:27.399986;
#SAMPLELENGTH:15.500000;
#SELECTABLE:YES;
#BPMS:0.000=157.700;
#STOPS:;
#DELAYS:;
#WARPS:;
#TIMESIGNATURES:0.000=4=4;
#TICKCOUNTS:0.000=4;
#COMBOS:0.000=1;
#SPEEDS:0.000=1.000=0.000=0;
#SCROLLS:0.000=1.000;
#FAKES:;
#LABELS:0.000=Song Start;
#BGCHANGES:;
#KEYSOUNDS:;
#ATTACKS:
;

//---------------dance-single - ----------------
#NOTEDATA:;
#CHARTNAME:;
#STEPSTYPE:dance-single;
#DESCRIPTION:;
#CHARTSTYLE:;
#DIFFICULTY:Challenge;
#METER:15;
#RADARVALUES:0.761457,0.915638,0.333137,0.097982,0.597688,544.000000,510.000000,34.000000,10.000000,0.000000,0.000000,0.000000,0.000000,0.000000,0.761457,0.915638,0.333137,0.097982,0.597688,544.000000,510.000000,34.000000,10.000000,0.000000,0.000000,0.000000,0.000000,0.000000;
#CREDIT:;
#NOTES:
// measure 0
0000
0000
0000
0000
,  // measure 1
0000
0000
0000
0000
,  // measure 2
1000
0100
0010
0100
1000
0000
0010
0100
0000
0010
1000
0000
0010
0100
0001
0100
,  // measure 3
0010
1000
0100
0010
0001
0000
0010
0001
0000
0100
0001
0000
0010
0001
0100
0010
,  // measure 4
0100
0001
0010
0001
0100
0000
0010
1000
0000
0100
1000
0000
0010
1000
0100
1000
,  // measure 5
0100
0010
0001
0100
0010
0000
0100
0010
0000
0010
0100
0000
0010
1000
0010
0100
,  // measure 6
0001
0010
0001
0100
0001
0000
0001
0100
0000
0010
1000
0000
0100
1000
0100
0010
,  // measure 7
0001
0100
0001
1000
0100
0000
1000
0010
0000
1000
0010
0000
0100
0010
0100
0001
,  // measure 8
0100
0001
0010
0001
0010
0000
0001
1000
0000
1000
0100
0000
1001
0000
0000
0000
,  // measure 9
0220
0000
0000
0000
0330
0000
0000
0000
0001
0100
0010
0000
1001
0000
0000
0000
,  // measure 10
1000
0100
1000
0010
1000
0100
1000
0000
,  // measure 11
0001
0100
0001
0010
0001
0100
0001
0000
,  // measure 12
1000
0000
0000
1000
0100
0000
0000
0100
0010
0000
0000
0010
0001
0000
0000
0001
,  // measure 13
0100
0000
0000
0100
0010
0000
0000
0010
1000
0000
0001
0000
1001
0000
0000
0000
,  // measure 14
0001
0100
0010
0100
0001
0010
0001
0000
,  // measure 15
1000
0100
0010
0100
1000
0010
0100
0000
,  // measure 16
0010
0000
0000
0010
0100
0000
0000
0100
0001
0000
0000
0001
1000
0000
0000
1000
,  // measure 17
0100
0000
0000
0100
0010
0000
0000
0010
0001
0000
1000
0000
1001
0000
0000
0000
,  // measure 18
1000
1000
1000
1000
1000
0000
0001
0100
,  // measure 19
0001
0001
0001
0001
0001
0000
0110
0000
,  // measure 20
0001
0000
0000
0001
1000
0000
0000
1000
0010
0000
0000
0010
0100
0000
0000
0100
,  // measure 21
0010
1000
0100
0010
0001
0000
1001
0000
,  // measure 22
0010
0010
0010
0010
0010
0000
1000
0001
,  // measure 23
0100
0100
0100
0100
0100
0000
1001
0000
,  // measure 24
0001
0000
0000
0001
0010
0000
0000
0010
0100
0000
0000
0100
1000
0000
0000
1000
,  // measure 25
0001
1000
0001
1000
0100
0000
1100
0000
,  // measure 26
0012
0100
0000
0100
0010
0100
0010
0000
,  // measure 27
0100
0010
0000
0010
0100
0010
0100
0000
,  // measure 28
1000
0100
0000
0010
0100
1000
0100
0000
,  // measure 29
0000
0100
0000
0100
0000
0100
0000
0103
,  // measure 30
2001
0100
0000
0100
0010
0100
0001
0000
,  // measure 31
0100
0100
0000
0001
0010
0001
0001
0000
,  // measure 32
0100
0010
0000
0100
0001
0100
0010
3000
,  // measure 33
1001
0100
0010
0100
0010
0100
0010
0100
,  // measure 34
1001
0100
1001
0110
2002
0000
3003
0000
,  // measure 35
1000
0100
0010
0100
1000
0000
0010
0100
0000
0010
1000
0000
0010
0100
0001
0100
,  // measure 36
0010
1000
0100
0010
0001
0000
0010
0001
0000
0100
0001
0000
0010
0001
0100
0010
,  // measure 37
0100
0001
0010
0001
0100
0000
0010
1000
0000
0100
1000
0000
0010
1000
0100
1000
,  // measure 38
0100
0010
0001
0100
0010
0000
0100
0010
0000
0010
0100
0000
0010
1000
0010
0100
,  // measure 39
0001
0010
0001
0100
0001
0000
0001
0100
0000
0010
1000
0000
0100
1000
0100
0010
,  // measure 40
0001
0100
0001
1000
0100
0000
1000
0010
0000
1000
0010
0000
0100
0010
0100
0001
,  // measure 41
0100
0001
0010
0001
0010
0000
0001
1000
0000
1000
0100
0000
1001
0000
0000
0000
,  // measure 42
0220
0000
0000
0000
0330
0000
0000
0000
0001
0100
0010
0000
1001
0000
0000
0000
,  // measure 43
1000
0100
1000
0010
1000
0100
1000
0000
,  // measure 44
0001
0100
0001
0010
0001
0100
0001
0000
,  // measure 45
1000
0000
0000
1000
0100
0000
0000
0100
0010
0000
0000
0010
0001
0000
0000
0001
,  // measure 46
0100
0000
0000
0100
0010
0000
0000
0010
1000
0000
0001
0000
1001
0000
0000
0000
,  // measure 47
0001
0100
0010
0100
0001
0010
0001
0000
,  // measure 48
1000
0100
0010
0100
1000
0010
0100
0000
,  // measure 49
0010
0000
0000
0010
0100
0000
0000
0100
0001
0000
0000
0001
1000
0000
0000
1000
,  // measure 50
0100
0000
0000
0100
0010
0000
0000
0010
0001
0000
1000
0000
1001
0000
0000
0000
,  // measure 51
1000
1000
1000
1000
1000
0000
0001
0100
,  // measure 52
0001
0001
0001
0001
0001
0000
0110
0000
,  // measure 53
0001
0000
0000
0001
1000
0000
0000
1000
0010
0000
0000
0010
0100
0000
0000
0100
,  // measure 54
0010
1000
0100
0010
0001
0000
1001
0000
,  // measure 55
0010
0010
0010
0010
0010
0000
1000
0001
,  // measure 56
0100
0100
0100
0100
0100
0000
1001
0000
,  // measure 57
0001
0000
0000
0001
0010
0000
0000
0010
0100
0000
0000
0100
1000
0000
0000
1000
,  // measure 58
0001
1000
0001
1000
0100
0000
1100
0000
,  // measure 59
0012
0100
0000
0100
0100
0100
0100
0000
,  // measure 60
0100
0010
0000
0010
0010
0010
0010
0000
,  // measure 61
1000
0100
0000
0100
1000
1000
1000
0000
,  // measure 62
0000
0100
0000
0100
0000
0100
0000
0103
,  // measure 63
2001
0100
0000
0100
0010
0010
0010
0000
,  // measure 64
0100
0100
0000
0100
0001
0001
0001
0000
,  // measure 65
0001
0001
0000
0100
0010
0010
0010
3000
,  // measure 66
1001
0101
1001
1100
1001
0110
1001
0000
;
