#TITLE:blow my mind;
#SUBTITLE:;
#ARTIST:alphadelta;
#TITLETRANSLIT:;
#SUBTITLETRANSLIT:;
#ARTISTTRANSLIT:;
#GENRE:;
#CREDIT:;
#BANNER:;
#BACKGROUND:DDR CD-bg.JPG;
#LYRICSPATH:;
#CDTITLE:;
#MUSIC:Blow My Mind.ogg;
#OFFSET:-0.100000;
#SAMPLESTART:58.659943;
#SAMPLELENGTH:14.000003;
#SELECTABLE:YES;
#BPMS:0.000000=131.139999
;
#STOPS:
;
#BGCHANGES:;
#KEYSOUNDS:;
#ATTACKS:;

//---------------dance-single - ----------------
#NOTES:
     dance-single:
     :
     Hard:
     10:
     0.426079,0.480769,0.133547,0.044516,0.011129,268.000000,256.000000,12.000000,4.000000,0.000000,0.000000,0.426079,0.480769,0.133547,0.044516,0.011129,268.000000,256.000000,12.000000,4.000000,0.000000,0.000000:
// measure 0
0000
0000
0000
0000
,  // measure 1
0000
0000
0000
0000
,  // measure 2
0000
0000
0000
0000
,  // measure 3
0000
0000
0000
0000
,  // measure 4
0010
0100
0001
0100
0010
0100
0001
0000
,  // measure 5
0001
1000
0010
0100
0010
1000
0010
0000
,  // measure 6
0010
0100
0010
1000
0100
1000
1000
0000
,  // measure 7
1000
0001
0100
0100
0010
1000
0010
0000
,  // measure 8
0010
0100
0010
1000
0010
0100
0010
0001
,  // measure 9
0010
0100
0010
1000
0010
0100
0010
0001
,  // measure 10
0010
1000
0100
0010
0001
0010
0100
1000
,  // measure 11
0010
0100
0010
1000
0100
1000
0010
0100
,  // measure 12
0001
0000
1001
0000
0001
0100
0001
1000
,  // measure 13
1000
0000
0100
0000
1000
0000
0000
0001
1000
0000
0100
0000
1000
0000
0001
0000
,  // measure 14
1000
0000
1001
0000
1000
0100
1000
0001
,  // measure 15
0001
0000
0100
0000
0001
0000
0000
1000
0001
0000
0100
0000
0001
0000
1000
0000
,  // measure 16
1001
0110
1002
0103
,  // measure 17
1000
0100
1000
0100
0010
0001
0010
0001
,  // measure 18
0011
1100
1010
0101
,  // measure 19
0001
1000
0010
0100
0001
1000
0010
0100
,  // measure 20
2002
0000
0000
0000
,  // measure 21
0000
0000
0000
0000
,  // measure 22
0000
0000
0000
3000
,  // measure 23
0100
0200
0000
0303
,  // measure 24
1000
0010
0100
0001
,  // measure 25
1000
0100
0010
0001
,  // measure 26
1000
0100
0010
0100
,  // measure 27
1000
0100
0001
0010
,  // measure 28
1000
0001
0100
0001
1000
0010
0100
0001
,  // measure 29
0100
0010
1000
0100
1000
0010
0100
0010
,  // measure 30
1000
0100
0010
0001
1000
0001
0100
0010
,  // measure 31
1000
0100
1000
0010
0100
0001
0010
0001
,  // measure 32
1001
0000
1000
0010
0100
0001
0100
0010
,  // measure 33
1000
0100
1000
0001
0100
0010
0100
0001
,  // measure 34
0001
0000
0100
0001
0010
0001
0100
0010
,  // measure 35
1000
0010
0100
0010
1000
0100
1000
0010
,  // measure 36
0100
0000
0010
1000
0010
0100
0001
0100
,  // measure 37
0010
1000
0100
1000
0100
0010
0001
0010
,  // measure 38
0001
0000
0001
0100
0010
1000
0100
1000
,  // measure 39
0010
0100
0010
0010
1000
1000
0100
1000
,  // measure 40
1000
0001
1000
0001
,  // measure 41
0100
0100
0100
0100
,  // measure 42
0001
1000
0001
1000
,  // measure 43
0100
0100
0100
0100
,  // measure 44
1000
0010
0100
0001
,  // measure 45
1000
1000
1000
1000
,  // measure 46
0001
0100
0010
1000
,  // measure 47
0001
0001
0001
0001
,  // measure 48
1001
0000
0000
0000
;

//---------------dance-single - ----------------
#NOTES:
     dance-single:
     :
     Medium:
     7:
     0.297301,0.347222,0.244836,0.211449,0.000000,187.000000,165.000000,22.000000,19.000000,0.000000,0.000000,0.297301,0.347222,0.244836,0.211449,0.000000,187.000000,165.000000,22.000000,19.000000,0.000000,0.000000:
0000
0000
0000
0000
,
0000
0000
0000
0000
,
0000
0000
0000
0000
,
0000
0000
0000
0000
,
1000
1000
2001
3100
,
0001
0001
1002
0103
,
1000
0010
0120
0130
,
0001
0100
0210
0310
,
1000
0100
1200
1300
,
1000
0001
0021
0031
,
0100
0001
0102
0103
,
0100
0010
1020
1030
,
1001
0100
0001
0100
,
0010
1000
0100
1000
,
1001
0100
0010
1000
,
0100
1000
0010
0100
,
1001
0010
0010
0010
,
1000
0001
0100
0001
,
1001
1000
0010
0100
,
0001
0010
0100
1000
,
2002
0000
0000
0000
,
0000
0000
0000
0000
,
0000
0000
0000
0000
,
3000
0200
0000
0300
,
1003
1000
1000
1000
,
0001
0001
0001
0001
,
0100
0100
0100
0100
,
0010
0010
0010
0010
,
1000
1000
0001
0001
,
0100
0100
0010
0010
,
1000
1000
0001
0001
,
0100
0000
0100
0000
0010
0100
0010
0100
,
0001
1000
2001
3100
,
0001
0001
1002
0103
,
1000
0010
0120
0130
,
0001
0100
0210
0310
,
1000
0100
1200
1300
,
1000
0001
0021
0031
,
0100
0001
0102
0103
,
0100
0010
1020
1030
,
1000
1000
1000
1000
,
0100
0100
0100
0100
,
0010
0010
0010
0010
,
0001
0001
0001
0001
,
1000
1000
0100
0100
,
0010
0010
0001
0001
,
1000
0100
0010
0001
,
1000
0100
0010
0001
,
1001
0000
0000
0000
;

//---------------dance-single - ----------------
#NOTES:
     dance-single:
     :
     Easy:
     4:
     0.209860,0.267094,0.011129,0.701122,0.000000,132.000000,131.000000,1.000000,63.000000,0.000000,0.000000,0.209860,0.267094,0.011129,0.701122,0.000000,132.000000,131.000000,1.000000,63.000000,0.000000,0.000000:
0000
0000
0000
0000
,
0000
0000
0000
0000
,
0000
0000
0000
0000
,
0000
0000
0000
0000
,
0001
0001
0002
0003
,
1000
1000
2000
3000
,
0010
0010
0020
0030
,
0100
0100
0200
0300
,
0010
0010
0020
0030
,
1000
1000
2000
3000
,
0100
0100
0200
0300
,
0001
0001
0002
0003
,
1000
1000
0020
1030
,
0001
0001
0200
0301
,
1000
1000
0200
1300
,
0001
0001
0020
0031
,
0100
0010
0200
0310
,
1000
0001
2000
3001
,
0010
0001
0200
1300
,
0010
1000
0200
0301
,
2002
0000
0000
0000
,
0000
0000
0000
0000
,
0000
0000
0000
3000
,
2000
0000
0000
3003
,
2000
0000
3100
0000
,
2000
0000
3010
0000
,
0200
0000
0301
0000
,
0020
0000
0031
0000
,
2000
3020
0230
0301
,
0200
0320
2030
3010
,
2000
3200
0320
0031
,
0020
0230
2300
3001
,
0100
0010
0100
0001
,
2000
3000
0002
0003
,
1000
1000
0001
0001
,
0200
0300
0020
0030
,
0100
0010
1000
0001
,
2000
3000
0002
0003
,
0100
0001
0010
1000
,
0200
0300
0020
0030
,
2000
0000
3001
0000
,
0200
0000
0310
0000
,
0002
0000
1003
0000
,
0020
0000
0130
0000
,
2000
3200
0320
0032
,
0203
0320
2030
3200
,
0320
0032
0203
0320
,
2030
3200
0320
0032
,
1003
0000
0000
0000
;

//---------------dance-single - ----------------
#NOTES:
     dance-single:
     :
     Beginner:
     2:
     0.141496,0.213675,0.022258,0.022258,0.000000,89.000000,87.000000,2.000000,2.000000,0.000000,0.000000,0.141496,0.213675,0.022258,0.022258,0.000000,89.000000,87.000000,2.000000,2.000000,0.000000,0.000000:
0000
0000
0000
0000
,
0000
0000
0000
0000
,
0000
0000
0000
0000
,
0000
0000
0000
0000
,
0100
0100
0000
0000
,
0100
0100
0000
0000
,
0010
0010
0000
0000
,
0010
0010
0000
0000
,
1000
1000
0000
0000
,
1000
1000
0000
0000
,
0001
0001
0000
0000
,
0001
0001
0000
0000
,
1000
1000
0000
0000
,
0010
0010
0000
0000
,
0100
0100
0000
0000
,
0001
0001
0000
0000
,
1000
1000
0000
0000
,
0100
0100
0000
0000
,
0010
0010
0000
0000
,
0001
0001
0000
0000
,
2002
0000
0000
0000
,
0000
0000
0000
0000
,
3003
0000
0000
0000
,
0100
0000
0000
0000
,
0100
0000
0100
0000
,
0100
0000
0100
0000
,
0100
0100
0100
0000
,
0100
0100
0100
0100
,
0100
0000
0010
0000
,
0100
0000
0010
0000
,
1000
0000
0001
0000
,
1000
0000
0001
0001
,
0001
0000
0100
0000
,
0010
0000
1000
0000
,
0100
0000
1000
0000
,
0010
0000
0100
0000
,
0001
0000
0010
0000
,
0001
0000
0100
0000
,
0010
0000
1000
0000
,
1000
0000
0010
0000
,
0100
0100
0000
0000
,
0010
0010
0000
0000
,
1000
1000
0000
0000
,
0001
0001
0000
0000
,
1000
1000
0000
0000
,
0100
0100
0000
0000
,
0010
0010
0000
0000
,
0001
0001
0000
0000
,
1001
0000
0000
0000
;
