#VERSION:0.83;
#TITLE:be my lover;
#SUBTITLE:;
#ARTIST:PYROCLASTIC;
#TITLETRANSLIT:;
#SUBTITLETRANSLIT:;
#ARTISTTRANSLIT:;
#GENRE:;
#ORIGIN:;
#CREDIT:;
#BANNER:;
#BACKGROUND:DDR CD-bg.JPG;
#PREVIEWVID:;
#JACKET:Be My Lover-jacket.jpg;
#CDIMAGE:;
#DISCIMAGE:;
#LYRICSPATH:;
#CDTITLE:;
#MUSIC:Be My Lover.mp3;
#OFFSET:-0.020000;
#SAMPLESTART:60.959015;
#SAMPLELENGTH:14.859999;
#SELECTABLE:YES;
#BPMS:0.000=126.000;
#STOPS:;
#DELAYS:;
#WARPS:;
#TIMESIGNATURES:0.000=4=4;
#TICKCOUNTS:0.000=4;
#COMBOS:0.000=1;
#SPEEDS:0.000=1.000=0.000=0;
#SCROLLS:0.000=1.000;
#FAKES:;
#LABELS:0.000=Song Start;
#BGCHANGES:;
#KEYSOUNDS:;
#ATTACKS:
;

//---------------dance-single - ----------------
#NOTEDATA:;
#CHARTNAME:;
#STEPSTYPE:dance-single;
#DESCRIPTION:;
#CHARTSTYLE:;
#DIFFICULTY:Beginner;
#METER:1;
#RADARVALUES:0.112428,0.144283,0.021861,0.043722,0.000000,72.000000,70.000000,2.000000,4.000000,0.000000,0.000000,0.000000,0.000000,0.000000,0.112428,0.144283,0.021861,0.043722,0.000000,72.000000,70.000000,2.000000,4.000000,0.000000,0.000000,0.000000,0.000000,0.000000;
#CREDIT:;
#NOTES:
0000
0000
0000
0000
,
0000
0000
0000
0000
,
0000
0000
0000
0000
,
0000
0000
0000
0000
,
1000
1000
0000
0000
,
0001
0001
0000
0000
,
1000
1000
0000
0000
,
0001
0001
0000
0000
,
1000
1000
0000
0000
,
0001
0001
0000
0000
,
1000
1000
0000
0000
,
0001
0001
0000
0000
,
0100
0000
0100
0000
,
1000
0000
1000
0000
,
0010
0000
0010
0000
,
0001
0000
0001
0000
,
1000
1000
0000
0000
,
0100
0100
0000
0000
,
1000
1000
0000
0000
,
0010
0010
0000
0000
,
0001
0001
0000
0000
,
0100
0100
0000
0000
,
0001
0001
0000
0000
,
0010
0010
0000
0000
,
2002
0000
0000
0000
,
3003
0000
0000
0000
,
0200
0000
0000
0000
,
0300
0000
0000
0000
,
0020
0000
0000
0000
,
0030
0000
0000
0000
,
1000
0000
1000
0000
,
0001
0000
0001
0000
,
1000
0000
0100
0000
,
1000
0000
0000
0000
,
0001
0000
0100
0000
,
0001
0000
0000
0000
,
1000
0000
0001
0000
,
1000
0000
1000
0000
,
0001
0000
1000
0000
,
0001
0000
0001
0000
,
0010
0000
0010
0000
,
0100
0000
0100
0000
,
0010
0000
0100
0000
,
1000
0000
0001
0000
,
1001
0000
0000
0000
;

//---------------dance-single - ----------------
#NOTEDATA:;
#CHARTNAME:;
#STEPSTYPE:dance-single;
#DESCRIPTION:;
#CHARTSTYLE:;
#DIFFICULTY:Hard;
#METER:10;
#RADARVALUES:0.385691,0.462087,0.109305,0.142097,0.021861,247.000000,237.000000,10.000000,13.000000,0.000000,0.000000,0.000000,0.000000,0.000000,0.385691,0.462087,0.109305,0.142097,0.021861,247.000000,237.000000,10.000000,13.000000,0.000000,0.000000,0.000000,0.000000,0.000000;
#CREDIT:;
#NOTES:
// measure 0
0000
0000
0000
0000
,  // measure 1
0000
0000
0000
0000
,  // measure 2
0000
0100
0001
0100
0000
0010
1000
0010
,  // measure 3
0000
1000
0100
1000
0000
0010
0100
0001
,  // measure 4
1000
0000
0100
0100
0100
0000
1000
0001
,  // measure 5
0100
0100
0200
0000
0000
0000
0300
0000
,  // measure 6
0010
0000
1000
0001
1000
0000
0001
0100
,  // measure 7
0010
1000
0100
1000
0020
0000
0130
0000
,  // measure 8
1000
0100
1000
0010
0100
0000
0001
0100
,  // measure 9
0010
1000
0200
0000
0010
0000
1300
0000
,  // measure 10
1001
0000
0001
0100
0010
0000
1000
0100
,  // measure 11
1000
0010
0100
0000
0001
1000
0100
0000
,  // measure 12
1001
0100
0001
0100
0000
0010
1000
0010
,  // measure 13
0000
1000
0100
1000
0100
0010
0001
0001
,  // measure 14
0000
0100
0001
0100
0000
0010
1000
0010
,  // measure 15
0000
0000
1000
0000
0001
0000
0100
0000
0010
0000
1000
0000
0100
1000
0100
1000
,  // measure 16
0010
1001
0100
1100
,  // measure 17
1000
0001
0100
0010
1000
0100
0010
0001
,  // measure 18
0000
0001
0010
0001
0000
1000
0100
1000
,  // measure 19
0000
0010
1000
0010
0000
0100
0001
0100
,  // measure 20
0001
0110
1000
0110
,  // measure 21
0001
0100
0010
0100
0001
1000
0100
1000
,  // measure 22
0000
0010
1000
0010
0000
0100
0001
0100
,  // measure 23
0000
0010
1000
0100
0000
1000
0010
0100
,  // measure 24
0002
0100
0000
0103
,  // measure 25
2000
0100
0000
3100
,  // measure 26
0020
0100
0000
1030
,  // measure 27
0200
0010
0000
1300
,  // measure 28
1001
0100
0001
0100
,  // measure 29
0010
1000
0001
0001
,  // measure 30
0100
0001
0100
0001
0100
0001
0100
0001
,  // measure 31
1000
0000
0010
0000
1000
0000
0010
0000
1000
0000
0010
0000
0100
0001
0100
0001
,  // measure 32
0010
0101
0010
1100
,  // measure 33
1000
0001
0100
0010
0100
0001
0010
0001
,  // measure 34
0000
0100
0010
0100
0000
0010
1000
0010
,  // measure 35
0000
1000
0100
1000
0000
0001
0100
0001
,  // measure 36
1000
0200
1000
1300
,  // measure 37
0001
0200
0010
0310
,  // measure 38
0001
0020
0100
0130
,  // measure 39
1000
0200
0010
1300
,  // measure 40
0100
0100
0010
0000
0100
0100
0010
0000
,  // measure 41
0100
0100
0010
0000
0010
0100
0100
0000
,  // measure 42
0100
0100
0010
0000
0100
0100
0010
0000
,  // measure 43
0100
0100
0010
0000
0010
0010
0100
0000
,  // measure 44
2002
0000
3003
0000
;

//---------------dance-single - ----------------
#NOTEDATA:;
#CHARTNAME:;
#STEPSTYPE:dance-single;
#DESCRIPTION:;
#CHARTSTYLE:;
#DIFFICULTY:Medium;
#METER:7;
#RADARVALUES:0.290439,0.340486,0.098375,0.229541,0.000000,186.000000,177.000000,9.000000,21.000000,0.000000,0.000000,0.000000,0.000000,0.000000,0.290439,0.340486,0.098375,0.229541,0.000000,186.000000,177.000000,9.000000,21.000000,0.000000,0.000000,0.000000,0.000000,0.000000;
#CREDIT:;
#NOTES:
0000
0000
0000
0000
,
0000
0000
0000
0000
,
0000
0100
0010
0100
0000
0010
0100
0010
,
0000
1000
0001
1000
0000
0001
1000
0001
,
1000
0001
0100
0010
,
0100
0200
0000
0300
,
0010
1000
0001
1000
,
0010
0100
0010
0100
,
0001
1000
0100
0001
,
0010
1000
1000
1000
,
0001
0001
0010
1000
,
0100
0001
0001
0001
,
1001
0000
0001
0100
0000
0010
1000
0010
,
0000
1000
0100
1000
0100
1000
0100
0000
,
0000
1000
0001
1000
0000
0010
1000
0010
,
0000
1000
0001
1000
0001
1000
0200
0000
,
0310
0001
0010
0001
,
1000
0100
1000
1000
,
0010
0010
1000
1000
,
0001
0001
0100
0100
,
0001
0010
1000
0100
,
0001
0001
0001
0100
,
0010
1000
0010
1000
,
0001
1000
0100
0010
,
0002
0100
0000
0103
,
2000
0100
0000
3100
,
0020
0100
0000
1030
,
0200
0010
0000
1300
,
1001
0100
0001
0100
,
0010
1000
0100
1000
,
0001
0100
0001
0100
,
0010
0000
0010
0000
0010
0010
0100
0100
,
0010
1000
0100
0001
,
0010
1000
0100
0001
,
0010
1000
0100
0001
,
0010
1000
0100
0001
,
0001
0200
0001
0301
,
0100
0020
1000
1030
,
0001
0200
0001
0301
,
1000
0200
0010
0310
,
0102
0013
2100
3010
,
0102
0013
2010
3100
,
0102
0013
2100
3010
,
0102
0023
0230
2300
,
0002
0000
3003
0000
;

//---------------dance-single - ----------------
#NOTEDATA:;
#CHARTNAME:;
#STEPSTYPE:dance-single;
#DESCRIPTION:;
#CHARTSTYLE:;
#DIFFICULTY:Easy;
#METER:3;
#RADARVALUES:0.235787,0.243204,0.043722,0.032792,0.000000,151.000000,147.000000,4.000000,3.000000,0.000000,0.000000,0.000000,0.000000,0.000000,0.235787,0.243204,0.043722,0.032792,0.000000,151.000000,147.000000,4.000000,3.000000,0.000000,0.000000,0.000000,0.000000,0.000000;
#CREDIT:;
#NOTES:
0000
0000
0000
0000
,
0000
0000
0000
0000
,
1000
1000
1000
1000
,
0001
0001
0001
0001
,
1001
0000
0100
0000
,
0001
0000
0100
0000
,
1000
0000
0010
0000
,
0001
0000
1000
0000
,
1000
0000
0001
0000
,
0001
0000
0100
0000
,
1000
0000
0010
0000
,
0001
0000
1000
0000
,
0100
0100
1000
1000
,
1000
0001
0001
0100
,
0010
0100
0100
0001
,
0001
1000
0010
1000
,
1000
1000
0001
0100
,
0010
0100
0001
0100
,
0001
0100
0001
1000
,
0010
1000
0100
0010
,
0001
0010
0100
1000
,
0100
1000
0010
0100
,
0001
0100
0010
1000
,
0010
0100
0001
0100
,
1002
0100
0000
0100
,
0000
0100
0000
0103
,
2001
0100
0000
0100
,
0000
0100
0000
3100
,
1001
0100
0001
0100
,
0001
0100
0001
0100
,
0010
1000
0010
1000
,
0001
0100
0010
1000
,
1000
1000
0100
1000
,
1000
0001
0010
0001
,
0001
0010
0100
1000
,
0001
0010
0100
1000
,
1000
0001
1000
0001
,
1000
0100
1000
0100
,
0010
0001
1000
0001
,
0001
0010
0001
0001
,
0010
0001
1000
0010
,
0100
0010
0100
0010
,
1000
0100
1000
0100
,
1000
0100
0001
0010
,
2000
0000
3000
0000
;
