#VERSION:0.83;
#TITLE:bag;
#SUBTITLE:(Sweez Remix);
#ARTIST:RevenG;
#TITLETRANSLIT:;
#SUBTITLETRANSLIT:;
#ARTISTTRANSLIT:;
#GENRE:Ballad;
#ORIGIN:;
#CREDIT:;
#BANNER:bag (Sweez Remix)-bn.png;
#BACKGROUND:bag (Sweez Remix)-bg.png;
#PREVIEWVID:;
#JACKET:;
#CDIMAGE:;
#DISCIMAGE:;
#LYRICSPATH:;
#CDTITLE:./CDTITLES/EM3.png;
#MUSIC:bag (Sweez Remix).ogg;
#OFFSET:0.010074;
#SAMPLESTART:26.019978;
#SAMPLELENGTH:12.000000;
#SELECTABLE:YES;
#BPMS:0.000=73.334,
118.333=146.668,
119.000=73.334;
#STOPS:;
#DELAYS:;
#WARPS:;
#TIMESIGNATURES:0.000=4=4;
#TICKCOUNTS:0.000=4;
#COMBOS:0.000=1;
#SPEEDS:0.000=1.000=0.000=0;
#SCROLLS:0.000=1.000;
#FAKES:;
#LABELS:0.000=Song Start;
#BGCHANGES:;
#KEYSOUNDS:;
#ATTACKS:
;

//---------------dance-single - ----------------
#NOTEDATA:;
#CHARTNAME:;
#STEPSTYPE:dance-single;
#DESCRIPTION:;
#CHARTSTYLE:;
#DIFFICULTY:Hard;
#METER:11;
#RADARVALUES:0.377002,0.434560,0.194761,0.214237,0.686532,271.000000,251.000000,20.000000,22.000000,0.000000,0.000000,0.000000,0.000000,0.000000,0.377002,0.434560,0.194761,0.214237,0.686532,271.000000,251.000000,20.000000,22.000000,0.000000,0.000000,0.000000,0.000000,0.000000;
#CREDIT:;
#NOTES:
0000
0000
0000
0000
,
0000
0000
0000
0000
,
1200
0000
0000
1000
0000
0000
1300
0000
0000
0000
0000
0000
0120
0000
0031
0000
0100
0000
0001
0000
1000
0000
0100
0000
,
2000
3000
0000
0000
0000
0000
0000
0000
0000
0000
0000
0000
0000
0000
0000
0000
0010
0000
0000
0000
0000
0000
0000
0000
0000
0000
0000
0000
0000
0000
0000
0000
1000
0000
0000
0000
0000
0000
0000
0000
0000
0000
0000
0000
0000
0000
0000
0000
0001
0000
0000
0000
0000
0000
0000
0000
0000
0000
0000
0000
0000
0000
0000
0000
0010
0000
0000
0000
0000
0000
0000
0000
0000
0000
0000
0000
0000
0000
0000
0000
0001
0000
0000
0000
0000
0000
0000
0000
0000
0000
0000
0000
0000
0000
0000
0000
1000
0000
0000
0000
0000
0000
0000
0000
0000
0000
0000
0000
0000
0000
0000
0000
0100
0000
0000
0000
0000
0000
0000
0000
0000
0000
0000
0000
0000
0000
0000
0000
0010
0000
0000
0000
0000
0000
0000
0000
0000
0000
0000
0000
0000
0000
0000
0000
0100
0000
0000
0000
0000
0000
0000
0000
0000
0000
0000
0000
0000
0000
0000
0000
0000
0000
0000
0000
0000
0000
0000
0000
0000
0000
0000
0000
0000
0000
0000
0000
0000
0000
0000
0000
0000
0000
0000
0000
0000
0000
0000
0000
0000
0000
0000
0000
,
0201
0000
0000
0001
0000
0000
0301
0000
0000
0000
0000
0000
0120
0000
1030
0000
0100
0000
1000
0000
0001
0000
0100
0000
,
0001
0010
0001
1000
0010
1000
0001
0100
0010
0100
0000
0000
,
2001
0000
0000
0100
0000
0000
3010
0000
0000
0000
0000
0000
2001
0000
3010
0000
0100
0000
0001
0000
0010
0000
0001
0000
,
2002
0000
0000
3003
,
0001
0100
0010
0100
0001
0010
0100
1000
0010
1000
0100
0010
,
0001
1000
0001
1000
0100
0000
0010
0000
0000
0000
0001
0000
0100
0000
0000
0000
1000
0000
0100
0000
0000
0000
0010
0000
,
0100
1000
0010
1000
0001
0100
0010
0100
0001
1000
0010
1000
,
0001
0100
1000
0100
0001
0010
0100
0100
0010
0100
0000
0000
,
1001
0001
1000
1100
1000
0001
0101
1000
0010
1010
0001
0010
,
0011
1000
0100
1010
0001
0100
1000
0100
0010
0001
0000
0000
,
1002
0000
0000
0100
0000
0000
0013
0000
0000
0000
0000
0000
0102
0000
0000
0000
0000
0000
0003
0000
2000
0000
0000
0000
,
0000
0000
0000
3000
0000
0000
0000
0002
0000
0003
0000
0010
,
2001
0000
0000
0100
0000
0000
3010
0000
0000
0000
0000
0000
2100
0000
0000
0000
0000
0000
3000
0000
0002
0000
0000
0000
,
0000
0003
0220
0330
,
1000
0100
0010
0001
0000
0001
1000
0000
1000
0100
0000
0100
,
0010
0100
0001
0100
0010
0100
0001
0100
0010
0100
1000
0100
,
1000
0010
1000
0010
0000
0010
0100
0000
0100
0001
0000
0001
,
0100
0010
0100
1000
0100
0010
0100
0001
0100
0010
1000
0100
,
1002
0100
1000
0000
0010
0010
1003
0000
,
0001
0010
0100
0001
0100
0010
0100
1000
0010
0100
0001
0010
,
2001
0100
0001
0000
0010
0010
3001
0000
,
1000
0010
0100
1000
0100
0010
0100
0001
0010
0100
2000
3001
,
0010
0001
1000
0010
1000
0001
0100
0001
1000
0100
1000
0001
,
0010
0001
0100
0010
1000
0100
1000
0001
0100
0001
1000
0100
,
0010
0010
0001
1000
1000
0010
0100
0001
1000
0010
1000
0001
,
0100
0100
0010
1000
1000
0001
0010
0200
0000
1300
0000
0000
;

//---------------dance-single - ----------------
#NOTEDATA:;
#CHARTNAME:;
#STEPSTYPE:dance-single;
#DESCRIPTION:;
#CHARTSTYLE:;
#DIFFICULTY:Medium;
#METER:8;
#RADARVALUES:0.194761,0.260736,0.087642,0.068166,0.165547,140.000000,131.000000,9.000000,7.000000,0.000000,0.000000,0.000000,0.000000,0.000000,0.194761,0.260736,0.087642,0.068166,0.165547,140.000000,131.000000,9.000000,7.000000,0.000000,0.000000,0.000000,0.000000,0.000000;
#CREDIT:;
#NOTES:
0000
0000
0000
0000
,
0000
0000
0000
0000
,
1000
1000
1000
0000
0001
0000
0000
0000
,
0010
0000
0000
0000
,
0001
0001
0001
0000
0100
0000
0000
0000
,
1000
0000
0000
0000
,
0010
0010
0010
0000
0100
0000
0000
0000
,
2002
0000
0000
3003
,
1000
0000
0010
1000
0000
0001
1000
0000
0001
0100
0000
0001
,
1000
1000
1000
0000
0000
0000
0000
0000
0000
0000
0000
0000
,
0001
0000
0010
0001
0000
1000
0001
0000
0100
0001
0000
0100
,
0010
0000
1000
0100
0000
0010
0001
0000
0001
1000
0000
0000
,
0001
0101
1000
1100
,
0001
0000
0000
0011
0000
0000
1000
0010
0100
0001
0000
0000
,
2000
0001
3001
0000
0010
0000
0000
0000
,
0000
0000
0000
0000
,
0002
1000
1003
0000
0010
0000
0000
0000
,
0000
0000
2000
3000
,
0001
0100
0001
0100
0000
0010
0100
0000
0010
0100
0000
0000
,
1000
0100
1000
0100
0000
0010
0100
0000
0010
0100
0000
0000
,
0001
0001
0010
0100
0000
1000
0001
0000
1000
0100
0000
0000
,
1000
1000
0001
0100
0000
0010
1000
0000
0001
1000
0000
0010
,
0020
0100
0130
0000
1000
0001
1000
0000
,
0001
1100
1000
0101
,
0002
0010
0013
0000
1000
0100
1000
0000
,
0001
0011
1000
1100
,
0110
0001
1000
0010
,
0100
0000
0000
0001
0000
0000
1000
0010
1000
0010
0000
0000
,
0100
1000
0001
0010
,
0100
1000
0001
0100
;

//---------------dance-single - ----------------
#NOTEDATA:;
#CHARTNAME:;
#STEPSTYPE:dance-single;
#DESCRIPTION:;
#CHARTSTYLE:;
#DIFFICULTY:Easy;
#METER:5;
#RADARVALUES:0.115465,0.173824,0.097380,0.262927,0.000000,83.000000,73.000000,10.000000,27.000000,0.000000,0.000000,0.000000,0.000000,0.000000,0.115465,0.173824,0.097380,0.262927,0.000000,83.000000,73.000000,10.000000,27.000000,0.000000,0.000000,0.000000,0.000000,0.000000;
#CREDIT:;
#NOTES:
0000
0000
0000
0000
,
0000
0000
0000
0000
,
0000
0000
0000
0000
,
0000
0000
0000
0000
,
2000
3000
0002
0003
,
0020
0030
0000
0000
,
0002
0003
2000
3000
,
0020
0000
0000
0030
,
1001
0000
1000
0000
,
0001
0001
0010
0000
,
1001
0000
0001
0000
,
1000
0010
0010
0100
,
0001
0010
0001
0100
,
0001
0100
1000
0010
,
2000
3000
0200
0300
,
0002
0003
0020
0030
,
0002
0003
0200
0300
,
2000
3000
0020
0030
,
0101
1000
0010
0001
,
1100
0001
0010
1000
,
0110
0001
1000
0100
,
0110
1000
0001
0100
,
2020
0030
0002
3003
,
0022
0030
2000
3003
,
0202
0300
2000
3003
,
2200
0300
0002
3003
,
0010
0010
0100
0100
,
1000
1000
0001
0001
,
0100
0100
0010
0010
,
1000
1000
0002
0013
;

//---------------dance-single - ----------------
#NOTEDATA:;
#CHARTNAME:;
#STEPSTYPE:dance-single;
#DESCRIPTION:;
#CHARTSTYLE:;
#DIFFICULTY:Beginner;
#METER:3;
#RADARVALUES:0.062602,0.115883,0.009738,0.058428,0.000000,45.000000,44.000000,1.000000,6.000000,0.000000,0.000000,0.000000,0.000000,0.000000,0.062602,0.115883,0.009738,0.058428,0.000000,45.000000,44.000000,1.000000,6.000000,0.000000,0.000000,0.000000,0.000000,0.000000;
#CREDIT:;
#NOTES:
0000
0000
0000
0000
,
0000
0000
0000
0000
,
0000
0000
0000
0000
,
0000
0000
0000
0000
,
1000
0000
0000
0000
,
0001
0000
0000
0000
,
0001
0000
0000
0000
,
1000
0000
0000
0000
,
0110
0100
0100
0000
,
0010
0000
0010
0000
,
0001
0001
0001
0000
,
1000
0000
1000
0000
,
0100
0100
0100
0100
,
0010
0010
0010
0000
,
1000
0000
2000
0000
,
3000
0000
0000
0000
,
0001
0000
0002
0000
,
0003
0000
0000
0000
,
1000
0000
1000
0000
,
0001
0000
0001
0000
,
0010
0000
0010
0000
,
0100
0000
0100
0000
,
2000
0000
3000
0000
,
0001
0000
0010
0000
,
0002
0000
0003
0000
,
1000
0000
0010
0000
,
0200
0000
0000
0000
,
0300
0000
0000
0000
,
0010
0000
0010
0000
,
0010
0000
0200
0300
;
