#TITLE:You Leave Me Alone;
#SUBTITLE:;
#ARTIST:Venus;
#TITLETRANSLIT:;
#SUBTITLETRANSLIT:;
#ARTISTTRANSLIT:;
#GENRE:;
#CREDIT:;
#BANNER:You Leave Me Alone.png;
#BACKGROUND:You Leave Me Alone-bg.png;
#LYRICSPATH:;
#CDTITLE:;
#MUSIC:You Leave Me Alone.ogg;
#OFFSET:0.000000;
#SAMPLESTART:15.619999;
#SAMPLELENGTH:15.000000;
#SELECTABLE:YES;
#BPMS:0.000000=138.000000
;
#STOPS:
;
#BGCHANGES:;
#KEYSOUNDS:;
#ATTACKS:;

//---------------dance-single - ----------------
#NOTES:
     dance-single:
     :
     Easy:
     4:
     0.216554,0.278093,0.065434,0.327168,0.000000,139.000000,133.000000,6.000000,30.000000,0.000000,0.000000,0.216554,0.278093,0.065434,0.327168,0.000000,139.000000,133.000000,6.000000,30.000000,0.000000,0.000000:
0000
0000
0000
0000
,
0000
0000
0000
0000
,
0000
0000
0000
0000
,
0000
0000
0000
0000
,
0000
0000
0000
0000
,
0010
0000
0000
0000
,
0100
0000
0000
0000
,
0001
0000
1000
0000
,
0010
0001
1000
0000
,
2002
3003
0000
0000
,
0010
0000
1000
0001
,
0100
0000
0010
0001
,
1000
0010
1000
0001
,
0200
0300
1000
0001
,
0010
0010
1000
0100
,
0002
0003
2000
3000
,
0010
0001
1000
0100
,
0220
0330
0000
0000
,
0002
0003
0020
0030
,
2000
3100
0002
0013
,
1000
0100
0001
0010
,
2002
3003
1001
0010
,
1000
0001
0100
0001
,
0100
1000
0010
0001
,
0100
0001
1000
0110
,
2000
3000
0001
0100
,
0020
0030
1000
0100
,
0002
0003
0010
1000
,
0010
0001
0100
1000
,
0002
0000
0003
0100
,
2000
0000
3000
0100
,
0020
0030
0200
0300
,
0001
1000
0001
0100
,
0010
0010
0001
0100
,
1000
1000
0100
0010
,
0001
0010
1000
0010
,
0100
0100
1000
0001
,
0020
0000
0030
0000
,
0200
0000
0300
0000
,
0002
0003
0200
0300
,
0020
0030
2000
3000
,
0001
0000
0001
0000
,
0010
0000
1000
0000
,
0100
0100
0001
0000
,
1000
0000
1000
0000
,
0001
0200
0300
0000
,
0001
0100
0020
0030
,
1000
0010
1000
0001
,
1000
0100
0001
0010
,
0002
0103
2000
3100
,
0010
0001
1000
0100
,
1001
0000
0000
0000
;

//---------------dance-single - ----------------
#NOTES:
     dance-single:
     :
     Medium:
     7:
     0.316262,0.361521,0.196301,0.207206,0.000000,203.000000,185.000000,18.000000,19.000000,0.000000,0.000000,0.316262,0.361521,0.196301,0.207206,0.000000,203.000000,185.000000,18.000000,19.000000,0.000000,0.000000:
0000
0000
0000
0000
,
0000
0000
0000
0000
,
0000
0000
0000
0000
,
0000
0000
0000
0000
,
0000
0000
0000
0000
,
1000
0000
0000
0000
,
0001
0000
1000
0000
,
0010
0001
1000
0000
,
0020
0030
1001
0010
,
1001
0100
1000
0010
,
0001
0000
1000
0000
0001
0100
0001
0000
,
1000
0010
0100
0000
0001
0000
1000
0000
,
0001
0000
0100
0000
1000
0010
0001
0000
,
1000
1000
0010
0001
,
0100
1000
0001
0001
,
0010
2000
3001
0100
,
1000
0010
0001
0100
,
0110
0000
1001
0000
,
0010
1000
1000
0001
,
2000
3000
0020
0030
,
0001
1000
0100
0001
,
1000
0000
0001
0000
0100
0010
1000
0000
,
0001
0100
1000
0000
0001
0100
0010
0000
,
1000
0100
0001
0010
,
1000
0100
0001
1000
,
0110
0001
0100
1001
,
0010
1000
0110
0001
,
1000
0101
0001
1100
,
0010
0100
1001
0100
,
0001
0100
0001
0000
1000
0010
0100
0000
,
0001
0100
1000
0000
1000
0001
0100
0000
,
0002
0003
0200
0300
,
2000
3010
0002
0103
,
0010
2002
3003
0110
,
0001
2200
3300
1001
,
0010
0202
0303
1001
,
0010
0100
0001
0000
1000
0100
1000
0000
,
0001
1000
0000
0002
0000
1000
0003
0000
,
0010
0100
0000
2000
0000
0001
3000
0000
,
0100
0001
0000
0020
0000
1000
0030
0000
,
0001
0100
0001
1000
0010
0100
0000
0000
,
2002
0000
0000
3003
,
0001
0100
1000
0100
,
0001
0000
0010
1000
0100
0000
1000
0000
,
0010
0001
0100
1000
,
0010
1000
0100
0000
0001
0000
1000
0000
,
0001
0001
1000
0100
,
1000
0010
0000
1000
0000
0001
0000
0100
,
0000
0001
0000
0001
0100
1000
0000
0100
,
0000
1000
0000
0001
0000
0010
1000
0100
,
0000
0001
0000
1000
0000
0010
0100
0000
,
1001
0000
0000
0000
;

//---------------dance-single - ----------------
#NOTES:
     dance-single:
     :
     Hard:
     10:
     0.356769,0.395055,0.130867,0.447130,0.065434,229.000000,217.000000,12.000000,41.000000,0.000000,0.000000,0.356769,0.395055,0.130867,0.447130,0.065434,229.000000,217.000000,12.000000,41.000000,0.000000,0.000000:
0000
0000
0000
0000
,
0000
0000
0000
0000
,
0000
0000
0000
0000
,
0000
0000
0000
0000
,
0000
0000
0000
0000
,
0020
0000
0000
0030
0000
0010
0000
0001
,
0200
0000
0000
0300
0000
0100
0000
0001
,
2000
0000
0000
3000
0000
1000
0000
0100
,
0002
0000
2000
3003
,
0110
0000
1001
0000
0001
0000
1000
0001
,
0000
1000
0000
0101
0000
0010
0000
0100
,
0000
0001
0100
0000
0010
0001
1000
0100
,
0000
0011
0000
1000
0000
0001
0000
0200
,
0000
0301
0000
0001
0100
0010
1000
0200
,
0000
0300
0010
0001
0000
1000
0010
0200
,
0000
0000
0000
0300
0000
0001
0100
1000
,
0000
0002
1000
0013
,
0101
0000
1000
0000
0100
0010
0001
0000
,
2000
3002
0023
0230
,
0300
0000
1000
0010
1000
0100
0001
1000
,
0000
0100
0000
0001
0000
1000
0000
0200
,
0000
0300
0011
1100
,
0010
0001
1000
0001
0100
0010
1000
0000
,
0002
0103
2000
3010
,
2000
0000
3000
0100
0002
0000
0003
0010
,
0001
0000
0001
0000
0000
1000
0000
0000
0010
0000
0100
0000
0000
0001
0000
0000
,
0100
0000
1000
0000
0000
0010
0000
0000
0001
0000
0001
0000
0000
1000
0000
0000
,
0020
0030
0200
0300
,
0011
0000
1100
0000
0010
0001
0100
0000
,
1000
0000
0001
0000
0000
0100
0000
0000
0010
0000
1000
0000
0000
0100
0000
0000
,
0001
0000
0001
0000
0000
0100
0000
0000
1000
0000
0100
0000
0000
0001
0000
0000
,
2000
3100
0020
1030
,
0001
0010
0001
0010
0100
1000
0001
0000
,
0010
0000
1000
0000
0020
0000
0000
0000
0031
0000
0000
0100
0000
1000
0000
0000
,
0100
0000
0010
0000
0002
0000
0000
0000
0013
0000
0000
0010
0000
0100
0000
0000
,
0010
1000
0001
0000
0100
0001
0010
0000
,
0002
1003
0020
0130
,
1000
0100
0010
0001
1000
0001
0000
0100
,
0002
0003
2000
3000
,
0100
0001
1000
0000
0001
1000
0100
0000
,
0010
0001
0100
0010
0001
0100
1000
0000
,
0200
0000
0000
0300
,
0001
0100
0001
0000
1000
0010
0100
0000
,
0010
0010
1000
0000
0100
0001
1000
0000
,
0020
1030
0200
0301
,
0010
0000
2002
0000
3003
0100
1000
0000
,
0001
0010
0001
1000
0010
0001
0100
0000
,
1000
0002
0000
0103
0000
0010
0000
2000
,
0000
3001
0000
0100
0000
0010
0001
0000
,
2010
3002
0023
0230
,
0310
0001
0100
0010
1000
0000
0001
0000
,
0220
0000
0000
0330
;

//---------------dance-single - ----------------
#NOTES:
     dance-single:
     :
     Beginner:
     2:
     0.158910,0.194665,0.054528,0.000000,0.000000,102.000000,97.000000,5.000000,0.000000,0.000000,0.000000,0.158910,0.194665,0.054528,0.000000,0.000000,102.000000,97.000000,5.000000,0.000000,0.000000,0.000000:
0000
0000
0000
0000
,
0000
0000
0000
0000
,
0000
0000
0000
0000
,
0000
0000
0000
0000
,
0000
0000
0000
0000
,
1000
1000
1000
0000
,
1000
1000
1000
0000
,
1000
0000
1000
0000
,
1000
1000
1000
1000
,
1000
0000
0001
0000
,
0100
0000
0001
0000
,
0100
0000
0010
0000
,
1000
0000
0100
0000
,
1000
0000
0010
0000
,
0100
0000
0001
0000
,
0100
0000
0010
0000
,
1000
1000
1000
1000
,
1000
0000
0001
0000
,
0100
0000
0001
0000
,
0100
0000
0010
0000
,
1000
0000
0100
0000
,
1000
0000
0010
0000
,
0100
0000
0001
0000
,
0100
0000
0001
0000
,
0001
0001
0001
0001
,
0001
0001
0000
0000
,
1000
1000
0000
0000
,
0010
0010
0000
0000
,
0100
0100
0000
0000
,
0001
0001
0000
0000
,
1000
1000
0000
0000
,
0010
0010
0000
0000
,
0100
0100
0000
0000
,
1000
0000
0100
0000
,
1000
0000
0010
0000
,
0100
0000
0001
0000
,
0100
0000
0010
0000
,
0100
0000
1000
0000
,
0001
0000
0100
0000
,
0010
0000
1000
0000
,
0100
0000
1000
0000
,
1001
0000
0000
0000
,
1001
0000
0000
0000
,
1001
0000
0000
0000
,
1001
0000
0000
0000
,
0100
0000
0100
0000
,
0100
0000
0100
0000
,
0010
0010
0000
0000
,
1000
1000
0000
0000
,
0001
0001
0000
0000
,
0100
0100
0000
0000
,
1001
0000
0000
0000
;

//---------------dance-single - ----------------
#NOTES:
     dance-single:
     :
     Challenge:
     14:
     0.669915,0.818329,0.501658,0.065434,0.637978,430.000000,384.000000,46.000000,6.000000,0.000000,0.000000,0.669915,0.818329,0.501658,0.065434,0.637978,430.000000,384.000000,46.000000,6.000000,0.000000,0.000000:
0000
0000
0000
0000
,
0000
0000
0000
0000
,
0000
0000
0000
0000
,
0000
0000
0000
0000
,
0000
0000
0000
0000
,
1000
0001
0000
1000
0001
0000
1000
0001
,
0000
1000
0001
0000
1000
0001
0000
0100
,
0010
0100
0001
0100
,
0010
0100
0001
0100
0010
0100
0001
1000
,
1001
0000
1100
1000
0100
0010
0001
0010
,
0000
0001
0100
0001
0000
0101
0000
1001
,
0000
0010
1000
0100
1000
0010
0100
0001
,
0000
0100
0001
0100
0000
1010
0000
0101
,
0000
1000
0100
1000
0010
0100
0001
0100
,
0000
0010
0100
0001
0000
0101
0000
0011
,
0002
0100
0103
0000
0200
0010
0310
0000
,
1000
0100
1000
0100
1000
0010
1000
0010
1000
0100
1000
0100
1000
0000
0000
0000
,
1010
0000
0110
0000
0001
0100
0001
0100
,
0000
0010
1000
0100
0000
0011
0000
1100
,
0000
1000
0001
0100
0010
0100
0001
0100
,
0000
0010
1000
0100
0000
0110
0000
0011
,
0000
0001
1000
0100
1000
0010
0100
0001
,
0000
1000
0100
0001
0000
0110
0000
1100
,
2000
0001
3001
0000
0020
0100
0130
0000
,
1000
0001
0100
0001
1000
0001
0100
0001
1000
0001
0100
0001
1000
0000
0000
0000
,
1000
0100
1000
0000
0100
1000
0000
0100
0010
0001
0010
0000
0001
0010
0000
0001
,
0100
0001
0100
0000
0010
1000
0000
0100
1000
0100
1000
0000
0010
1000
0000
0100
,
1000
0010
1000
0000
0100
1000
0000
0100
1000
0010
0100
0000
0001
0100
0000
0001
,
0100
0010
0100
0000
0001
0100
0000
0001
0100
0010
1000
0000
1000
0100
0000
0100
,
1000
0100
1000
0000
0010
1000
0000
1000
0001
0100
0001
0000
0100
0010
0000
0010
,
1000
0100
1000
0000
1000
0010
0000
0100
0001
0100
0001
0000
0010
0001
0000
0001
,
0100
0001
0100
0000
0010
1000
0000
0010
1000
0100
1000
0000
0100
1000
0000
0100
,
1000
0100
1000
0001
0010
0001
1000
0100
0010
0001
1000
0001
0100
0010
1000
0001
,
0100
0010
0100
0000
0001
0100
0000
0010
1000
0010
1000
0000
0100
1000
0000
0100
,
1000
0100
1000
0000
0001
0100
0000
0001
0100
0001
0100
0000
0100
0010
0000
0100
,
0001
0100
0001
0000
0100
0001
0000
0010
0001
0010
0001
0000
0001
0100
0000
0100
,
0010
0100
0010
0000
0010
1000
0000
1000
0100
1000
0100
0000
0100
1000
0000
1000
,
0001
0100
0001
0000
0100
0010
0000
0010
0100
0010
0100
0000
0001
0100
0000
0100
,
0001
1000
0100
0000
1000
0100
0000
1000
0100
1000
0010
0000
0100
0001
0000
0100
,
0010
0100
0010
0000
1000
0100
0000
1000
0100
1000
0100
0000
0100
1000
0000
1000
,
0001
0100
0010
0000
1000
0010
0000
0100
0001
0100
0010
0000
1000
0100
0000
0100
,
1000
0100
0000
1100
0000
1100
0000
0101
,
0000
0101
0000
1001
0000
1010
0000
0101
,
0000
0011
0000
0101
0000
1100
0000
1010
,
0000
0101
0000
0011
0000
0110
0000
0011
,
0000
1100
0000
0110
0000
1001
0000
1100
,
0000
0011
0000
0110
0000
1010
0000
0101
,
0110
0000
1001
0000
1000
0100
1000
0000
,
1001
0000
0101
0000
0001
0010
0100
0000
,
1100
0000
1010
0000
1000
0100
1000
0000
,
0010
0100
0010
0100
0001
0100
0010
0100
0010
1000
0100
1000
0100
0010
0001
0000
,
2002
0000
0000
3003
;
