#VERSION:0.83;
#TITLE:Work It Out;
#SUBTITLE:;
#ARTIST:Richard Jacques;
#TITLETRANSLIT:;
#SUBTITLETRANSLIT:;
#ARTISTTRANSLIT:;
#GENRE:;
#ORIGIN:;
#CREDIT:;
#BANNER:;
#BACKGROUND:DDR CD-bg.JPG;
#PREVIEWVID:;
#JACKET:Work It Out-jacket.jpg;
#CDIMAGE:;
#DISCIMAGE:;
#LYRICSPATH:;
#CDTITLE:;
#MUSIC:Work It Out.ogg;
#OFFSET:-0.580000;
#SAMPLESTART:54.580070;
#SAMPLELENGTH:12.000000;
#SELECTABLE:YES;
#BPMS:0.000=142.000;
#STOPS:;
#DELAYS:;
#WARPS:;
#TIMESIGNATURES:0.000=4=4;
#TICKCOUNTS:0.000=4;
#COMBOS:0.000=1;
#SPEEDS:0.000=1.000=0.000=0;
#SCROLLS:0.000=1.000;
#FAKES:;
#LABELS:0.000=Song Start;
#BGCHANGES:;
#KEYSOUNDS:;
#ATTACKS:
;

//---------------dance-single - ----------------
#NOTEDATA:;
#CHARTNAME:;
#STEPSTYPE:dance-single;
#DESCRIPTION:;
#CHARTSTYLE:;
#DIFFICULTY:Hard;
#METER:12;
#RADARVALUES:0.493242,0.728838,0.194357,0.045731,0.194357,302.000000,285.000000,17.000000,4.000000,0.000000,0.000000,0.000000,0.000000,0.000000,0.493242,0.728838,0.194357,0.045731,0.194357,302.000000,285.000000,17.000000,4.000000,0.000000,0.000000,0.000000,0.000000,0.000000;
#CREDIT:;
#NOTES:
0000
0000
0000
0000
,
0000
0000
0000
0000
,
0000
0000
0000
0000
,
0000
0000
0000
0000
,
2000
0001
0000
3001
,
0002
1000
0000
1003
,
1000
0001
0100
0010
1000
0010
0100
0001
,
1000
0100
1000
0100
1000
0010
1000
0010
1000
0001
1000
0001
0100
0001
0100
0001
,
1000
0000
0000
0000
0101
0000
0000
0001
0000
0000
0001
0000
0000
0001
0000
0000
,
1000
0000
0100
0000
1000
0000
0000
1000
0000
0000
1000
0000
0000
1000
0000
0000
,
0010
0000
0000
0000
0110
0000
0000
0100
0000
0000
0100
0000
0000
0001
0000
0000
,
0001
0000
0100
0000
0010
0000
0000
0010
0000
0000
1000
0000
0001
0000
1000
0000
,
0010
0000
0000
0000
0101
0000
0000
0100
0000
0000
0001
0000
0000
0010
0000
0000
,
0001
0000
1000
0000
0010
0000
0000
0100
0000
0000
0010
0000
1000
0000
0100
0000
,
0100
0000
0000
0000
1000
0000
0000
0001
0000
0000
0100
0000
0000
0001
0000
0000
,
0010
0000
0001
0000
0100
0000
0000
0010
0000
0000
0100
0000
0001
0000
0100
0000
,
1001
0000
0100
0000
0001
0100
0010
0000
,
1000
0100
1000
0000
0010
0100
0010
0000
,
0100
0001
0100
0000
0001
0010
0001
0000
,
1000
0100
1000
0000
0010
1000
0010
0000
,
0100
0001
0100
0000
0001
1000
0001
0000
,
1000
0100
1000
0000
0010
0100
0010
0000
,
0100
0001
0100
0000
0001
0010
0001
0000
,
1000
0100
1000
0000
0010
1000
0010
0100
,
0001
0000
0101
0000
0001
0100
0010
0100
,
0001
0000
1100
0000
1000
0010
1000
0100
,
1000
0000
1001
0000
0001
0100
0010
1000
,
0100
0000
0110
0000
0001
1000
0001
0100
,
0001
0000
1010
0000
1000
0100
1000
0010
,
0100
0000
0101
0000
0010
1000
0100
1000
,
0001
0100
0010
1000
0001
0100
0010
1000
,
0100
0010
0001
0100
0010
1000
1001
0000
,
0001
0010
0100
0000
0001
0010
0100
0000
,
0001
0010
0100
0010
0001
0010
0100
0000
,
1000
0100
0010
0000
1000
0100
0010
0000
,
1000
0100
0010
0100
1000
0100
0010
0000
,
0001
0100
0010
0000
0001
0100
0010
0000
,
0001
0100
0010
0100
0001
0100
0010
0000
,
1000
0010
0100
0000
1000
0010
0100
0000
,
1000
0010
0100
0010
1000
0010
0100
0010
,
1000
0000
0000
0000
0101
0000
0000
0001
0000
0000
0001
0000
0000
0001
0000
0000
,
1000
0000
0100
0000
1000
0000
0000
1000
0000
0000
1000
0000
0000
1000
0000
0000
,
0010
0000
0000
0000
0110
0000
0000
0100
0000
0000
0100
0000
0000
0001
0000
0000
,
0001
0000
0100
0000
0010
0000
0000
0010
0000
0000
1000
0000
0001
0000
1000
0000
,
0010
0000
0000
0000
0101
0000
0000
0100
0000
0000
0001
0000
0000
0010
0000
0000
,
0001
0000
1000
0000
0010
0000
0000
0100
0000
0000
0010
0000
1000
0000
0100
0000
,
0100
0000
0000
0000
1000
0000
0000
0001
0000
0000
0100
0000
0000
0001
0000
0000
,
0010
0000
0001
0000
0100
0000
0000
0010
0000
0000
0100
0000
0001
0000
0100
0000
,
1001
0100
0100
0100
,
1001
0100
0100
0100
,
2002
0000
0000
0000
,
3003
0000
0000
0000
;

//---------------dance-single - ----------------
#NOTEDATA:;
#CHARTNAME:;
#STEPSTYPE:dance-single;
#DESCRIPTION:;
#CHARTSTYLE:;
#DIFFICULTY:Medium;
#METER:7;
#RADARVALUES:0.387080,0.437303,0.251521,0.022866,0.074313,237.000000,215.000000,22.000000,2.000000,0.000000,0.000000,0.000000,0.000000,0.000000,0.387080,0.437303,0.251521,0.022866,0.074313,237.000000,215.000000,22.000000,2.000000,0.000000,0.000000,0.000000,0.000000,0.000000;
#CREDIT:;
#NOTES:
0000
0000
0000
0000
,
0000
0000
0000
0000
,
0000
0000
0000
0000
,
0000
0000
0000
0000
,
1000
1000
1000
1000
,
0001
0001
0001
0001
,
1000
0101
0001
1100
,
1000
0100
0010
0001
,
1000
0000
0000
0000
0101
0000
0000
0001
0000
0000
0001
0000
0000
0001
0000
0000
,
1000
0000
0100
0000
1000
0000
0000
1000
0000
0000
1000
0000
0000
1000
0000
0000
,
0010
0000
0000
0000
0110
0000
0000
0100
0000
0000
0100
0000
0000
0001
0000
0000
,
0001
0000
0100
0000
0010
0000
0000
0010
0000
0000
1000
0000
0001
0000
1000
0000
,
0010
0000
0000
0000
0101
0000
0000
0100
0000
0000
0001
0000
0000
0010
0000
0000
,
0001
0000
1000
0000
0010
0000
0000
0100
0000
0000
0010
0000
1000
0000
0100
0000
,
0100
0000
0000
0000
1000
0000
0000
0001
0000
0000
0100
0000
0000
0001
0000
0000
,
0010
0000
0001
0000
0100
0000
0000
0010
0000
0000
0100
0000
0001
0000
0100
0000
,
0001
0001
1000
1001
,
1000
1000
0001
1001
,
0001
0100
0010
1000
,
0100
1000
0010
0100
,
0001
0100
0110
0010
,
1000
0100
0110
0001
,
1000
0010
0100
0001
,
0100
0001
1000
1000
,
0010
1001
1000
0001
,
0100
1001
0001
0100
,
0010
1000
0100
0010
,
0001
0100
0100
0100
,
1001
0100
0001
0100
,
1001
0100
1000
0100
,
1000
0001
1000
0001
,
1000
0001
1000
0001
1000
0001
1000
0000
,
0001
0010
0100
0000
0001
0010
0100
0000
,
0001
0010
0100
0000
0000
0010
0100
0000
,
1000
0100
0010
0000
1000
0100
0010
0000
,
1000
0100
0010
0000
0000
0100
0010
0000
,
0001
0100
0010
0000
0001
0100
0010
0000
,
0001
0100
0010
0000
0000
0100
0010
0000
,
1000
0010
0100
0000
1000
0010
0100
0000
,
0000
0010
0100
0010
1000
0000
0100
0000
,
1001
0100
0001
0100
,
1001
0100
1000
0100
,
1100
1000
0100
0010
,
0011
0001
0010
0100
,
1000
1000
0001
0001
,
0100
0010
0100
0010
,
1010
0100
1010
0100
,
0011
0100
0011
0100
,
0010
0010
0010
0010
,
0100
0100
0100
0100
,
2002
0000
0000
0000
,
3003
0000
0000
0000
;

//---------------dance-single - ----------------
#NOTEDATA:;
#CHARTNAME:;
#STEPSTYPE:dance-single;
#DESCRIPTION:;
#CHARTSTYLE:;
#DIFFICULTY:Easy;
#METER:5;
#RADARVALUES:0.316851,0.349842,0.228655,0.068597,0.000000,194.000000,174.000000,20.000000,6.000000,0.000000,0.000000,0.000000,0.000000,0.000000,0.316851,0.349842,0.228655,0.068597,0.000000,194.000000,174.000000,20.000000,6.000000,0.000000,0.000000,0.000000,0.000000,0.000000;
#CREDIT:;
#NOTES:
0000
0000
0000
0000
,
0000
0000
0000
0000
,
0000
0000
0000
0000
,
0000
0000
0000
0000
,
1000
1000
1000
0000
,
0001
0001
0001
0000
,
1000
1000
0001
0001
,
1000
0100
0010
0001
,
1000
0001
1000
0100
,
0001
1000
0001
0100
,
1000
0100
0001
0010
,
1000
0100
0001
0010
,
1000
0001
0100
0010
,
1000
0010
0100
0001
,
1000
0100
0001
0010
,
1000
0100
0001
0010
,
1000
0001
1000
1001
,
1000
1000
0001
1001
,
0001
0100
0010
1000
,
0100
1000
0010
0100
,
0001
0100
0110
0010
,
1000
0100
0110
0001
,
1000
0010
0100
0001
,
0100
0001
1000
1000
,
0010
1001
1000
0001
,
0100
1001
0001
0100
,
0010
1000
0100
0010
,
0001
0100
0100
0100
,
1001
0100
0001
0100
,
1001
0100
1000
0100
,
1000
0001
1000
0001
,
2002
0000
0000
3003
,
1000
1000
0100
0100
,
0001
0001
0010
0010
,
1000
0001
1000
1001
,
0001
1000
0001
1001
,
1000
1000
0100
0100
,
0001
0001
0010
0010
,
1000
0001
1000
1001
,
0001
1000
0001
1001
,
1001
0100
0001
0100
,
1001
0100
1000
0100
,
1100
1000
0100
0010
,
0011
0001
0010
0100
,
1000
1000
0001
0001
,
0100
0010
0100
0010
,
1001
0100
0100
0100
,
0100
0100
0100
1001
,
0002
0000
0000
0003
,
2000
0000
0000
3000
,
2002
0000
0000
0000
,
3003
0000
0000
0000
;

//---------------dance-single - ----------------
#NOTEDATA:;
#CHARTNAME:;
#STEPSTYPE:dance-single;
#DESCRIPTION:;
#CHARTSTYLE:;
#DIFFICULTY:Beginner;
#METER:1;
#RADARVALUES:0.146993,0.174921,0.011433,0.022866,0.000000,90.000000,89.000000,1.000000,2.000000,0.000000,0.000000,0.000000,0.000000,0.000000,0.146993,0.174921,0.011433,0.022866,0.000000,90.000000,89.000000,1.000000,2.000000,0.000000,0.000000,0.000000,0.000000,0.000000;
#CREDIT:;
#NOTES:
// measure 0
0000
0000
0000
0000
,  // measure 1
0000
0000
0000
0000
,  // measure 2
0000
0000
0000
0000
,  // measure 3
0000
0000
0000
0000
,  // measure 4
1000
0000
1000
0000
,  // measure 5
0001
0000
0001
0000
,  // measure 6
1000
0000
0001
0000
,  // measure 7
1000
0000
0010
0000
,  // measure 8
1000
0000
1000
0000
,  // measure 9
0001
0000
0001
0000
,  // measure 10
1000
0000
0001
0000
,  // measure 11
1000
0000
0001
0000
,  // measure 12
1000
0000
0100
0000
,  // measure 13
1000
0000
0100
0000
,  // measure 14
1000
0000
0001
0000
,  // measure 15
1000
0000
0001
0000
,  // measure 16
1000
0000
1000
0000
,  // measure 17
1000
0000
0001
0000
,  // measure 18
0001
0000
0010
0000
,  // measure 19
0100
0000
0010
0000
,  // measure 20
0001
0000
0010
0000
,  // measure 21
1000
0000
0010
0000
,  // measure 22
1000
0000
0100
0000
,  // measure 23
0100
0000
1000
0000
,  // measure 24
0010
0000
1000
0000
,  // measure 25
0100
0000
0001
0000
,  // measure 26
0010
0000
0100
0000
,  // measure 27
0001
0000
0100
0000
,  // measure 28
0001
0000
0001
0000
,  // measure 29
1000
0000
1000
0000
,  // measure 30
0001
0000
1000
0000
,  // measure 31
1001
0000
0000
0000
,  // measure 32
1000
1000
0000
0000
,  // measure 33
0001
0001
0000
0000
,  // measure 34
1000
0000
1000
0000
,  // measure 35
0001
0000
0001
0000
,  // measure 36
1000
1000
0000
0000
,  // measure 37
0001
0001
0000
0000
,  // measure 38
1000
0000
1000
0000
,  // measure 39
0001
0000
0001
0000
,  // measure 40
1000
0000
0001
0000
,  // measure 41
0001
0000
1000
0000
,  // measure 42
0100
0000
0100
0000
,  // measure 43
0010
0000
0010
0000
,  // measure 44
1000
0000
0001
0000
,  // measure 45
0100
0000
0100
0000
,  // measure 46
1000
0000
0100
0000
,  // measure 47
0100
0000
0100
0000
,  // measure 48
0002
0000
0000
0000
,  // measure 49
0003
0000
0000
0000
,  // measure 50
2000
0000
0000
0000
,  // measure 51
3000
0000
0000
0000
;
