#TITLE:Wild I/O;
#SUBTITLE:(Original 3rdMIX);
#ARTIST:Nouvo Nude;
#TITLETRANSLIT:;
#SUBTITLETRANSLIT:;
#ARTISTTRANSLIT:;
#GENRE:;
#CREDIT:;
#BANNER:Wild IO (Original 3rdMIX).png;
#BACKGROUND:Wild IO (Original 3rdMIX)-bg.png;
#LYRICSPATH:;
#CDTITLE:;
#MUSIC:Wild IO (Original 3rdMIX).ogg;
#OFFSET:-0.428000;
#SAMPLESTART:7.337583;
#SAMPLELENGTH:12.000000;
#SELECTABLE:YES;
#DISPLAYBPM:130.011993;
#BPMS:0.000000=130.011993
;
#STOPS:
;
#BGCHANGES:;
#KEYSOUNDS:;
#ATTACKS:;

//---------------dance-single - ----------------
#NOTES:
     dance-single:
     :
     Challenge:
     11:
     0.468100,0.519266,0.169903,0.169903,0.024272,270.000000,256.000000,14.000000,14.000000,0.000000,0.000000,0.468100,0.519266,0.169903,0.169903,0.024272,270.000000,256.000000,14.000000,14.000000,0.000000,0.000000:
// measure 0
0000
0000
0000
0000
,  // measure 1
0000
0000
0000
0000
,  // measure 2
1000
0000
0010
0000
1000
0001
0000
0000
,  // measure 3
0001
1000
0000
1000
0000
1000
0000
0000
,  // measure 4
0001
1000
1000
0100
0100
0010
0010
0100
,  // measure 5
0001
0100
1000
0100
0001
0100
1000
0100
,  // measure 6
1000
0010
0001
0010
1000
0010
0010
0100
,  // measure 7
0010
1000
1000
0001
1000
0001
1000
0100
,  // measure 8
0100
1000
1000
0010
0001
0010
1000
0010
,  // measure 9
0100
0001
0100
1000
0100
0010
0100
0001
,  // measure 10
1000
0000
0010
0100
0001
0000
1000
0000
0001
0000
0001
0100
0010
0000
1000
0000
,  // measure 11
0100
0000
1000
0010
0100
0000
0100
0000
0001
0000
0001
1000
0100
0000
1000
0000
,  // measure 12
1000
0001
1000
0001
0100
1001
0000
0000
,  // measure 13
1000
0001
0100
1001
0000
0000
1000
0010
,  // measure 14
1000
0001
0100
0010
1000
1100
0100
1000
,  // measure 15
0100
1000
0001
0101
0000
0001
1000
0010
,  // measure 16
0100
0001
0100
0000
1001
0100
0000
0000
,  // measure 17
0001
1000
1001
0100
0000
0000
0000
1000
,  // measure 18
0100
1000
0100
1000
0100
1000
0000
0001
,  // measure 19
0010
0001
0010
0001
1000
0001
0100
0010
,  // measure 20
1001
0000
0001
0000
1001
0000
1000
0100
,  // measure 21
1000
0000
0010
0000
0110
0000
0100
0010
,  // measure 22
1000
0000
1000
0000
1001
0000
1000
0100
,  // measure 23
1000
0000
0001
0000
0110
0000
0100
0001
,  // measure 24
0100
0001
0101
0100
0001
1000
0001
1000
,  // measure 25
1000
0100
0010
0001
1000
0100
1000
0100
,  // measure 26
1000
0100
1001
0001
0100
0001
1000
0001
,  // measure 27
1000
0100
1000
0010
1000
0100
0001
0100
,  // measure 28
1000
0100
1000
1000
0100
1000
0010
0100
,  // measure 29
0001
1000
0100
0010
0001
0001
1000
0100
,  // measure 30
0100
1000
0001
0001
1000
0001
1000
0001
,  // measure 31
0001
0100
1000
0100
0001
0001
1000
1000
,  // measure 32
2000
3002
0203
0302
,  // measure 33
2003
3200
0320
0032
,  // measure 34
0203
0000
0320
0000
2030
0000
3200
0010
,  // measure 35
0310
0000
0001
0001
0001
0000
1000
0001
,  // measure 36
1000
0000
0010
1000
1000
0000
1000
0001
,  // measure 37
1000
0000
0010
1000
0100
0000
0010
0100
,  // measure 38
1000
0000
0010
1000
0100
0000
0010
0100
,  // measure 39
1000
0000
1000
0001
0100
0000
0001
0100
,  // measure 40
2002
0000
0000
3003
;
