#VERSION:0.83;
#TITLE:Wild I/O;
#SUBTITLE:(808 Style Mix);
#ARTIST:Nouvo Nude;
#TITLETRANSLIT:;
#SUBTITLETRANSLIT:;
#ARTISTTRANSLIT:;
#GENRE:;
#ORIGIN:;
#CREDIT:;
#BANNER:Wild IO 808 Style Mix.png;
#BACKGROUND:Wild IO 808 Style Mix-bg.png;
#PREVIEWVID:;
#JACKET:Wild IO 808 Style Mix-jacket.png;
#CDIMAGE:;
#DISCIMAGE:;
#LYRICSPATH:;
#CDTITLE:;
#MUSIC:Wild IO 808 Style Mix.ogg;
#OFFSET:-0.708000;
#SAMPLESTART:44.997585;
#SAMPLELENGTH:12.000000;
#SELECTABLE:YES;
#DISPLAYBPM:130.011993;
#BPMS:0.000=130.012;
#STOPS:;
#DELAYS:;
#WARPS:;
#TIMESIGNATURES:0.000=4=4;
#TICKCOUNTS:0.000=4;
#COMBOS:0.000=1;
#SPEEDS:0.000=1.000=0.000=0;
#SCROLLS:0.000=1.000;
#FAKES:;
#LABELS:0.000=Song Start;
#BGCHANGES:;
#KEYSOUNDS:;
#ATTACKS:
;

//---------------dance-single - ----------------
#NOTEDATA:;
#CHARTNAME:;
#STEPSTYPE:dance-single;
#DESCRIPTION:;
#CHARTSTYLE:;
#DIFFICULTY:Hard;
#METER:9;
#RADARVALUES:0.317815,0.370384,0.096204,0.132280,0.120254,185.000000,177.000000,8.000000,11.000000,0.000000,0.000000,0.000000,0.000000,0.000000,0.317815,0.370384,0.096204,0.132280,0.120254,185.000000,177.000000,8.000000,11.000000,0.000000,0.000000,0.000000,0.000000,0.000000;
#CREDIT:;
#DISPLAYBPM:130.011993;
#NOTES:
// measure 0
0000
0000
0000
0000
,  // measure 1
0000
0000
0000
0000
,  // measure 2
1000
0000
0010
0000
1000
0001
0000
0000
,  // measure 3
0001
1000
0000
1000
0000
1000
0000
0000
,  // measure 4
0001
1000
0100
0000
,  // measure 5
0001
0100
1000
0000
1001
0000
0000
0000
,  // measure 6
1000
0000
0001
0000
1000
0000
0010
0100
,  // measure 7
0010
0000
1000
0000
1000
0001
1000
0000
,  // measure 8
0100
0000
1000
0000
0001
0010
0000
0000
,  // measure 9
0100
0001
0000
1000
0000
0010
0000
0000
,  // measure 10
1000
0000
0000
0100
0000
0000
1000
0000
0001
0000
0000
0100
0000
0000
1000
0000
,  // measure 11
0100
0000
0000
0010
0000
0000
1000
0000
0001
0000
0000
1000
0000
0000
0001
0000
,  // measure 12
1000
0000
0000
0000
,  // measure 13
1000
0000
0000
0000
0000
0000
0000
0001
,  // measure 14
1000
0001
0000
0000
0000
0000
0000
1000
,  // measure 15
0100
1000
0000
0000
0001
0000
1000
0000
,  // measure 16
0100
0000
0000
0000
,  // measure 17
0001
0000
0000
0000
0000
0000
0000
1000
,  // measure 18
0100
1000
0000
0000
0000
0000
0000
0001
,  // measure 19
0010
0001
0000
0000
1000
0000
0001
0000
,  // measure 20
0010
0000
0001
0000
1001
0000
1000
0100
,  // measure 21
1000
0000
0010
0000
0110
0000
0100
0010
,  // measure 22
1000
0000
1000
0000
1001
0000
1000
0100
,  // measure 23
1000
0000
0001
0000
0110
0000
0100
0001
,  // measure 24
0100
0000
0000
0100
0001
0000
0001
0000
,  // measure 25
1000
0100
0010
0001
1000
0000
1000
0100
,  // measure 26
1000
0100
0000
0000
0000
0000
0001
1000
0000
0000
0000
0000
1000
0001
0000
0000
,  // measure 27
1000
0100
1000
0010
1000
0000
0001
0000
,  // measure 28
1000
0000
0000
1000
0100
0000
0010
0000
,  // measure 29
0001
1000
0100
0010
0001
0000
1000
0100
,  // measure 30
0100
1000
0000
0000
0000
0000
0001
0000
1000
0000
0000
0000
1000
0000
0000
0000
,  // measure 31
0001
0100
1000
0100
0001
0000
1000
0000
,  // measure 32
2000
0000
0000
0000
3002
0000
0000
0000
0203
0000
0000
0002
0300
0000
2003
0000
,  // measure 33
3002
2003
0000
0000
,  // measure 34
3200
0000
0000
0000
2300
0000
0000
0000
3002
0000
0000
0203
0000
0000
0310
0000
,  // measure 35
0010
0000
0000
1000
0000
0000
0001
0000
0001
0000
0000
0100
0000
0000
0001
0000
,  // measure 36
1000
0000
0000
0010
0000
0000
1000
0000
1000
0000
0000
0001
0000
0000
0001
0000
,  // measure 37
1000
0000
0000
0010
0000
0000
1000
0000
0100
0000
0000
0001
0000
0000
0100
0000
,  // measure 38
1000
0000
0000
0010
0000
0000
1000
0000
0100
0000
0000
0001
0000
0000
0100
0000
,  // measure 39
1000
0000
0000
0010
0000
0000
1000
0000
0100
0000
0000
0001
0000
0000
0100
0000
,  // measure 40
1000
0000
0000
0000
,  // measure 41
0000
0000
0000
0000
0000
0000
0000
0100
,  // measure 42
1001
0000
0000
0000
,  // measure 43
0110
0000
0000
0000
,  // measure 44
1001
0000
0000
0000
;

//---------------dance-single - ----------------
#NOTEDATA:;
#CHARTNAME:;
#STEPSTYPE:dance-single;
#DESCRIPTION:;
#CHARTSTYLE:;
#DIFFICULTY:Medium;
#METER:7;
#RADARVALUES:0.316097,0.449752,0.144305,0.000000,0.048102,184.000000,172.000000,12.000000,0.000000,0.000000,0.000000,0.000000,0.000000,0.000000,0.316097,0.449752,0.144305,0.000000,0.048102,184.000000,172.000000,12.000000,0.000000,0.000000,0.000000,0.000000,0.000000,0.000000;
#CREDIT:;
#DISPLAYBPM:130.011993;
#NOTES:
0000
0000
0000
0000
,
0000
0000
0000
0000
,
0100
0000
0100
0000
0100
0100
0000
0000
,
0100
0100
0000
0100
0000
0100
0000
0000
,
0010
0000
0010
0000
0010
0010
0000
0000
,
0010
0010
0000
0010
0000
0010
0000
0000
,
1000
0000
0000
1000
0000
0000
1000
0000
0001
0000
0000
0001
0000
0000
0001
0000
,
1000
0000
0000
1000
0000
0000
1000
0000
0001
0000
0000
0001
0000
0000
0001
0000
,
0100
0000
0100
0000
0100
0100
0000
0000
,
0010
0010
0000
0010
0000
0010
0000
0000
,
1000
0000
0000
1000
0000
0000
1000
0000
0001
0000
0000
0001
0000
0000
0001
0000
,
0100
0000
0000
0100
0000
0000
0100
0000
0010
0000
0000
0010
0000
0000
0010
0000
,
1000
0000
0000
0000
,
0001
0000
0000
0000
0000
0000
0000
0100
,
0010
0100
0000
0000
0000
0000
0000
0010
,
0100
0010
0000
0000
1000
0000
0001
0000
,
1001
0000
0000
0000
,
0110
0000
0000
0000
0000
0000
0000
1000
,
0001
0100
0000
0000
0000
0000
0000
0001
,
1000
0100
0000
0000
1001
0000
0110
0000
,
1001
0000
0100
0000
0100
0000
0100
0010
,
0100
0000
0100
0000
0001
0000
1000
0001
,
1000
0000
1000
0000
1000
0000
0001
0100
,
0001
0001
0100
0001
,
1001
0000
0000
1000
0001
0000
1000
0000
,
0001
1000
0001
1000
0001
0000
0001
0000
,
1001
0000
0000
0001
1000
0000
0001
0000
,
1000
0001
1000
0001
1000
0000
1000
0000
,
1001
0000
0000
1000
0001
0000
1000
0000
,
0001
1000
0001
1000
0001
0000
0001
0000
,
1001
0000
0000
0001
1000
0000
0001
0000
,
1000
0001
1000
0001
1000
0000
1000
0000
,
1000
0001
0100
0001
,
1000
0010
0100
0010
,
1000
0100
1000
0001
,
0100
0010
1000
0001
,
0100
0001
1000
0100
,
1000
0001
1000
0001
1000
0001
1000
0001
,
1000
0001
1000
0001
1000
0001
1000
0001
,
0100
0010
1000
0001
,
1001
0000
0000
0000
,
0000
0000
0000
0000
0000
0000
0000
1000
,
0001
0000
0000
0000
,
0110
0000
0000
0000
,
1001
0000
0000
0000
;

//---------------dance-single - ----------------
#NOTEDATA:;
#CHARTNAME:;
#STEPSTYPE:dance-single;
#DESCRIPTION:;
#CHARTSTYLE:;
#DIFFICULTY:Easy;
#METER:5;
#RADARVALUES:0.233637,0.264560,0.180382,0.000000,0.000000,136.000000,121.000000,15.000000,0.000000,0.000000,0.000000,0.000000,0.000000,0.000000,0.233637,0.264560,0.180382,0.000000,0.000000,136.000000,121.000000,15.000000,0.000000,0.000000,0.000000,0.000000,0.000000,0.000000;
#CREDIT:;
#DISPLAYBPM:130.011993;
#NOTES:
0000
0000
0000
0000
,
0000
0000
0000
0000
,
0100
0100
0100
0000
,
1001
0000
0000
0000
,
0010
0010
0010
0000
,
1001
0000
0000
0000
,
1000
1000
0001
0001
,
1000
1000
0001
0001
,
0100
0100
0100
0000
,
1001
0000
0000
0000
,
1000
1000
0001
0001
,
0100
0100
0010
0010
,
1000
0000
0000
0000
,
0001
0000
0000
0000
,
0100
0000
0000
0000
,
0010
0000
1000
0001
,
1001
0000
0000
0000
,
0110
0000
0000
0000
,
1001
0000
0000
0000
,
1001
0000
0100
0100
,
1001
0100
0100
0100
,
0100
0100
0001
1000
,
1000
1000
1000
0001
,
0001
0001
0100
0001
,
1001
0000
0001
1000
,
0001
0001
0001
0001
,
1001
0000
1000
0001
,
1000
1000
1000
1000
,
1001
0000
0001
1000
,
0001
0001
0001
0001
,
1001
0000
1000
0001
,
1000
1000
1000
1000
,
1000
0001
0100
0001
,
1000
0010
0100
0010
,
1000
0100
1000
0001
,
0100
0010
1000
0001
,
0100
0001
1000
0100
,
1000
1000
1000
1000
,
0001
0001
0001
0001
,
0100
0010
1000
0001
,
1001
0000
0000
0000
,
0000
0000
0000
0000
0000
0000
0000
1000
,
0001
0000
0000
0000
,
0110
0000
0000
0000
,
1001
0000
0000
0000
;

//---------------dance-single - ----------------
#NOTEDATA:;
#CHARTNAME:;
#STEPSTYPE:dance-single;
#DESCRIPTION:;
#CHARTSTYLE:;
#DIFFICULTY:Beginner;
#METER:2;
#RADARVALUES:0.135716,0.185192,0.084178,0.000000,0.000000,79.000000,72.000000,7.000000,0.000000,0.000000,0.000000,0.000000,0.000000,0.000000,0.135716,0.185192,0.084178,0.000000,0.000000,79.000000,72.000000,7.000000,0.000000,0.000000,0.000000,0.000000,0.000000,0.000000;
#CREDIT:;
#DISPLAYBPM:130.011993;
#NOTES:
0000
0000
0000
0000
,
0000
0000
0000
0000
,
0100
0000
0000
0000
,
1001
0000
0000
0000
,
0010
0000
0000
0000
,
1001
0000
0000
0000
,
1000
1000
0000
0000
,
0001
0001
0000
0000
,
0100
0100
0100
0000
,
1001
0000
0000
0000
,
1000
1000
0000
0000
,
0001
0001
0000
0000
,
1000
0000
0000
0000
,
0001
0000
0000
0000
,
0100
0000
0000
0000
,
0010
0000
0000
0000
,
0100
0000
0000
0000
,
1001
0000
0000
0000
,
1001
0000
0000
0000
,
1001
0000
0100
0100
,
0100
0000
0100
0000
,
0100
0000
0001
0000
,
1000
0000
1000
0000
,
0001
0000
0100
0000
,
0001
0000
0001
0000
,
0001
0000
0001
0000
,
1000
0000
1000
0000
,
1000
0000
1000
0000
,
0001
0000
0001
0000
,
0001
0000
0001
0000
,
1000
0000
1000
0000
,
1000
0000
1000
0000
,
1000
0000
0100
0000
,
1000
0000
0010
0000
,
0001
0000
0001
0000
,
0100
0000
0010
0000
,
0100
0000
1000
0000
,
1000
1000
1000
0000
,
0001
0001
0001
0000
,
0100
0000
0010
0000
,
1001
0000
0000
0000
,
0000
0000
0000
0000
,
0100
0000
0000
0000
,
0100
0000
0000
0000
,
0100
0000
0000
0000
;
