#TITLE:Welcome to the Gates of Hell;
#SUBTITLE:;
#ARTIST:B.B.C.;
#TITLETRANSLIT:;
#SUBTITLETRANSLIT:;
#ARTISTTRANSLIT:;
#GENRE:;
#CREDIT:;
#BANNER:;
#BACKGROUND:Welcome to the gates of hell-bg.jpg;
#LYRICSPATH:;
#CDTITLE:;
#MUSIC:Welcome_to_the_Gates_of_Hell.ogg;
#OFFSET:-0.060000;
#SAMPLESTART:43.619965;
#SAMPLELENGTH:14.999992;
#SELECTABLE:YES;
#BPMS:0.000000=138.000000
,48.000000=137.000000
,116.000000=138.000000
,148.000000=137.500000
;
#STOPS:
;
#BGCHANGES:;
#KEYSOUNDS:;
#ATTACKS:;

//---------------dance-single - ----------------
#NOTES:
     dance-single:
     :
     Hard:
     15:
     0.691068,0.819705,0.153442,0.072683,0.759136,599.000000,580.000000,19.000000,9.000000,0.000000,0.000000,0.691068,0.819705,0.153442,0.072683,0.759136,599.000000,580.000000,19.000000,9.000000,0.000000,0.000000:
0000
0000
0000
0000
,
0000
0000
0000
0000
,
0000
0000
0000
0000
,
0000
0000
0000
0000
,
0000
0000
0000
0000
,
0000
0000
0000
0000
,
1000
0000
0000
0000
0001
0000
0000
0000
0001
0000
0000
0001
0000
0000
0100
0000
,
0010
0000
0000
0010
1000
0000
0000
0000
0100
0000
0000
0000
1000
0000
0001
0000
,
0100
0000
0000
0000
0001
0000
0000
0000
0100
0000
0000
0100
0000
0000
0100
0000
,
0010
0000
0000
1000
0001
0000
0000
0000
1001
0000
0000
0000
1001
0000
1100
0000
,
1100
0000
1000
1000
0001
0100
0001
0100
,
0010
0010
1000
0100
1000
0010
1000
0001
,
0001
0100
0001
0100
0010
1000
0100
1000
,
1000
0000
0100
0000
0010
0000
0001
0000
0001
0010
0001
0010
0001
0100
0001
0100
,
0001
0000
1000
0001
0000
0100
0010
0000
0100
0001
0000
0001
0100
0000
0010
0000
,
0100
0000
0001
1000
0000
0100
1000
0000
0010
1000
0000
0100
1000
0000
0010
0000
,
0100
0000
0001
1000
0000
0001
0100
0000
0010
1000
0000
0100
1000
0000
0001
0000
,
1000
0001
1000
0010
1000
0001
1002
0000
,
0103
0000
0000
0000
0101
0000
0000
0000
0100
0000
0000
0001
0000
0000
0001
0000
,
0100
0001
0100
0001
0100
0001
0100
0001
0100
0001
0100
0001
0100
0001
0100
0001
,
0010
0000
0000
0000
0001
0000
0000
0000
1000
0000
0000
0010
0000
0000
1000
0000
,
0100
1000
0100
1000
0100
1000
0100
1000
0100
1000
0100
1000
0100
1000
0100
1000
,
0010
0000
0000
0000
0100
0000
0000
0000
0010
0000
0000
0100
0000
0000
0001
0000
,
1000
0001
1000
0001
0100
0001
0100
0001
0100
0010
0100
0010
1000
0010
1000
0010
,
0100
0000
0000
0000
0001
0000
0000
0000
1000
0000
0000
0001
0000
0000
0100
0000
,
2002
0000
0000
3003
,
1100
0000
0000
1000
0100
0000
1000
0000
0100
0000
1000
0000
0010
0100
0010
0100
,
0001
0000
0000
0001
0100
0000
0010
0000
0100
0000
0001
0000
0010
0001
0010
0001
,
0010
0000
0000
0001
1000
0000
0010
0000
0100
0000
0010
0000
1000
0010
0100
0010
,
0100
0000
0000
0001
0100
0000
0010
0000
1000
0100
1000
0100
1000
0010
1000
0010
,
1000
0000
0000
0001
0100
0000
0001
0000
0100
0010
0100
0001
0010
0001
0100
0010
,
0100
0000
0000
0001
1000
0000
0100
0000
1000
0010
1000
0010
0100
0010
0100
0010
,
1000
0100
1000
0100
1000
0010
1000
0010
0100
0001
0100
0001
0010
0001
0010
0002
,
2000
0000
0000
3003
,
1000
0000
0100
0000
1000
0000
0010
0100
0000
0001
0000
0100
0010
0000
1000
0000
,
0010
0000
1000
0000
0100
0000
1000
0001
0000
0100
0000
0001
1000
0000
0010
0000
,
0100
0000
0001
0000
0100
0000
0100
0010
0000
0010
0000
1000
0100
0000
1000
0000
,
0100
0000
1000
0000
0010
0000
0100
0001
0000
0100
0000
0010
0100
0000
0001
0000
,
1000
0000
0100
0000
1000
0000
0010
0100
0000
0001
0000
1000
0100
0000
1000
0000
,
1000
0000
0100
0000
0010
0000
0001
0010
0000
0100
0000
1000
0010
0000
0100
0000
,
0001
0000
0100
0000
0010
0000
1000
0010
0000
0100
0000
0010
0100
0000
0010
0000
,
0010
0000
0000
1000
0001
0000
0000
0000
1001
0000
0000
0000
1001
0000
1100
0000
,
1100
0000
1000
1000
0001
0100
0001
0100
,
0010
0010
1000
0100
1000
0010
1000
0001
,
0001
0100
0001
0100
0010
1000
0100
1000
,
1000
0000
0100
0000
0010
0000
0001
0000
0001
0010
0001
0010
0001
0100
0001
0100
,
0001
0000
1000
0001
0000
0100
0010
0000
0100
0001
0000
0001
0100
0000
0010
0000
,
0100
0000
0001
1000
0000
0100
1000
0000
0010
1000
0000
0100
1000
0000
0010
0000
,
0100
0000
0001
1000
0000
0001
0100
0000
0010
1000
0000
0100
1000
0000
0001
0000
,
1000
0001
1000
0010
1000
0001
1002
0000
,
0103
0000
0000
0000
0101
0000
0000
0000
0100
0000
0000
0001
0000
0000
0001
0000
,
0100
0001
0100
0001
0100
0001
0100
0001
0100
0001
0100
0001
0100
0001
0100
0001
,
0010
0000
0000
0000
0001
0000
0000
0000
1000
0000
0000
0010
0000
0000
1000
0000
,
0100
1000
0100
1000
0100
1000
0100
1000
0100
1000
0100
1000
0100
1000
0100
1000
,
0010
0000
0000
0000
0100
0000
0000
0000
0010
0000
0000
0100
0000
0000
0001
0000
,
1000
0001
1000
0001
0100
0001
0100
0001
0100
0010
0100
0010
1000
0010
1000
0010
,
0100
0000
0000
0000
0001
0000
0000
0000
1000
0000
0000
0001
0000
0000
0100
0000
,
2002
0000
0000
3003
,
1100
0000
0000
1000
0100
0000
1000
0000
0100
0000
1000
0000
0010
0100
0010
0100
,
0001
0000
0000
0001
0100
0000
0010
0000
0100
0000
0001
0000
0010
0001
0010
0001
,
0010
0000
0000
0001
1000
0000
0010
0000
0100
0000
0010
0000
1000
0010
0100
0010
,
0100
0000
0000
0001
0100
0000
0010
0000
1000
0100
1000
0100
1000
0010
1000
0010
,
1000
0000
0000
0001
0100
0000
0001
0000
0100
0010
0100
0001
0010
0001
0100
0010
,
0100
0000
0000
0001
1000
0000
0100
0000
1000
0010
1000
0010
0100
0010
0100
0010
,
1000
0100
1000
0100
1000
0010
1000
0010
0100
0001
0100
0001
0010
0001
0010
0001
,
1000
0001
1000
0010
1000
0001
1002
0000
,
0103
0000
0000
0000
0101
0000
0000
0000
0100
0000
0000
0001
0000
0000
0001
0000
,
0100
0001
0100
0001
0100
0001
0100
0001
0100
0001
0100
0001
0100
0001
0100
0001
,
0010
0000
0000
0000
0001
0000
0000
0000
1000
0000
0000
0010
0000
0000
1000
0000
,
0001
0010
0100
1000
0100
0010
0001
1000
,
1001
0000
0000
0000
;

//---------------dance-single - ----------------
#NOTES:
     dance-single:
     :
     Medium:
     9:
     0.385336,0.395720,0.266505,0.080759,0.000000,334.000000,301.000000,33.000000,10.000000,0.000000,0.000000,0.385336,0.395720,0.266505,0.080759,0.000000,334.000000,301.000000,33.000000,10.000000,0.000000,0.000000:
0000
0000
0000
0000
,
0000
0000
0000
0000
,
0000
0000
0000
0000
,
0000
0000
0000
0000
,
0000
0000
0000
0000
,
0000
0000
0000
0000
,
1000
0000
1000
0000
1000
0001
0100
0000
,
0001
0000
0001
0000
0001
1000
0100
1000
,
0010
0000
0100
0000
0010
0100
0001
0100
,
0010
0000
1000
0000
0100
1000
0100
0010
,
0100
1000
0100
0000
1000
0100
1000
0000
,
0010
0100
0010
0000
0100
0001
0100
0000
,
0001
1000
0001
0000
1000
0100
1000
0000
,
0010
1000
0010
0000
0100
0001
0100
0001
,
0100
0110
1000
0101
,
1000
0101
1000
1010
,
1000
1100
1000
0011
,
2002
0000
3000
0103
,
1001
0100
1000
0010
,
1000
0100
1000
0010
,
0100
0001
0100
0001
,
0010
0001
1000
0001
,
1000
0100
1000
0010
,
0100
0001
0100
0010
,
1000
0100
0001
0010
,
2000
0100
0001
3010
,
1001
0000
0100
0000
0001
0001
0001
0000
,
1001
0000
0100
0000
1000
1000
1000
0000
,
1001
0000
0100
0000
0001
0001
0001
0000
,
1001
0000
0100
0000
1000
1000
1000
0000
,
0110
0000
1000
0000
0010
0010
0010
0000
,
0110
0000
0001
0000
0100
0100
0100
0000
,
0110
0000
1000
0000
0010
0010
0010
0000
,
0220
0000
0000
0330
,
1000
0000
0001
0000
0100
0001
0100
0000
,
0010
0000
1000
0000
0001
0100
0001
0000
,
1000
0000
0100
0000
1000
0010
0100
0000
,
0001
0000
0100
0000
0010
0100
0001
0000
,
1000
0000
0100
0000
1000
0001
0100
0000
,
0001
0000
1000
0000
0001
1000
0100
0000
,
1000
0000
0010
0000
0100
0001
0100
0000
,
0001
0000
1000
0000
1000
0001
0100
0000
,
0001
0000
0001
0000
0001
1000
0100
1000
,
0010
0000
0100
0000
0010
0100
0001
0100
,
0010
0000
1000
0000
0100
1000
0100
0010
,
0100
1000
0100
0000
1000
0100
1000
0000
,
0010
0100
0010
0000
0100
0001
0100
0000
,
0001
1000
0001
0000
1000
0100
1000
0000
,
0010
1000
0010
0000
0100
0001
0100
0001
,
0100
0110
1000
0101
,
1000
0101
1000
1010
,
1000
1100
1000
0011
,
2002
0000
3000
0103
,
1001
0100
1000
0010
,
1000
0100
1000
0010
,
0100
0001
0100
0001
,
0010
0001
1000
0001
,
1000
0100
1000
0010
,
0100
0001
0100
0010
,
1000
0100
0001
0010
,
2000
0100
0001
3010
,
1001
0000
0100
0000
0001
0001
0001
0000
,
1001
0000
0100
0000
1000
1000
1000
0000
,
1001
0000
0100
0000
0001
0001
0001
0000
,
1001
0000
0100
0000
1000
1000
1000
0000
,
0110
0000
1000
0000
0010
0010
0010
0000
,
0110
0000
0001
0000
0100
0100
0100
0000
,
0110
0000
1000
0000
0010
0010
0010
0000
,
0220
0000
0000
0330
,
1000
0000
0001
0000
0100
0001
0100
0000
,
1001
0000
0000
0000
;

//---------------dance-single - ----------------
#NOTES:
     dance-single:
     :
     Easy:
     6:
     0.299963,0.367454,0.153442,0.113063,0.000000,260.000000,241.000000,19.000000,14.000000,0.000000,0.000000,0.299963,0.367454,0.153442,0.113063,0.000000,260.000000,241.000000,19.000000,14.000000,0.000000,0.000000:
0000
0000
0000
0000
,
0000
0000
0000
0000
,
0000
0000
0000
0000
,
0000
0000
0000
0000
,
0000
0000
0000
0000
,
0000
0000
0000
0000
,
1000
1000
1000
1000
,
0001
0001
0001
0001
,
0100
0100
0100
0100
,
0010
0010
0010
0010
,
1000
1000
0001
0001
,
0100
0100
0010
0010
,
0100
0001
0100
0001
,
0010
0001
0010
0001
,
1000
0100
1000
0010
,
1000
0100
1000
0010
,
0100
0001
0100
0010
,
2002
0000
0000
3003
,
1000
0100
0001
0010
,
1000
0100
0001
0010
,
1000
0010
0001
0100
,
1000
0010
0001
0100
,
1000
0010
0100
0001
,
1000
0001
0100
0010
,
1000
0100
0010
0001
,
2002
0000
0000
3003
,
1001
1000
0100
1000
,
1001
0001
0100
0001
,
1000
0100
1000
0010
,
0100
0001
0100
0010
,
0110
0001
1000
0010
,
0110
1000
0001
0100
,
1001
0100
0100
0100
,
2002
0000
0000
3003
,
1000
1000
0010
0100
,
0001
0001
0100
0010
,
1000
1000
0010
0100
,
0001
0001
0100
0010
,
1000
0100
0010
0001
,
1000
0001
0100
0010
,
1000
0010
0100
0001
,
1002
2003
3001
0000
,
1000
1000
1000
1000
,
0001
0001
0001
0001
,
0100
0100
0100
0100
,
0010
0010
0010
0010
,
1000
1000
0001
0001
,
0100
0100
0010
0010
,
0100
0001
0100
0001
,
0010
0001
0010
0001
,
1000
0100
1000
0010
,
1000
0100
1000
0010
,
0100
0001
0100
0010
,
2002
0000
0000
3003
,
1000
0100
0001
0010
,
1000
0100
0001
0010
,
1000
0010
0001
0100
,
1000
0010
0001
0100
,
1000
0010
0100
0001
,
1000
0001
0100
0010
,
1000
0100
0010
0001
,
2002
0000
0000
3003
,
1001
1000
0100
1000
,
1001
0001
0100
0001
,
1000
0100
1000
0010
,
0100
0001
0100
0010
,
0110
0001
1000
0010
,
0110
1000
0001
0100
,
1001
0100
0100
0100
,
1002
0103
2001
3100
,
1001
0000
0000
0000
;

//---------------dance-single - ----------------
#NOTES:
     dance-single:
     :
     Beginner:
     3:
     0.154596,0.197860,0.008076,0.040380,0.000000,134.000000,133.000000,1.000000,5.000000,0.000000,0.000000,0.154596,0.197860,0.008076,0.040380,0.000000,134.000000,133.000000,1.000000,5.000000,0.000000,0.000000:
// measure 0
0000
0000
0000
0000
,  // measure 1
0000
0000
0000
0000
,  // measure 2
0000
0000
0000
0000
,  // measure 3
0000
0000
0000
0000
,  // measure 4
0000
0000
0000
0000
,  // measure 5
0000
0000
0000
0000
,  // measure 6
1000
1000
1000
0000
,  // measure 7
0001
0001
0001
0000
,  // measure 8
0100
0100
0100
0000
,  // measure 9
0010
0010
0010
0000
,  // measure 10
1000
1000
0000
0000
,  // measure 11
0100
0100
0000
0000
,  // measure 12
0100
0000
0100
0000
,  // measure 13
0010
0000
0010
0000
,  // measure 14
1000
0000
1000
0000
,  // measure 15
1000
0000
1000
0000
,  // measure 16
0001
0000
0001
0000
,  // measure 17
0002
0000
0000
0003
,  // measure 18
0001
0000
0001
0000
,  // measure 19
1000
0000
0001
0000
,  // measure 20
1000
0000
0001
0000
,  // measure 21
1000
0000
0001
0000
,  // measure 22
1000
0000
0100
0000
,  // measure 23
1000
0000
0100
0000
,  // measure 24
1000
0000
1000
0000
,  // measure 25
2000
0000
0000
3000
,  // measure 26
1000
1000
0000
0000
,  // measure 27
0001
0001
0000
0000
,  // measure 28
1000
1000
0000
0000
,  // measure 29
0100
0100
0000
0000
,  // measure 30
0010
0010
0000
0000
,  // measure 31
0010
0010
0000
0000
,  // measure 32
0001
0001
0000
0000
,  // measure 33
0002
0000
0000
0003
,  // measure 34
0001
0000
0010
0000
,  // measure 35
0001
0000
0100
0000
,  // measure 36
1000
0000
0010
0000
,  // measure 37
0001
0000
0100
0000
,  // measure 38
1000
0000
0010
0000
,  // measure 39
1000
0000
0100
0000
,  // measure 40
1000
0000
0100
0000
,  // measure 41
0100
0100
0100
0000
,  // measure 42
1000
1000
1000
0000
,  // measure 43
0001
0001
0001
0000
,  // measure 44
0100
0100
0100
0000
,  // measure 45
0010
0010
0010
0000
,  // measure 46
1000
1000
0000
0000
,  // measure 47
0100
0100
0000
0000
,  // measure 48
0100
0000
0100
0000
,  // measure 49
0010
0000
0010
0000
,  // measure 50
1000
0000
1000
0000
,  // measure 51
1000
0000
1000
0000
,  // measure 52
0001
0000
0001
0000
,  // measure 53
0002
0000
0000
0003
,  // measure 54
0001
0000
0001
0000
,  // measure 55
1000
0000
0001
0000
,  // measure 56
1000
0000
0001
0000
,  // measure 57
1000
0000
0001
0000
,  // measure 58
1000
0000
0100
0000
,  // measure 59
1000
0000
0100
0000
,  // measure 60
1000
0000
1000
0000
,  // measure 61
2000
0000
0000
3000
,  // measure 62
1000
1000
0000
0000
,  // measure 63
0001
0001
0000
0000
,  // measure 64
1000
1000
0000
0000
,  // measure 65
0100
0100
0000
0000
,  // measure 66
0010
0010
0000
0000
,  // measure 67
0010
0010
0000
0000
,  // measure 68
0001
0001
0000
0000
,  // measure 69
0001
0000
1000
0000
,  // measure 70
1001
0000
0000
0000
;
