#VERSION:0.83;
#TITLE:Weekend;
#SUBTITLE:;
#ARTIST:DJ Dick;
#TITLETRANSLIT:;
#SUBTITLETRANSLIT:;
#ARTISTTRANSLIT:;
#GENRE:;
#ORIGIN:;
#CREDIT:;
#BANNER:;
#BACKGROUND:Weekend-bg.jpg;
#PREVIEWVID:;
#JACKET:Weekend-jacket.jpg;
#CDIMAGE:;
#DISCIMAGE:;
#LYRICSPATH:;
#CDTITLE:;
#MUSIC:Weekend.ogg;
#OFFSET:-0.064000;
#SAMPLESTART:22.199875;
#SAMPLELENGTH:12.000000;
#SELECTABLE:YES;
#BPMS:0.000=130.000;
#STOPS:28.000=0.231,
28.500=0.231;
#DELAYS:;
#WARPS:;
#TIMESIGNATURES:0.000=4=4;
#TICKCOUNTS:0.000=4;
#COMBOS:0.000=1;
#SPEEDS:0.000=1.000=0.000=0;
#SCROLLS:0.000=1.000;
#FAKES:;
#LABELS:0.000=Song Start;
#BGCHANGES:;
#KEYSOUNDS:;
#ATTACKS:
;

//---------------dance-single - Nifara----------------
#NOTEDATA:;
#CHARTNAME:Nifara;
#STEPSTYPE:dance-single;
#DESCRIPTION:Nifara;
#CHARTSTYLE:;
#DIFFICULTY:Hard;
#METER:14;
#RADARVALUES:0.558607,0.753908,0.406260,0.000000,0.334318,462.000000,414.000000,48.000000,0.000000,0.000000,0.000000,0.000000,0.000000,0.000000,0.558607,0.753908,0.406260,0.000000,0.334318,462.000000,414.000000,48.000000,0.000000,0.000000,0.000000,0.000000,0.000000,0.000000;
#CREDIT:Nifara;
#NOTES:
0000
0000
0000
0000
,
0000
0000
0000
0000
,
1000
0000
0101
0000
1000
0000
0100
1000
,
0100
1000
0010
0100
1000
0000
0100
0001
,
0100
0001
0100
0001
0100
0001
0100
0001
0100
0001
0100
0001
0100
0000
0000
0000
,
0010
1000
0010
1000
0010
1000
0010
1000
0010
1000
0010
1000
0010
0000
0000
0000
,
1001
1000
0001
0100
0010
0000
0100
0000
,
0101
0000
1100
0000
1000
0000
0100
0000
1000
0100
1000
0100
1000
0000
0100
0000
,
0001
0100
1000
0000
0101
0000
0100
0010
,
1000
0010
0100
0000
0100
0000
0100
0001
,
0100
0001
0100
0000
0100
0010
0100
0001
,
0100
0000
0010
0000
0100
0000
0000
0000
0101
0000
0000
0000
1000
0001
1000
0001
,
1000
0000
0100
0010
0100
0010
0000
0000
0100
0000
0001
0000
0100
0000
0000
0000
,
0100
0101
0000
0010
,
0011
0010
0011
0010
,
0011
0000
0000
0000
0010
0000
0000
0000
0000
0000
0000
0000
0010
0001
0010
0001
,
0010
0000
0001
0010
0001
0010
0001
0000
0000
0000
1000
0000
0001
0000
0100
0000
,
0010
0100
0010
0000
0100
0000
0101
0000
,
0100
0101
0100
0101
,
0100
0000
0000
0000
0101
0000
0000
0000
0000
0000
0000
0000
1000
0001
1000
0001
,
1000
0000
0001
1000
0001
1000
0001
0000
0000
0000
0000
0000
0001
0000
0010
0000
,
0100
1000
0100
1000
0001
1000
0001
0000
,
1001
0001
1001
0001
,
1001
0000
0000
0000
0001
0000
0000
0000
1001
0000
0000
0000
0100
0010
0100
0010
,
0100
0000
0010
0100
0010
0100
0010
0000
0000
0000
0001
0000
1000
0000
0100
0000
,
1000
0001
0100
0001
0100
0010
0100
0000
,
0101
0100
0101
0100
,
0101
0100
0101
0100
,
0100
0000
1000
0000
0100
0001
0100
0000
,
0010
0001
0010
0001
0100
0010
1000
0000
,
0001
0000
0100
0000
0001
0000
0100
0000
0001
0000
0100
0001
0100
0000
0010
0000
,
1000
0010
1000
0010
1000
0010
0000
0000
,
0000
0000
0101
0000
0000
0000
0101
0000
0000
0000
0100
0010
0000
0000
0000
0000
,
0000
0110
0000
1001
0000
0000
0000
0000
,
0000
0110
0000
0011
0000
0000
0000
0000
,
0000
0000
1100
0000
1100
0000
1000
0001
,
1000
0000
0100
0001
0100
0000
0100
0010
,
0100
0000
0100
0001
1000
0000
0100
0010
,
0010
0000
0010
1000
0001
0000
0100
0001
,
0100
0000
0000
0000
1000
0000
0010
0000
1000
0000
0000
0000
0100
0001
0100
0001
,
0100
0000
0001
0100
0001
0100
0001
0000
0000
0000
0001
0000
0010
0000
0001
0000
,
1000
0010
0100
0001
1000
0000
1001
0000
,
1000
1001
1000
1001
,
1000
0000
0000
0000
1001
0000
0000
0000
1000
0000
0000
0000
1000
0100
0010
0001
,
1000
0000
0001
0010
0100
1000
0001
0000
0000
0000
0001
0000
0010
0000
0001
0000
,
0100
0001
1000
0100
1000
0000
1001
0000
,
1000
1001
1000
1001
,
1000
0000
0000
0000
1000
0000
0001
0000
1000
0000
0000
0000
1000
0100
1000
0100
,
1000
0000
0100
1000
0100
1000
0100
0000
0000
0000
0100
0000
1000
0000
0100
0000
,
1000
0010
0100
0001
1000
0000
1010
0000
,
1000
1010
1000
1010
,
1000
0000
0000
0000
1010
0000
1010
0000
1010
0000
0000
0000
1000
0010
1000
0010
,
1000
0000
0010
1000
0010
1000
0010
0000
0000
0000
0001
0000
0100
0000
0001
0000
,
0100
0010
1000
0001
0100
0000
0110
0000
,
0100
0110
0100
0110
,
0100
0000
0000
0000
0110
0000
0010
0100
0010
0000
0000
0000
0100
0000
0001
0000
,
0100
0001
0000
0100
0001
0000
0100
0001
0000
0100
0001
0000
0000
0000
0100
0000
,
0010
0100
0000
0010
0100
0000
0010
0100
0000
0010
1000
0000
0000
0000
1000
0000
,
0010
1000
0000
0010
1000
0000
0010
1000
0000
0010
1000
0000
0000
0000
0100
0000
,
0010
0100
0000
0010
0100
0000
0010
0100
0000
0010
0001
0000
0000
0000
0100
0000
,
0001
0100
0000
0001
0100
0000
0001
0100
0000
0001
0010
0000
0000
0000
0010
0000
,
0001
0010
0000
0001
0010
0000
0001
0010
0000
0001
0010
0000
0000
0000
0010
0000
,
0001
0010
0000
0001
0010
0000
0001
0010
0000
0001
0010
0000
0000
0000
1001
0000
,
0000
0001
0000
0000
0100
0000
0000
0010
0000
0000
1000
0000
0000
0000
0000
0000
;

//---------------dance-single - Nifara----------------
#NOTEDATA:;
#CHARTNAME:;
#STEPSTYPE:dance-single;
#DESCRIPTION:Nifara;
#CHARTSTYLE:;
#DIFFICULTY:Medium;
#METER:11;
#RADARVALUES:0.406260,0.403879,0.363941,0.000000,0.067710,336.000000,293.000000,43.000000,0.000000,0.000000,0.000000,0.000000,0.000000,0.000000,0.406260,0.403879,0.363941,0.000000,0.067710,336.000000,293.000000,43.000000,0.000000,0.000000,0.000000,0.000000,0.000000,0.000000;
#CREDIT:;
#NOTES:
0000
0000
0000
0000
,
0000
0000
0000
0000
,
1000
0000
0101
0000
1000
0000
0001
1000
,
0100
0000
1000
0001
0100
0000
0001
0000
,
0100
0100
0100
0100
0100
0000
0100
0000
,
0010
0010
0010
0010
0010
0000
0010
0000
,
1001
0000
0001
0100
0010
0000
0100
0000
,
0100
1001
1000
1000
1000
1000
1000
0000
,
0001
1000
0101
0001
,
1000
0100
1000
0001
,
0100
0001
1000
0100
,
1000
0000
0001
0000
0101
0000
1000
1000
,
1000
0000
0001
0001
0001
0000
0100
0000
,
0100
0101
0000
0010
,
0011
0010
0011
0010
,
0011
0000
0010
0000
0000
0000
0100
0100
,
0100
0000
0010
0010
0010
0000
1000
0000
,
0010
1000
0001
0101
,
0100
0101
0100
0101
,
0100
0000
0101
0000
0000
0000
1000
1000
,
1000
0000
0001
0001
0001
0000
0001
0010
,
0100
0000
0100
1000
0001
0000
0001
0000
,
1001
0001
1001
0001
,
1001
0000
0001
0000
1001
0000
0100
0100
,
0100
0000
0010
0010
0010
0000
1000
0100
,
1000
0000
0100
0001
0100
0000
0100
0000
,
0101
0100
0101
0100
,
0101
0100
0101
0100
,
0100
0000
1000
0000
0100
0001
0100
0000
,
0010
0001
0010
0000
0100
0010
1000
0000
,
0001
0100
0001
0000
0001
0100
0100
0000
,
1000
0010
1000
0000
1000
0010
0000
0000
,
0000
0101
0000
0101
0000
0000
0000
0000
,
0000
0110
0000
1001
0000
0000
0000
0000
,
0000
0110
0000
0011
0000
0000
0000
0000
,
0000
1100
1100
1000
,
1000
0000
0001
0100
0001
0000
0100
0000
,
0100
0000
0010
1000
0100
0000
1000
0000
,
0010
0000
1000
0001
0100
0000
0001
0000
,
0100
0000
0010
1000
0010
0000
0100
0100
,
0100
0000
0001
0001
0001
0000
0010
0001
,
1000
0000
0100
1000
0010
0000
1001
0000
,
1000
1001
1000
1001
,
1000
0000
1001
0000
1000
0000
0010
0010
,
0010
0000
0100
0100
0100
0000
1000
0000
,
0001
1000
0001
1001
,
1000
1001
1000
1001
,
1000
0000
1000
0001
1000
0000
1000
1000
,
1000
0000
0100
0100
0100
0000
1000
0100
,
1000
0000
0010
0100
0001
0000
1010
0000
,
1000
1010
1000
1010
,
1000
0000
0010
0000
0010
0000
1000
1000
,
1000
0000
0010
0010
0010
0000
0100
0001
,
0100
0000
0001
1000
0100
0000
0110
0000
,
0100
0110
0100
0110
,
0100
0000
0110
0000
0010
0000
0001
0001
,
0000
0001
0000
0000
0001
0000
0000
0001
0000
0000
0001
0000
0000
0000
0100
0000
,
0000
0100
0000
0000
0100
0000
0000
0100
0000
0000
0100
0000
0000
0000
1000
0000
,
0000
1000
0000
0000
1000
0000
0000
1000
0000
0000
1000
0000
0000
0000
0100
0000
,
0000
0100
0000
0000
0100
0000
0000
0100
0000
0000
0100
0000
0000
0000
0001
0000
,
0000
0001
0000
0000
0001
0000
0000
0001
0000
0000
0001
0000
0000
0000
0010
0000
,
0000
0010
0000
0000
0010
0000
0000
0010
0000
0000
0010
0000
0000
0000
1000
0000
,
0000
1000
0000
0000
1000
0000
0000
1000
0000
0000
1000
0000
0000
0000
0010
0000
,
0000
0010
0000
0000
0010
0000
0000
0010
0000
0000
0010
0000
0000
0000
0000
0000
;

//---------------dance-single - Nifara----------------
#NOTEDATA:;
#CHARTNAME:;
#STEPSTYPE:dance-single;
#DESCRIPTION:Nifara;
#CHARTSTYLE:;
#DIFFICULTY:Easy;
#METER:8;
#RADARVALUES:0.311949,0.350029,0.228521,0.000000,0.067710,258.000000,231.000000,27.000000,0.000000,0.000000,0.000000,0.000000,0.000000,0.000000,0.311949,0.350029,0.228521,0.000000,0.067710,258.000000,231.000000,27.000000,0.000000,0.000000,0.000000,0.000000,0.000000,0.000000;
#CREDIT:;
#NOTES:
0000
0000
0000
0000
,
0000
0000
0000
0000
,
1000
0101
1000
0001
,
0100
1000
0100
0001
,
0100
0000
0100
0100
0100
0000
0100
0000
,
0010
0000
0010
0010
0010
0000
0010
0000
,
1001
0001
0010
0100
,
0100
1001
1000
0000
1000
0000
1000
0000
,
0001
1000
0101
0001
,
1000
0100
1000
0001
,
0100
0001
1000
0100
,
1000
0001
0101
1000
,
1000
0001
0001
0100
,
0100
0101
0000
0010
,
0000
0010
0011
0010
,
0000
0010
0000
0100
,
0100
0010
0010
1000
,
0010
1000
0001
0000
,
0100
0101
0100
0000
,
0100
0101
0000
1000
,
1000
0001
0001
0001
,
0100
0100
0001
0001
,
0000
0001
1001
0001
,
0000
0001
1001
0100
,
0100
0010
0010
1000
,
1000
0100
0100
0100
,
0000
0100
0101
0100
,
0000
0100
0101
0100
,
0100
1000
0100
0100
,
0010
0010
0100
1000
,
0001
0001
0001
0100
,
1000
1000
1000
0000
,
0000
0101
0000
0101
0000
0000
0000
0000
,
0000
0110
0000
1001
0000
0000
0000
0000
,
0000
0110
0000
0011
0000
0000
0000
0000
,
0000
1100
1100
1000
,
1000
0001
0001
0100
,
0100
0010
0100
1000
,
0010
1000
0100
0001
,
0100
0010
0010
0100
,
0100
0001
0001
0010
,
1000
0100
0010
1001
,
1000
0000
1000
1001
,
1000
0000
1000
0010
,
0010
0100
0100
1000
,
0001
1000
0001
0000
,
1000
1001
1000
0000
,
1000
1000
1000
1000
,
1000
0100
0100
1000
,
1000
0010
0001
0000
,
1000
1010
1000
0000
,
1000
0010
0010
1000
,
1000
0010
0010
0100
,
0100
0001
0100
0000
,
0100
0110
0100
0000
,
0100
0000
0110
0000
0010
0000
0000
0001
,
0000
0001
0000
0000
0001
0000
0000
0001
0000
0000
0001
0000
0000
0000
0100
0000
,
0000
0100
0000
0000
0100
0000
0000
0100
0000
0000
0100
0000
0000
0000
1000
0000
,
0000
1000
0000
0000
1000
0000
0000
1000
0000
0000
1000
0000
0000
0000
0100
0000
,
0000
0100
0000
0000
0100
0000
0000
0100
0000
0000
0100
0000
0000
0000
0001
0000
,
0000
0001
0000
0000
0001
0000
0000
0001
0000
0000
0001
0000
0000
0000
0010
0000
,
0000
0010
0000
0000
0010
0000
0000
0010
0000
0000
0010
0000
0000
0000
1000
0000
,
0000
1000
0000
0000
1000
0000
0000
1000
0000
0000
1000
0000
0000
0000
0010
0000
,
0000
0010
0000
0000
0010
0000
0000
0010
0000
0000
0010
0000
0000
0000
0000
0000
;

//---------------dance-single - Nifara----------------
#NOTEDATA:;
#CHARTNAME:;
#STEPSTYPE:dance-single;
#DESCRIPTION:Nifara;
#CHARTSTYLE:;
#DIFFICULTY:Beginner;
#METER:3;
#RADARVALUES:0.175320,0.214133,0.042319,0.000000,0.000000,145.000000,140.000000,5.000000,0.000000,0.000000,0.000000,0.000000,0.000000,0.000000,0.175320,0.214133,0.042319,0.000000,0.000000,145.000000,140.000000,5.000000,0.000000,0.000000,0.000000,0.000000,0.000000,0.000000;
#CREDIT:;
#NOTES:
// measure 0
0000
0000
0000
0000
,  // measure 1
0000
0000
0000
0000
,  // measure 2
1000
0000
1000
0000
,  // measure 3
0100
0000
0100
0000
,  // measure 4
0100
0100
0100
0000
,  // measure 5
0010
0010
0010
0000
,  // measure 6
1001
0000
0010
0000
,  // measure 7
1000
0000
0000
1000
,  // measure 8
0000
1000
0000
0001
,  // measure 9
0000
0100
0000
0001
,  // measure 10
0000
0001
0000
0100
,  // measure 11
0000
0001
0000
1000
,  // measure 12
0000
0001
0000
0100
,  // measure 13
0000
0001
0000
0010
,  // measure 14
0000
0010
0000
0010
,  // measure 15
0000
0010
0000
0100
,  // measure 16
0000
0010
0000
1000
,  // measure 17
0000
1000
0000
0000
,  // measure 18
0100
0100
0100
0000
,  // measure 19
0100
0100
0000
1000
,  // measure 20
1000
0000
0001
0001
,  // measure 21
0000
0100
0000
0001
,  // measure 22
0000
0001
0001
0001
,  // measure 23
0000
0001
0001
0000
,  // measure 24
0100
0000
0010
0000
,  // measure 25
0000
0100
0100
0100
,  // measure 26
0000
0100
0100
0100
,  // measure 27
0000
0100
0100
0100
,  // measure 28
0000
1000
0000
0100
,  // measure 29
0000
0010
0000
1000
,  // measure 30
0000
0001
0000
0100
,  // measure 31
0000
1000
0000
0000
,  // measure 32
1001
0000
0000
0000
,  // measure 33
1001
0000
0000
0000
,  // measure 34
1001
0000
0000
0000
,  // measure 35
0000
1000
1000
1000
,  // measure 36
1000
0000
0001
0000
,  // measure 37
0100
0000
0100
0000
,  // measure 38
0010
0000
0100
0000
,  // measure 39
0100
0000
0000
0100
,  // measure 40
0100
0100
0000
0010
,  // measure 41
0000
0100
0000
1001
,  // measure 42
0000
0000
1000
1000
,  // measure 43
1000
0000
0000
0010
,  // measure 44
0010
0000
0000
1000
,  // measure 45
0000
1000
0000
0000
,  // measure 46
1000
1000
1000
0000
,  // measure 47
1000
1000
1000
1000
,  // measure 48
0000
0100
0100
0000
,  // measure 49
0000
0010
0000
0000
,  // measure 50
0001
0001
0001
0000
,  // measure 51
0000
0010
0010
0000
,  // measure 52
0000
0010
0010
0000
,  // measure 53
0000
0001
0000
0000
,  // measure 54
0100
0100
0100
0000
,  // measure 55
0100
0100
0000
1000
,  // measure 56
1000
1000
0000
1000
,  // measure 57
1000
1000
0000
0100
,  // measure 58
0100
0100
0000
0100
,  // measure 59
0100
0100
0000
0010
,  // measure 60
0010
0010
0000
0010
,  // measure 61
0010
0010
0000
0001
,  // measure 62
0001
0001
0000
0001
,  // measure 63
0001
0001
0000
0000
;
