#VERSION:0.83;
#TITLE:We Gotta Power;
#SUBTITLE:;
#ARTIST:Kageyama Hironobu;
#TITLETRANSLIT:;
#SUBTITLETRANSLIT:;
#ARTISTTRANSLIT:;
#GENRE:;
#ORIGIN:;
#CREDIT:;
#BANNER:;
#BACKGROUND:We Gotta Power-bg.jpg;
#PREVIEWVID:;
#JACKET:We Gotta Power-jacket.jpg;
#CDIMAGE:;
#DISCIMAGE:;
#LYRICSPATH:;
#CDTITLE:;
#MUSIC:We Gotta Power.ogg;
#OFFSET:0.547000;
#SAMPLESTART:54.459976;
#SAMPLELENGTH:12.000000;
#SELECTABLE:YES;
#BPMS:0.000=169.940,
220.000=171.000,
228.000=169.940;
#STOPS:;
#DELAYS:;
#WARPS:;
#TIMESIGNATURES:0.000=4=4;
#TICKCOUNTS:0.000=4;
#COMBOS:0.000=1;
#SPEEDS:0.000=1.000=0.000=0;
#SCROLLS:0.000=1.000;
#FAKES:;
#LABELS:0.000=Song Start;
#BGCHANGES:-2.800=We Gotta Power Video.avi=1.000=1=0=0=StretchNoLoop==CrossFade==,
0.500=We Gotta Power.avi=1.000=1=0=1===CrossFade==,
305.188=We Gotta Power-BG.png=1.000=1=0=0=StretchNoLoop==CrossFade==,
99999=-nosongbg-=1.000=0=0=0 // don't automatically add -songbackground-
;
#KEYSOUNDS:;
#ATTACKS:
;

//---------------dance-single - ----------------
#NOTEDATA:;
#CHARTNAME:;
#STEPSTYPE:dance-single;
#DESCRIPTION:;
#CHARTSTYLE:;
#DIFFICULTY:Medium;
#METER:12;
#RADARVALUES:0.448157,0.522753,0.586461,0.670241,0.093089,337.000000,274.000000,63.000000,72.000000,0.000000,0.000000,0.000000,0.000000,0.000000,0.448157,0.522753,0.586461,0.670241,0.093089,337.000000,274.000000,63.000000,72.000000,0.000000,0.000000,0.000000,0.000000,0.000000;
#CREDIT:;
#NOTES:
// measure 0
0000
0000
0000
0000
,  // measure 1
0000
0000
0000
0000
,  // measure 2
0000
0000
0000
0000
,  // measure 3
1001
0000
0000
1000
0000
1000
0000
1000
0000
0001
0000
0001
,  // measure 4
0000
0001
0000
0100
0000
0100
0000
0100
0000
0010
0000
0010
,  // measure 5
0100
0101
0001
0101
,  // measure 6
1000
1100
0001
0011
,  // measure 7
0002
0000
0000
1003
,  // measure 8
2000
0000
0000
3010
,  // measure 9
0020
0000
0000
0130
,  // measure 10
0200
0000
0000
0310
,  // measure 11
1000
0000
0000
0100
0000
1000
0100
0000
0000
0010
0000
0001
,  // measure 12
0010
0000
0000
0001
0000
0100
0001
0000
0000
1000
0000
0000
,  // measure 13
0010
0000
0100
0010
0000
0000
1000
0000
0000
0100
0000
0000
,  // measure 14
1000
0000
0110
0000
1001
0000
0100
0010
,  // measure 15
0100
0010
1000
0000
0010
0000
0100
0000
,  // measure 16
0001
0100
0000
0001
0100
0000
0001
0000
,  // measure 17
1001
1000
1000
1000
,  // measure 18
1000
0100
0010
0001
0000
0001
0100
0000
,  // measure 19
0100
0001
0000
0100
0001
0000
0100
0000
,  // measure 20
0010
1000
0000
0010
1000
0000
0010
0000
,  // measure 21
1000
0001
0100
0000
0001
0000
0001
0000
,  // measure 22
0001
0100
0010
1000
0000
0010
0100
0000
,  // measure 23
0100
0010
0000
0100
0010
0000
0100
0000
,  // measure 24
0001
0100
0000
0001
0100
0000
1001
0000
,  // measure 25
1100
1000
0010
1000
,  // measure 26
0001
0000
0100
1000
0000
0010
0001
0000
,  // measure 27
0001
0000
0001
1000
0000
0001
0100
0000
,  // measure 28
0100
0001
0000
0100
0001
0000
0100
0000
,  // measure 29
0002
2000
0000
0000
0000
0000
3003
0000
,  // measure 30
0000
0110
0000
2002
0000
0000
3003
0000
,  // measure 31
0200
0000
0000
0310
0000
0000
0002
0000
,  // measure 32
0000
0103
0000
0000
1000
0000
0010
0000
,  // measure 33
1000
0001
1000
0000
0001
0100
0020
2000
,  // measure 34
0000
0000
0000
0000
0000
3030
0000
0000
,  // measure 35
0020
0000
0000
0130
0000
0000
2000
0000
,  // measure 36
0000
3010
0000
0000
0001
0000
0100
0000
,  // measure 37
0001
1000
0000
1001
0000
0110
0000
1001
,  // measure 38
0000
0101
0000
0022
0000
0000
0033
0000
,  // measure 39
2002
3003
2200
3300
,  // measure 40
0022
0033
0202
0303
,  // measure 41
1000
1000
0100
0100
,  // measure 42
0001
0001
0010
0010
,  // measure 43
0202
0303
2020
3030
,  // measure 44
2200
3300
0220
0330
,  // measure 45
0010
0001
0000
0100
0000
0010
0000
1000
,  // measure 46
0100
1000
0010
0100
0001
0100
0010
1000
,  // measure 47
0001
0110
1000
0110
,  // measure 48
0001
0110
1000
0110
,  // measure 49
0001
1000
0100
0010
,  // measure 50
0001
0101
1010
1100
,  // measure 51
2002
3003
0220
0330
,  // measure 52
2200
3300
0022
0033
,  // measure 53
0001
0000
0001
0000
0001
0000
1000
0000
1000
0000
1000
0000
,  // measure 54
2002
0000
0000
3003
,  // measure 55
2010
0000
0000
3010
0000
0000
0102
0000
,  // measure 56
0000
0000
0000
0103
0000
0000
0000
0000
0000
1000
0000
0000
1000
0000
0000
0000
0001
0000
0000
0000
0000
0000
0000
0000
,  // measure 57
2002
3003
2200
3300
,  // measure 58
0022
0033
0202
0303
,  // measure 59
1000
1000
0100
0100
,  // measure 60
0001
0001
0010
0010
,  // measure 61
0202
0303
2020
3030
,  // measure 62
2200
3300
0220
0330
,  // measure 63
0010
0001
0000
0100
0000
0010
0000
1000
,  // measure 64
0100
1000
0010
0100
0001
0100
0010
1000
,  // measure 65
0001
0110
1000
0110
,  // measure 66
0001
0110
1000
0110
,  // measure 67
0001
1000
0100
0010
,  // measure 68
0001
0101
1010
1100
,  // measure 69
2002
3003
0220
0330
,  // measure 70
2200
3300
0022
0033
,  // measure 71
0001
0000
0001
0000
0001
0000
1000
0000
1000
0000
1000
0000
,  // measure 72
2002
0000
0000
3003
,  // measure 73
0102
0000
0000
0103
0000
0000
2010
0000
,  // measure 74
0000
3010
0000
0000
0110
0000
0000
1001
;

//---------------dance-single - ----------------
#NOTEDATA:;
#CHARTNAME:;
#STEPSTYPE:dance-single;
#DESCRIPTION:;
#CHARTSTYLE:;
#DIFFICULTY:Hard;
#METER:14;
#RADARVALUES:0.652953,0.871256,0.558534,0.595770,0.246686,491.000000,431.000000,60.000000,64.000000,0.000000,0.000000,0.000000,0.000000,0.000000,0.652953,0.871256,0.558534,0.595770,0.246686,491.000000,431.000000,60.000000,64.000000,0.000000,0.000000,0.000000,0.000000,0.000000;
#CREDIT:;
#NOTES:
// measure 0
0000
0000
0000
0000
,  // measure 1
0000
0000
0000
0000
,  // measure 2
0000
0000
0000
0000
,  // measure 3
0001
1000
0100
0010
0000
0001
0000
0100
0000
0010
0000
1000
,  // measure 4
0000
0100
0000
1000
0000
0010
0000
0100
0000
0001
0000
1000
,  // measure 5
0002
0100
0100
0100
,  // measure 6
0100
0100
0100
0103
,  // measure 7
0100
0000
0001
0000
0100
0000
0001
0000
0000
0000
0000
0000
0000
0000
0000
0101
0000
0000
0000
0000
0000
1100
0000
0000
,  // measure 8
1000
0001
1000
0001
0000
0000
0000
0000
0000
1000
0010
1000
,  // measure 9
0100
0000
1000
0000
0010
0000
0100
0000
0000
0000
0000
0000
0000
0000
0000
0101
0000
0000
0000
0000
0000
0011
0000
0000
,  // measure 10
0001
0100
0010
0100
0000
0000
0000
0000
0000
0001
0010
0100
,  // measure 11
1000
0000
0000
1000
0100
0010
0001
0000
0000
0001
0010
0100
,  // measure 12
1000
0000
0000
1000
0100
0010
0001
0000
0000
1001
0000
0000
,  // measure 13
0110
0000
0001
1000
0100
0010
0100
1000
0010
0100
0010
1000
,  // measure 14
0002
0000
1000
0000
1000
0000
1003
0010
,  // measure 15
0100
0001
0100
0010
0100
0001
1000
0100
,  // measure 16
1000
0010
0100
0001
1000
0100
1000
0010
,  // measure 17
0100
0001
0100
0010
1000
0100
1000
0100
,  // measure 18
0010
0001
0100
0001
0000
0010
0001
0100
,  // measure 19
0010
0100
0001
1000
0100
1000
0010
1000
,  // measure 20
0100
1000
0010
0100
0001
0100
0010
0100
,  // measure 21
0001
1000
0100
0010
0001
0010
0100
1000
,  // measure 22
0100
0010
0100
1000
0000
0010
0100
0010
,  // measure 23
1000
0010
0100
0001
1000
0100
0010
0100
,  // measure 24
1000
0010
0100
0010
0100
0001
0010
0001
,  // measure 25
0100
0010
1000
0100
1000
0010
0100
0001
,  // measure 26
0100
0010
1000
0100
0000
0010
0001
1000
,  // measure 27
0100
0010
0001
0100
0010
1000
0100
0010
,  // measure 28
0001
0100
0010
1000
0100
0010
0001
0100
,  // measure 29
0010
1000
0100
0010
0001
0100
0010
1000
,  // measure 30
0000
1100
0000
0202
0000
0000
0303
0000
,  // measure 31
2001
0000
0000
3002
0000
0000
0203
0000
,  // measure 32
0000
0320
0000
0000
1030
0000
0100
0000
,  // measure 33
1100
0010
0001
0101
,  // measure 34
0001
1000
1100
0101
,  // measure 35
0021
0000
0000
0032
0000
0000
0203
0000
,  // measure 36
0000
0320
0000
0000
1030
0000
1000
0000
,  // measure 37
0001
1000
0002
2000
0003
3001
0000
1000
,  // measure 38
0010
0000
0100
0000
0020
0000
0200
0000
0030
0000
0310
0100
0010
0000
0000
0000
,  // measure 39
2002
3003
2200
3300
,  // measure 40
0022
0033
0202
0303
,  // measure 41
1000
0100
1000
0100
1000
0010
1000
0010
,  // measure 42
0100
0001
0100
0001
0010
0001
0010
0001
,  // measure 43
0202
0303
2020
3030
,  // measure 44
2200
3300
0220
0330
,  // measure 45
0010
0001
0000
0100
0000
0010
0000
1000
,  // measure 46
0100
1000
0010
0100
0001
0100
0010
1000
,  // measure 47
0001
0100
0010
1000
0100
0010
0001
0100
,  // measure 48
0010
1000
0100
1000
0010
0100
0001
0100
,  // measure 49
0010
0100
0001
0100
0010
1000
0100
1000
,  // measure 50
0100
0010
0001
0010
0001
0100
0001
0100
,  // measure 51
2002
3003
0220
0330
,  // measure 52
2200
3300
0022
0033
,  // measure 53
1001
0000
0101
0000
1001
0000
1001
0000
1100
0000
0110
0000
,  // measure 54
1001
0000
1000
0100
1000
0100
1000
0100
1000
0000
0000
0000
1000
0000
0001
0000
,  // measure 55
0110
0000
0000
1010
0000
0000
1001
0000
,  // measure 56
0000
0000
0000
0000
0000
0000
0011
0000
0000
0000
0000
0000
0000
0000
0000
0000
0001
0000
0000
0000
0000
0000
0000
0000
0100
0000
0000
0001
0000
0000
0100
0000
0000
0010
0000
0000
1000
0000
0000
0100
0000
0000
1000
0000
0000
0000
0000
0000
,  // measure 57
2002
3003
2200
3300
,  // measure 58
0022
0033
0202
0303
,  // measure 59
1000
0100
1000
0100
1000
0010
1000
0010
,  // measure 60
0100
0001
0100
0001
0010
0001
0010
0001
,  // measure 61
0202
0303
2020
3030
,  // measure 62
2200
3300
0220
0330
,  // measure 63
0010
0001
0000
0100
0000
0010
0000
1000
,  // measure 64
0100
1000
0010
0100
0001
0100
0010
1000
,  // measure 65
0001
0100
0010
1000
0100
0010
0001
0100
,  // measure 66
0010
1000
0100
1000
0010
0100
0001
0100
,  // measure 67
0010
0100
0001
0100
0010
1000
0100
1000
,  // measure 68
0100
0010
0001
0010
0001
0100
0001
0100
,  // measure 69
2002
3003
0220
0330
,  // measure 70
2200
3300
0022
0033
,  // measure 71
1001
0000
0101
0000
1001
0000
1001
0000
1100
0000
0110
0000
,  // measure 72
1001
0000
1000
0100
1000
0100
1000
0100
1000
0000
0000
0000
1000
0000
0001
0000
,  // measure 73
0110
0000
0000
1010
0000
0000
1001
0000
,  // measure 74
0001
1000
0100
0010
0001
0100
0010
1001
;

//---------------dance-single - ----------------
#NOTEDATA:;
#CHARTNAME:;
#STEPSTYPE:dance-single;
#DESCRIPTION:;
#CHARTSTYLE:;
#DIFFICULTY:Beginner;
#METER:3;
#RADARVALUES:0.167560,0.244359,0.018618,0.121016,0.000000,126.000000,124.000000,2.000000,13.000000,0.000000,0.000000,0.000000,0.000000,0.000000,0.167560,0.244359,0.018618,0.121016,0.000000,126.000000,124.000000,2.000000,13.000000,0.000000,0.000000,0.000000,0.000000,0.000000;
#CREDIT:;
#NOTES:
0000
0000
0000
0000
,
0000
0000
0000
0000
,
0000
0000
0000
0000
,
2000
0000
0000
0000
,
3000
0000
0000
0000
,
0010
0010
0010
0000
,
0100
0100
0100
0000
,
0002
0003
0000
0000
,
0010
0000
0000
0000
,
0100
0000
0000
0000
,
0010
0000
0000
0000
,
0010
0000
1000
0000
,
0010
0000
1000
0000
,
0001
0000
0100
0000
,
0002
0000
0003
0000
,
0010
0000
0010
0000
,
0001
0000
0001
0000
,
2000
0000
0000
3000
,
1000
0000
0100
0000
,
1000
0000
1000
0000
,
0001
0000
0001
0000
,
0002
0000
0000
0003
,
0001
0000
0010
0000
,
0001
0000
0001
0000
,
1000
0000
1000
0000
,
2000
0000
0000
3000
,
1000
0000
0100
0000
,
1000
0000
1000
0000
,
0001
0000
0001
0000
,
0002
0000
0000
0003
,
0000
0000
0000
0000
,
0100
0000
0100
0000
,
1000
0000
0100
0000
,
1000
1000
1000
0000
,
0001
0001
0001
0000
,
0010
0000
0010
0000
,
0001
0000
0010
0000
,
0001
0001
0001
0000
,
1000
1000
1000
0000
,
0001
0001
0000
0000
,
1000
1000
0000
0000
,
0010
0010
0000
0000
,
0100
0100
0000
0000
,
1000
1000
0000
0000
,
1000
1000
0000
0000
,
0002
0000
0000
0000
,
0000
0000
0003
0001
,
0001
0000
1000
0000
,
0100
0000
0100
0000
,
1000
0000
0001
0000
,
0010
0000
0010
0000
,
0100
0000
0010
0000
,
0010
0000
0001
0000
,
0001
0000
1000
0000
,
0002
0000
0000
0003
,
0002
0000
0000
0000
,
0000
0000
0003
0000
,
1000
1000
0000
0000
,
1000
1000
0000
0000
,
0001
0001
0000
0000
,
0010
0010
0000
0000
,
0001
0001
0000
0000
,
0010
0010
0000
0000
,
0100
0200
0000
0000
,
0000
0300
0000
0000
,
0100
0000
0001
0000
,
0010
0000
0010
0000
,
0001
0000
1000
0000
,
0100
0000
0100
0000
,
0010
0010
0000
0000
,
0100
0100
0000
0000
,
1000
0000
0001
0000
,
1001
0000
0000
0000
,
0220
0000
0000
0000
,
0000
0000
0000
0000
,
0330
0000
0000
0000
;

//---------------dance-single - ----------------
#NOTEDATA:;
#CHARTNAME:;
#STEPSTYPE:dance-single;
#DESCRIPTION:;
#CHARTSTYLE:;
#DIFFICULTY:Easy;
#METER:9;
#RADARVALUES:0.351079,0.453053,0.353738,0.707477,0.027927,264.000000,226.000000,38.000000,76.000000,0.000000,0.000000,0.000000,0.000000,0.000000,0.351079,0.453053,0.353738,0.707477,0.027927,264.000000,226.000000,38.000000,76.000000,0.000000,0.000000,0.000000,0.000000,0.000000;
#CREDIT:;
#NOTES:
// measure 0
0000
0000
0000
0000
,  // measure 1
0000
0000
0000
0000
,  // measure 2
0000
0000
0000
0000
,  // measure 3
1001
0000
0000
1000
0000
1000
0000
1000
0000
0001
0000
0001
,  // measure 4
0000
0001
0000
0100
0000
0100
0000
0010
0000
0010
0000
0000
,  // measure 5
0100
0101
0001
0101
,  // measure 6
1000
1100
0001
0011
,  // measure 7
0002
0000
0000
1003
,  // measure 8
2000
0000
0000
3010
,  // measure 9
0020
0000
0000
0130
,  // measure 10
0200
0000
0000
0310
,  // measure 11
1000
0100
0100
0010
,  // measure 12
0010
0001
0001
1000
,  // measure 13
1000
0010
1000
0100
,  // measure 14
1000
0000
0110
0000
1001
0000
0100
0010
,  // measure 15
0100
0001
0010
0100
,  // measure 16
1000
1000
0100
1000
,  // measure 17
0001
1000
0001
0001
,  // measure 18
1000
0010
0100
0100
,  // measure 19
0100
0001
0001
0100
,  // measure 20
0010
1000
1000
0010
,  // measure 21
1000
0001
0100
0001
,  // measure 22
0100
0010
1000
0100
,  // measure 23
0100
1000
0010
0100
,  // measure 24
0001
0100
0100
0001
,  // measure 25
1000
1000
0010
1000
,  // measure 26
0001
0100
0010
1000
,  // measure 27
0001
0001
1000
0100
,  // measure 28
0010
0001
0001
0100
,  // measure 29
2002
0000
0000
3003
,  // measure 30
0000
0110
0000
2002
0000
0000
3003
0000
,  // measure 31
0200
0000
0000
0310
0000
0000
0002
0000
,  // measure 32
0000
0103
0000
0000
1000
0000
0010
0000
,  // measure 33
1000
1000
0001
0020
,  // measure 34
0200
0000
0000
0000
0000
0330
0000
0000
,  // measure 35
0020
0000
0000
0130
0000
0000
2000
0000
,  // measure 36
0000
3010
0000
0000
0001
0000
0100
0000
,  // measure 37
0002
0100
0100
0103
,  // measure 38
2000
0100
0100
3100
,  // measure 39
2002
3003
2200
3300
,  // measure 40
0022
0033
0202
0303
,  // measure 41
1000
1000
0100
0100
,  // measure 42
0001
0001
0010
0010
,  // measure 43
0202
0303
2020
3030
,  // measure 44
2200
3300
0220
0330
,  // measure 45
1000
0001
0000
0100
0000
0010
0000
1000
,  // measure 46
0100
0010
0001
0010
,  // measure 47
0001
0010
1000
0100
,  // measure 48
0001
0010
1000
0100
,  // measure 49
0001
0001
0001
0001
,  // measure 50
1000
1000
1000
1000
,  // measure 51
2002
3003
0220
0330
,  // measure 52
2200
3300
0022
0033
,  // measure 53
0002
0003
2000
3000
,  // measure 54
2002
0000
0000
3003
,  // measure 55
0220
0000
0000
0000
,  // measure 56
0000
0000
0000
0330
,  // measure 57
2002
3003
2200
3300
,  // measure 58
0022
0033
0202
0303
,  // measure 59
1000
1000
0100
0100
,  // measure 60
0001
0001
0010
0010
,  // measure 61
0202
0303
2020
3030
,  // measure 62
2200
3300
0220
0330
,  // measure 63
1000
0001
0000
0100
0000
0010
0000
1000
,  // measure 64
0100
0010
0001
0010
,  // measure 65
0001
0010
1000
0100
,  // measure 66
0001
0010
1000
0100
,  // measure 67
0001
0001
0001
0001
,  // measure 68
1000
1000
1000
1000
,  // measure 69
2002
3003
0220
0330
,  // measure 70
2200
3300
0022
0033
,  // measure 71
0002
0003
2000
3000
,  // measure 72
2002
0000
0000
3003
,  // measure 73
0220
0000
0000
0000
,  // measure 74
0000
0000
0000
0000
0000
0000
0000
0330
;
