#VERSION:0.83;
#TITLE:WILD RUSH;
#SUBTITLE:(PHAB COM MASTERMIX);
#ARTIST:FACTOR-X;
#TITLETRANSLIT:;
#SUBTITLETRANSLIT:;
#ARTISTTRANSLIT:;
#GENRE:Techno;
#ORIGIN:;
#CREDIT:;
#BANNER:WILD RUSH(FROM NONSTOP MEGAMIX).png;
#BACKGROUND:WILD RUSH(FROM NONSTOP MEGAMIX)-bg.png;
#PREVIEWVID:;
#JACKET:WILD RUSH(FROM NONSTOP MEGAMIX)-jacket.png;
#CDIMAGE:;
#DISCIMAGE:;
#LYRICSPATH:;
#CDTITLE:./CDTITLES/EM3.png;
#MUSIC:WILD RUSH(FROM NONSTOP MEGAMIX).ogg;
#OFFSET:-0.000377;
#SAMPLESTART:19.160000;
#SAMPLELENGTH:15.000000;
#SELECTABLE:YES;
#DISPLAYBPM:125.000000;
#BPMS:0.000=125.000;
#STOPS:;
#DELAYS:;
#WARPS:;
#TIMESIGNATURES:0.000=4=4;
#TICKCOUNTS:0.000=4;
#COMBOS:0.000=1;
#SPEEDS:0.000=1.000=0.000=0;
#SCROLLS:0.000=1.000;
#FAKES:;
#LABELS:0.000=Song Start;
#BGCHANGES:;
#KEYSOUNDS:;
#ATTACKS:
;

//---------------dance-single - ----------------
#NOTEDATA:;
#CHARTNAME:;
#STEPSTYPE:dance-single;
#DESCRIPTION:;
#CHARTSTYLE:;
#DIFFICULTY:Hard;
#METER:9;
#RADARVALUES:0.287974,0.383873,0.019290,0.144676,0.057870,209.000000,207.000000,2.000000,15.000000,0.000000,0.000000,0.000000,0.000000,0.000000,0.287974,0.383873,0.019290,0.144676,0.057870,209.000000,207.000000,2.000000,15.000000,0.000000,0.000000,0.000000,0.000000,0.000000;
#CREDIT:;
#DISPLAYBPM:125.000000;
#NOTES:
0000
0000
0000
0000
,
0000
0000
0000
0000
,
1000
0000
0000
0000
,
0000
0000
0000
0000
0000
1000
0010
0000
,
0100
0000
0000
0000
,
0000
0000
0000
0000
0100
0100
0001
0000
,
1000
0000
0001
0000
1000
0010
0100
0000
,
0001
0000
1000
0000
0001
0010
0100
0010
,
0001
0000
1000
1000
0010
0100
0100
0000
,
0001
0000
0010
0010
0100
1000
1000
0001
,
0200
0001
0000
0001
,
0000
0000
0301
0001
1000
0010
0100
0001
,
1000
0000
1000
0000
1000
0100
0010
0001
,
1000
0001
0001
0000
0100
0010
0010
0100
,
0002
1000
0000
1000
,
0000
0000
1003
0001
0100
0010
1000
1000
,
0001
0001
1000
1000
,
0001
0000
0001
0100
0001
0000
0001
1000
,
0020
0000
0000
0030
,
0100
0000
0100
0010
0100
0010
0010
0000
,
1000
0000
1000
0001
1000
0001
0001
0000
,
0010
0000
0000
0000
,
0100
0000
0000
0000
0001
0000
0000
0001
1000
0000
0001
0000
0001
0000
0000
0000
,
0100
0000
0000
0000
0010
0000
0000
0010
1000
0000
0001
0000
0001
0000
0000
0000
,
0200
0000
0000
0300
,
0002
0000
1000
1003
,
0110
0000
0000
0000
,
0100
0100
0100
0100
,
0010
1000
0001
0100
,
0001
0100
0010
1000
,
0002
0000
0000
0000
,
0000
0000
0000
0003
,
1000
0000
0000
0000
0010
0000
0000
0010
0100
0000
0100
0000
0100
0000
0001
0000
,
1000
0100
1000
0100
0000
0010
0001
0000
,
1000
0000
1000
0010
0100
0001
0001
0000
,
1000
0000
0010
0100
0001
1000
1000
0001
,
0100
0100
0010
0010
1000
0000
1000
0001
,
0100
0010
1000
0000
1000
0001
0100
0001
,
2000
3000
0200
0300
,
0020
0000
0030
0000
0002
0000
0003
1000
,
0020
0000
0000
0000
0000
0000
0030
0100
,
0002
0000
0000
0000
0003
1000
0001
0000
,
0100
0000
0000
0100
0001
0000
0000
0001
1000
0000
1000
0000
1000
0000
0000
0000
,
0010
0000
0000
0010
1000
0000
0000
1000
0001
0000
0001
0000
0001
0000
1000
0000
,
0100
0000
0000
0100
0020
0000
0000
0000
0000
0000
0001
0000
0031
0000
0000
0000
,
2000
0100
0100
0000
3000
0001
1001
0000
,
0100
0000
0000
0100
0001
0000
0000
0001
1000
0000
0100
0000
1000
0000
0000
0000
,
0010
0000
0000
0010
0100
0000
0000
0100
0001
0000
1000
0000
0001
0000
0001
0000
,
0200
0000
0000
0000
,
0000
0000
0000
0300
;

//---------------dance-double - ----------------
#NOTEDATA:;
#CHARTNAME:;
#STEPSTYPE:dance-double;
#DESCRIPTION:;
#CHARTSTYLE:;
#DIFFICULTY:Hard;
#METER:10;
#RADARVALUES:0.316909,0.403766,0.009645,0.183256,0.081983,230.000000,229.000000,1.000000,19.000000,0.000000,0.000000,0.000000,0.000000,0.000000,0.316909,0.403766,0.009645,0.183256,0.081983,230.000000,229.000000,1.000000,19.000000,0.000000,0.000000,0.000000,0.000000,0.000000;
#CREDIT:;
#DISPLAYBPM:125.000000;
#NOTES:
00000000
00000000
00000000
00000000
,
00000000
00000000
00000000
00000000
,
00000001
00000000
00001000
00000000
,
00010000
00000000
10000000
00000000
,
10000000
00000000
00010000
00000000
,
00001000
00000000
00000001
00000000
,
00000200
00000000
00000301
00000001
00000002
00000000
00001003
00001000
,
00000010
00000100
00000010
00000000
00000100
00000010
00010000
00001000
,
02000000
00000000
03010000
00010000
00020000
00000000
00030000
10000000
,
00010000
01000000
00100000
00000000
01000000
00100000
10000000
00010000
,
01000000
01000000
01000000
00000000
00010000
00010000
00010000
00000000
,
00001000
00001000
00001000
00001000
00000010
00000010
00000010
00000000
,
00000100
00000000
00000100
00000000
00000001
00000000
00000000
00000001
00000100
00000000
00000010
00000000
00000010
00000000
00000000
00000000
,
00010000
00000000
00010000
00000000
00000010
00000000
00000000
00000010
00010000
00000000
00001000
00000000
00010000
00000000
01000000
00000000
,
00200000
00010000
00000000
00010000
,
00000000
00000000
00010000
00000000
00300000
00000000
00010000
10000000
,
00100000
01000000
00010000
00000010
,
00000002
00000000
00000000
00000003
,
00000100
00000010
00001000
00000001
00000100
00000010
00001000
00000001
,
00002000
00000000
00003010
00001000
00000100
00000100
00000100
00000000
,
00010000
00000010
00010000
00000100
00010000
00001000
00001000
00001000
,
02000000
00000000
00000000
00000000
00000000
00000000
03010000
00010000
,
10000000
01000000
00010000
01000000
10000000
01000000
00010000
01000000
,
10000000
01000000
00010000
00001000
00000100
00000100
00000100
00000000
,
00000001
00000100
00001000
00000100
00000001
00000100
00001000
00000100
,
00000001
00000100
00001000
00010000
01000000
01000000
01000000
00000000
,
20020000
00000000
00000000
00000000
,
00000000
00000000
00000000
30030000
,
00000000
00000000
01000000
00000000
,
00000000
00000000
00000010
00000000
,
00000002
00000000
00000000
00000000
,
00000000
00000000
00000100
00000103
,
00002000
00003100
00000002
00000103
,
00002000
00000000
00003100
00000000
00000000
00010000
00001000
00000000
,
01000000
00000000
00000000
01000000
00010000
00000000
00000000
00010000
00000000
00000000
10000000
00000000
10000000
00000000
00000000
00000000
,
00100000
00000000
00000000
00100000
01000000
00000000
00000000
01000000
00000000
00000000
00001000
00000000
00001000
00000000
00000000
00000000
,
00010000
00000000
00000000
00010000
00000010
00000000
00000000
00000010
00000000
00000000
00001000
00000000
00001000
00000000
00000001
00000000
,
00000100
00000010
00000010
00000100
00000001
00001000
00000001
00000001
,
00000100
00000000
00000000
00000100
00000010
00000000
00000000
00000010
00000000
00000000
00000000
00000000
00000000
00000000
00010000
00000000
,
00002000
00000000
01003000
00000000
01000000
00100000
10000000
00010000
,
10000000
00000000
01000000
00000000
00010000
00000000
00000000
01000000
00000000
00000000
00000000
00000000
00000000
00000000
10000000
00000000
,
01000000
00000000
00010000
00000000
00010000
00000000
01000000
00000000
00000000
00000000
00001000
00000000
00000010
00000000
00000000
00000100
,
00002000
00000000
00000000
00000000
00003001
00000000
00000000
00000001
00000000
00000000
00000100
00000000
00000010
00000000
00000000
00000000
,
00002000
00000000
00003200
00000000
00000300
00010000
00100000
00100000
,
01000000
01000000
01000000
01000000
01000000
01000000
00100000
00000000
,
10000000
10000000
10000000
10000000
10000000
10000000
00010000
00000000
,
01000000
00000000
00000000
01000000
00001000
00000000
00000000
00001000
00000000
00000000
00010000
00000000
00010000
00000000
00000000
00000000
,
00000010
00000000
00000000
00000010
00001000
00000000
00000000
00001000
00000000
00000000
00000001
00000000
00000001
00000000
00000100
00000000
,
00000020
00000000
00000000
00000000
,
00000000
00000030
00000000
00000000
,
00000000
00000000
00000000
00000000
;

//---------------dance-single - ----------------
#NOTEDATA:;
#CHARTNAME:;
#STEPSTYPE:dance-single;
#DESCRIPTION:;
#CHARTSTYLE:;
#DIFFICULTY:Challenge;
#METER:13;
#RADARVALUES:0.456074,0.578704,0.163966,0.144676,0.569059,331.000000,314.000000,17.000000,15.000000,0.000000,0.000000,0.000000,0.000000,0.000000,0.456074,0.578704,0.163966,0.144676,0.569059,331.000000,314.000000,17.000000,15.000000,0.000000,0.000000,0.000000,0.000000,0.000000;
#CREDIT:;
#DISPLAYBPM:125.000000;
#NOTES:
0000
0000
0000
0000
,
0000
0000
0000
0000
,
0000
0000
0000
0000
,
0000
0000
0000
0000
,
0000
0000
0000
0000
,
0000
0000
0000
0000
,
1000
0000
0000
1000
0100
0000
0000
0010
0000
0001
0000
0000
0010
0000
0100
0000
,
1000
0000
0000
1000
0001
1000
0000
0010
0000
0100
0000
0001
0010
0001
1000
0000
,
0001
0000
0000
0001
0100
0010
0000
1000
0000
0001
0000
0010
0000
0100
1000
0000
,
0001
1000
0001
0000
0001
0000
0010
0100
0000
1000
0000
0000
1001
0000
0000
0010
,
0100
0000
0000
0000
2001
0000
0000
0100
0000
0000
0001
0000
0001
0000
0000
0000
,
0010
0000
0010
0000
3100
0000
0000
0001
0000
0010
0000
0000
0100
1000
0001
0000
,
1001
0000
0001
0000
1000
0000
0010
0100
0000
0001
0000
1000
0010
1000
0001
0000
,
0010
0000
0100
0000
0100
0000
0000
0010
0001
0010
0000
0100
1000
0000
0001
0100
,
0001
0000
0000
0000
1001
0000
0000
1000
0000
0000
1000
0000
0010
0000
0100
0000
,
0001
0000
0010
0000
0100
0010
0000
0100
0010
0100
0010
0000
0001
1000
0001
0000
,
1000
0000
0000
0010
0100
0001
0000
1000
0000
0100
0000
0010
0001
0000
1000
0000
,
0220
0000
0000
0000
0000
0000
0000
0000
0000
0000
0000
0000
0330
0000
0001
0100
,
0001
0010
0000
0001
0010
0000
0000
0100
0000
0000
1000
0000
1000
0000
0010
0000
,
0100
0000
0000
0001
1000
0001
0000
0010
0000
0100
0000
1000
0001
0100
0001
0000
,
0100
0000
0000
0010
1000
0001
0000
0010
0000
0100
0000
1000
0001
1000
0000
0100
,
0000
0010
0000
0001
0000
1000
0000
0100
0000
0010
0000
0001
0000
0000
0100
0010
,
0100
0001
0010
1000
0010
0001
0010
0100
,
1000
0010
0001
0010
1000
0010
0100
0001
,
1000
0100
0010
0001
1000
0100
0010
0001
,
1000
0000
0100
0000
0010
0000
0001
0000
1000
0010
0100
0001
1000
0000
0000
0000
,
0002
0100
0000
0100
0000
1000
0000
2003
,
0000
0010
0000
0010
0000
0100
0000
3100
,
0000
0002
0000
0010
0000
0100
0000
0100
,
0000
2003
0000
0100
0000
0010
0000
3001
,
0020
0100
0000
0100
0000
0100
0000
0100
,
0000
0001
0000
0001
0000
0001
0030
0001
,
0100
0000
0000
0100
0010
0100
0000
0001
0000
1000
0000
0100
0000
0010
0001
0000
,
1000
0100
1000
0001
1000
0010
0100
0001
0000
0000
1001
0000
1001
0000
0000
0000
,
1000
0100
1000
0000
0100
0000
0010
0001
0000
1000
0001
0000
0100
0000
0110
0000
,
0001
0100
0001
0000
0100
0000
0010
1000
0000
0001
0000
0000
0010
0100
0010
0000
,
0001
0000
0000
1000
0100
1000
0000
0001
0000
0010
0000
0100
0010
0001
1000
0000
,
0010
0000
0010
0000
0010
0000
0000
0100
0000
0001
0000
0000
1001
0000
0000
1000
,
0100
0000
0000
0010
0100
0010
0000
0001
0000
1000
0000
0000
1100
0000
0000
0000
,
1000
0000
0000
0010
1000
0010
0000
0100
0000
0001
0000
0000
1000
0010
1000
0000
,
1001
0000
0000
0001
0100
0010
0000
1000
0000
0001
0000
0010
0000
0100
1000
0000
,
0100
0010
0001
0000
0001
0000
0000
1000
0000
0100
0000
0000
0110
0000
0000
1000
,
0001
0000
0000
0000
2010
0000
0000
0100
0000
0000
0001
0000
3001
0000
0000
0000
,
1000
0000
0000
0000
0012
0000
0000
0100
0000
0000
1000
0000
1003
0000
0000
0000
,
0010
0000
0000
0000
1002
0000
0000
0100
0000
0000
0010
0000
0013
0000
0000
0000
,
0100
0000
0000
0000
2001
0000
0000
0100
0000
0000
0010
0000
3010
0000
0000
0000
,
0001
0000
0000
0000
0102
0000
0000
0010
0000
0000
1000
0000
1000
0000
0000
0000
,
0100
0000
0000
0000
1000
0000
0000
0010
0000
0000
0100
0000
0103
0000
0010
0000
,
2000
0200
0000
0000
0000
0000
0000
0000
,
0000
0000
0000
0000
,
3300
0000
0000
0000
;

//---------------dance-single - ----------------
#NOTEDATA:;
#CHARTNAME:;
#STEPSTYPE:dance-single;
#DESCRIPTION:;
#CHARTSTYLE:;
#DIFFICULTY:Medium;
#METER:7;
#RADARVALUES:0.219081,0.337577,0.096451,0.173611,0.000000,159.000000,149.000000,10.000000,18.000000,0.000000,0.000000,0.000000,0.000000,0.000000,0.219081,0.337577,0.096451,0.173611,0.000000,159.000000,149.000000,10.000000,18.000000,0.000000,0.000000,0.000000,0.000000,0.000000;
#CREDIT:;
#DISPLAYBPM:125.000000;
#NOTES:
0000
0000
0000
0000
,
0000
0000
0000
0000
,
0000
0000
0000
0000
,
0000
0000
0000
0000
,
0000
0000
0000
0000
,
0000
0000
0000
0000
,
0001
0010
0100
1000
,
0001
0010
0100
1000
,
0010
0010
0100
0100
,
0010
1000
0001
0010
,
0100
0010
0010
0001
,
0100
0010
0010
1000
,
0100
0010
0010
0001
,
0100
0010
0010
1000
,
0002
2000
0000
3000
,
0000
0200
0000
0300
,
0000
2000
0000
0003
,
0020
0000
0000
3030
,
0001
0100
0010
0010
,
1000
0100
0110
1001
,
1000
0010
0100
0100
,
0001
0010
0000
0010
,
0100
1001
0100
1001
,
0010
1000
0100
0000
0010
0000
0010
0000
,
0001
0101
1000
1100
,
0001
0010
0100
0000
0010
0000
0010
0000
,
0002
0100
0100
0100
,
0100
0100
0100
0100
,
0100
0100
0100
0100
,
0100
0100
0100
0100
,
2000
0000
0000
0000
,
0000
0000
3003
0000
,
0010
0100
0010
1000
,
0001
0000
0010
0010
0000
0100
0100
0000
,
0010
0011
0100
0101
,
1000
1100
0010
1010
,
0100
0100
0100
0000
0010
0010
0010
0000
,
0100
0100
0100
0000
0010
0010
0010
0000
,
0001
0001
1000
1000
,
0010
0010
0100
0100
,
0010
0010
0010
0000
0100
0100
0100
0000
,
0010
0010
0010
0000
0100
0100
0100
0000
,
0002
0020
0030
2000
,
3000
0200
0300
2000
,
0003
0200
0300
0002
,
0003
0020
0030
0002
,
3000
0200
0000
0000
,
0000
0000
0000
0000
0303
0000
1000
0100
,
0020
0000
0000
0000
,
0000
0000
0000
0000
,
0030
0000
0000
0000
;

//---------------dance-single - ----------------
#NOTEDATA:;
#CHARTNAME:;
#STEPSTYPE:dance-single;
#DESCRIPTION:;
#CHARTSTYLE:;
#DIFFICULTY:Easy;
#METER:5;
#RADARVALUES:0.195657,0.289352,0.192901,0.270062,0.000000,142.000000,122.000000,20.000000,28.000000,0.000000,0.000000,0.000000,0.000000,0.000000,0.195657,0.289352,0.192901,0.270062,0.000000,142.000000,122.000000,20.000000,28.000000,0.000000,0.000000,0.000000,0.000000,0.000000;
#CREDIT:;
#DISPLAYBPM:125.000000;
#NOTES:
0000
0000
0000
0000
,
0000
0000
0000
0000
,
0000
0000
0000
0000
,
0000
0000
0000
0000
,
0000
0000
0000
0000
,
0000
0000
0000
0000
,
0001
0000
0001
0000
,
1000
0000
1000
0010
,
0100
0000
0100
0000
,
0010
0000
1000
0000
,
0100
0010
0001
0000
,
0100
0010
1000
0000
,
0100
0100
0010
0000
,
0001
1000
0001
0000
,
2000
0020
0030
0002
,
0003
0200
0300
0002
,
3000
0200
0300
1000
,
0020
0000
0000
0033
,
1000
0100
0010
0010
,
0100
1000
0010
0010
,
0100
0001
0010
0010
,
0200
0000
0300
0000
,
1001
0001
0010
0100
,
1001
1000
0010
0100
,
1001
0001
0100
0010
,
1001
1000
0100
0010
,
0002
0000
1000
0000
,
0100
0000
1000
0000
,
2003
0000
0100
0000
,
0001
0000
0010
0000
,
0200
0000
0000
0000
,
0000
0000
0000
3300
,
0010
0001
0100
0010
,
1000
0001
0000
1001
,
0110
1000
0100
0010
,
0110
0001
0100
0010
,
1010
0010
1000
0010
,
0101
0100
0001
0100
,
0011
0010
0001
0010
,
1100
0100
1000
0100
,
0110
0001
0100
0010
,
1010
0100
1000
0001
,
0020
0200
0300
0002
,
0003
0200
0300
0200
,
0330
2200
3300
0202
,
0303
2020
3030
0022
,
0033
2001
0010
3100
,
0000
1002
0010
0103
,
0220
0000
0000
0000
,
0000
0000
0000
0000
,
0330
0000
0000
0000
;

//---------------dance-single - ----------------
#NOTEDATA:;
#CHARTNAME:;
#STEPSTYPE:dance-single;
#DESCRIPTION:;
#CHARTSTYLE:;
#DIFFICULTY:Beginner;
#METER:1;
#RADARVALUES:0.060626,0.118152,0.067515,0.019290,0.000000,44.000000,37.000000,7.000000,2.000000,0.000000,0.000000,0.000000,0.000000,0.000000,0.060626,0.118152,0.067515,0.019290,0.000000,44.000000,37.000000,7.000000,2.000000,0.000000,0.000000,0.000000,0.000000,0.000000;
#CREDIT:;
#DISPLAYBPM:125.000000;
#NOTES:
0000
0000
0000
0000
,
0000
0000
0000
0000
,
0000
0000
0000
0000
,
0000
0000
0000
0000
,
0000
0000
0000
0000
,
0000
0000
0000
0000
,
1000
0000
0000
0000
,
1000
0000
0000
0000
,
0001
0000
0000
0000
,
1001
0000
0000
0000
,
0100
0000
0000
0000
,
0100
0000
0000
0000
,
0010
0000
0000
0000
,
0110
0000
0000
0000
,
0001
0000
0000
0000
,
1000
0000
0000
0000
,
0001
0000
0000
0000
,
0000
0000
0000
0000
,
0110
0000
0000
0000
,
0010
0000
0000
0000
,
0010
0000
0000
0000
,
0000
0000
0000
0000
,
0110
0000
0000
0000
,
0100
0000
0000
0000
,
0100
0000
0000
0000
,
0001
0000
0000
0000
,
2000
0000
0000
0000
,
0000
0000
0000
0000
,
0000
0000
0000
0000
,
0000
0000
0000
0000
,
3000
0000
0000
0000
,
0000
0000
0000
0000
,
0001
0000
1000
0000
,
0001
0000
0000
0000
,
0110
0000
0000
0000
,
0100
0000
0000
0000
,
0010
0000
0000
0000
,
0001
0000
0000
0000
,
1000
0000
0000
0000
,
0010
0000
0000
0000
,
0100
0000
0000
0000
,
0110
0000
0000
0000
,
1001
0000
0000
0000
,
0010
0000
0000
0000
,
0100
0000
0000
0000
,
1000
0000
0000
0000
,
0001
0000
0000
0000
,
0010
0000
0000
0000
,
0200
0000
0000
0000
,
0300
0000
0000
0000
;
