#TITLE:Voyager Girl;
#SUBTITLE:;
#ARTIST:Nina;
#TITLETRANSLIT:;
#SUBTITLETRANSLIT:;
#ARTISTTRANSLIT:;
#GENRE:;
#CREDIT:;
#BANNER:Voyager Girl.png;
#BACKGROUND:Voyager Girl-bg.png;
#LYRICSPATH:;
#CDTITLE:;
#MUSIC:Voyager_Girl_-_Space_Nina (1).ogg;
#OFFSET:-1.040000;
#SAMPLESTART:72.260033;
#SAMPLELENGTH:12.000000;
#SELECTABLE:YES;
#BPMS:0.000000=160.000000
;
#STOPS:
;
#BGCHANGES:;
#KEYSOUNDS:;
#ATTACKS:;

//---------------dance-single - ----------------
#NOTES:
     dance-single:
     :
     Hard:
     13:
     0.647212,0.969946,0.244012,0.195209,0.183009,557.000000,527.000000,30.000000,24.000000,0.000000,0.000000,0.647212,0.969946,0.244012,0.195209,0.183009,557.000000,527.000000,30.000000,24.000000,0.000000,0.000000:
// measure 0
0000
0000
0000
0000
,  // measure 1
0000
0000
0000
0000
,  // measure 2
0000
0000
0000
0000
,  // measure 3
0000
0000
0000
0000
1000
0100
1000
0100
,  // measure 4
2000
0000
0000
0000
3001
0100
0001
0100
,  // measure 5
0002
0000
0000
0000
1003
0100
1000
0100
,  // measure 6
1000
0000
1000
0010
0000
0110
0000
1001
,  // measure 7
1000
0001
1000
0001
1000
0001
1000
0001
,  // measure 8
0100
0001
0100
1000
0100
0001
0100
1000
,  // measure 9
0100
0001
0100
1000
0100
0001
0100
1000
,  // measure 10
0100
0001
0010
0001
0100
0001
0010
0001
,  // measure 11
0100
0001
0010
0001
0100
0001
0010
0001
,  // measure 12
1000
0100
1000
0010
1000
0100
1000
0010
,  // measure 13
1000
0100
1000
0010
1000
0100
1000
0010
,  // measure 14
0100
0001
1000
0010
0100
0001
1000
0010
,  // measure 15
0110
1001
0110
1001
,  // measure 16
0100
1000
0100
1000
0100
1000
0100
0000
1000
0010
1000
0010
1000
0010
1000
0000
,  // measure 17
0001
0100
0001
0100
0001
0100
0001
0000
1000
0100
1000
0100
1000
0100
1000
0000
,  // measure 18
0001
0010
0001
0010
0001
0010
0001
0000
1000
0010
1000
0010
1000
0010
1000
0000
,  // measure 19
0001
0100
0001
0100
0001
0100
0001
0000
1000
0001
1000
0001
1000
0001
1000
0000
,  // measure 20
0001
0100
0001
0100
0001
0100
0001
0000
1000
0010
1000
0010
1000
0010
1000
0000
,  // measure 21
0001
0100
0001
0100
0001
0100
0001
0000
1000
0100
1000
0100
1000
0100
1000
0000
,  // measure 22
0001
0010
0001
0010
0001
0010
0001
0000
0100
0001
0100
0001
0100
0001
0100
0000
,  // measure 23
0001
1000
0001
1000
0001
1000
0001
0000
1001
0000
0000
0000
0110
0000
0000
0000
,  // measure 24
1001
1000
0100
1000
0100
1000
0100
1000
,  // measure 25
0100
1000
0100
1000
0100
1000
0100
1000
,  // measure 26
0001
0010
0001
0010
0001
0010
0001
0010
,  // measure 27
0001
0010
0001
0010
0001
0100
0010
1000
,  // measure 28
1000
0010
1000
0010
1000
0010
1000
0010
,  // measure 29
1000
0010
1000
0010
1000
0010
1000
0010
,  // measure 30
0100
0001
0100
0001
0100
0001
0100
0001
,  // measure 31
0100
0001
0100
0001
0100
0001
0100
0001
,  // measure 32
2001
0100
0000
0100
,  // measure 33
0000
0100
0000
3100
,  // measure 34
1002
0100
0000
0100
,  // measure 35
0000
0100
0000
0103
,  // measure 36
1020
0100
0000
0100
,  // measure 37
0000
0100
0000
0130
,  // measure 38
0201
0010
0000
0010
,  // measure 39
0000
0010
0000
0310
,  // measure 40
2001
0100
0001
3100
,  // measure 41
1002
0100
1000
0103
,  // measure 42
2001
0010
0001
3010
,  // measure 43
1002
0010
1000
0013
,  // measure 44
0120
1000
0100
1030
,  // measure 45
0201
0010
0001
0310
,  // measure 46
1020
0100
1000
0130
,  // measure 47
0201
0010
0001
0310
,  // measure 48
1000
0001
1000
0001
1000
0001
1000
0001
,  // measure 49
0100
0001
0100
1000
0100
0001
0100
1000
,  // measure 50
0100
0001
0100
1000
0100
0001
0100
1000
,  // measure 51
0100
0001
0010
0001
0100
0001
0010
0001
,  // measure 52
0100
0001
0010
0001
0100
0001
0010
0001
,  // measure 53
1000
0100
1000
0010
1000
0100
1000
0010
,  // measure 54
1000
0100
1000
0010
1000
0100
1000
0010
,  // measure 55
0100
0001
1000
0010
0100
0001
1000
0010
,  // measure 56
0100
0001
0100
0010
0100
1000
0100
0010
,  // measure 57
0100
0001
0100
0010
0100
1000
0100
0010
,  // measure 58
0100
0001
0100
0010
0100
1000
0100
0010
,  // measure 59
0100
0001
0100
0001
0100
0001
0100
0001
,  // measure 60
1000
0100
0010
0001
1000
0100
0010
0001
,  // measure 61
1000
0100
0010
0001
1000
0100
0010
0001
,  // measure 62
1000
0010
1000
0010
0100
0001
0100
0001
,  // measure 63
1000
0010
0100
0001
1000
0010
0100
0001
,  // measure 64
1002
0100
0010
0103
,  // measure 65
2001
0010
0100
3010
,  // measure 66
1020
0100
0001
0130
,  // measure 67
0201
0010
1000
0310
,  // measure 68
1002
0100
1000
0103
,  // measure 69
2001
0100
0001
3100
,  // measure 70
2001
0010
0001
3010
,  // measure 71
1002
0010
1000
0013
,  // measure 72
1000
0001
1000
0001
1000
0001
1000
0001
,  // measure 73
0100
0010
0100
0010
0100
0010
0100
0010
,  // measure 74
1000
0001
1000
0001
0100
0010
0100
0010
,  // measure 75
1000
0001
1000
0001
0100
0010
0100
0010
,  // measure 76
1000
0100
0010
0001
1000
0100
0010
0001
,  // measure 77
1000
0100
0010
0001
1000
0100
0010
0001
,  // measure 78
0100
0001
0010
0001
0100
0010
1000
0001
,  // measure 79
2002
0000
3003
0000
;

//---------------dance-single - ----------------
#NOTES:
     dance-single:
     :
     Medium:
     9:
     0.462460,0.484973,0.374151,0.195209,0.000000,398.000000,352.000000,46.000000,24.000000,0.000000,0.000000,0.462460,0.484973,0.374151,0.195209,0.000000,398.000000,352.000000,46.000000,24.000000,0.000000,0.000000:
// measure 0
0000
0000
0000
0000
,  // measure 1
0000
0000
0000
0000
,  // measure 2
0000
0000
0000
0000
,  // measure 3
0000
0000
1000
1000
,  // measure 4
2000
0000
3001
0001
,  // measure 5
0002
0000
1003
1000
,  // measure 6
1000
0000
1000
0010
0000
0110
0000
1001
,  // measure 7
0000
0001
1000
0001
1000
0001
1000
0000
,  // measure 8
0100
0001
0100
0000
0100
0001
0100
0000
,  // measure 9
0100
0001
0100
0000
0100
0001
0100
0000
,  // measure 10
0001
0010
0001
0000
0001
0010
0001
0000
,  // measure 11
0001
0010
0001
0000
0001
0010
0001
0000
,  // measure 12
1000
0100
1000
0000
1000
0100
1000
0000
,  // measure 13
1000
0100
1000
0000
1000
0100
1000
0000
,  // measure 14
0001
1000
0010
0000
0001
1000
0010
0000
,  // measure 15
0110
1001
0110
1001
,  // measure 16
1000
0100
1000
1100
,  // measure 17
0001
0100
0001
0101
,  // measure 18
1000
0100
1000
1100
,  // measure 19
0001
0100
0001
0101
,  // measure 20
1001
0100
0001
0100
,  // measure 21
1001
0100
1000
0100
,  // measure 22
1001
0100
0001
0100
,  // measure 23
1001
0100
1001
0110
,  // measure 24
1001
0100
0001
0100
,  // measure 25
1001
0100
1000
0100
,  // measure 26
1001
1000
0100
0010
,  // measure 27
1001
0001
0010
0100
,  // measure 28
1100
1000
0010
0100
,  // measure 29
0101
0001
0100
0010
,  // measure 30
1001
0100
1001
0100
,  // measure 31
1001
0100
0100
0100
,  // measure 32
2001
0100
0000
0100
,  // measure 33
0000
0100
0000
3100
,  // measure 34
1002
0100
0000
0100
,  // measure 35
0000
0100
0000
0103
,  // measure 36
1020
0100
0000
0100
,  // measure 37
0000
0100
0000
0130
,  // measure 38
0201
0010
0000
0010
,  // measure 39
0000
0010
0000
0310
,  // measure 40
2001
0100
0001
3100
,  // measure 41
1002
0100
1000
0103
,  // measure 42
2001
0010
0001
3010
,  // measure 43
1002
0010
1000
0013
,  // measure 44
0120
1000
0100
1030
,  // measure 45
0201
0010
0001
0310
,  // measure 46
1020
0100
1000
0130
,  // measure 47
0201
0010
0001
0310
,  // measure 48
1000
0001
1000
0001
1000
0000
1000
0000
,  // measure 49
0100
0001
0100
1000
0100
0000
0100
0000
,  // measure 50
0100
0001
0100
1000
0100
0000
0100
0000
,  // measure 51
0100
0001
0010
0001
0100
0000
0010
0000
,  // measure 52
0100
0001
0010
0001
0100
0000
0010
0000
,  // measure 53
1000
0100
1000
0010
1000
0000
1000
0000
,  // measure 54
1000
0100
1000
0010
1000
0000
1000
0000
,  // measure 55
0100
0001
1000
0010
0100
0000
1000
0000
,  // measure 56
0100
0001
0100
0010
0100
0000
0100
1000
,  // measure 57
0100
0010
0100
0000
0100
0001
0100
0010
,  // measure 58
0100
0000
0100
1000
0100
0010
0100
0000
,  // measure 59
0100
0001
0100
0001
0100
0000
0010
0000
,  // measure 60
1000
0100
0010
0000
1000
0100
0010
0000
,  // measure 61
0001
0010
0100
0000
0001
0010
0100
0000
,  // measure 62
1000
0010
1000
0000
0001
0100
0001
0000
,  // measure 63
1000
0010
1000
0000
0001
0010
0001
0000
,  // measure 64
1002
1000
0100
0103
,  // measure 65
2001
0001
0010
3010
,  // measure 66
1020
0100
1000
0130
,  // measure 67
0201
0010
0001
0310
,  // measure 68
1002
0100
1000
1003
,  // measure 69
2001
0100
0001
3001
,  // measure 70
2001
0010
0001
3001
,  // measure 71
1002
0010
1000
1003
,  // measure 72
1000
0001
1000
0001
1000
0000
1000
0000
,  // measure 73
0100
0010
0100
0010
0100
0000
0100
0000
,  // measure 74
1000
0001
1000
0001
0100
0000
0100
0000
,  // measure 75
1000
0001
1000
0001
0100
0000
0100
0000
,  // measure 76
1000
0100
0010
0000
1000
0100
0010
0000
,  // measure 77
0001
0010
0100
0000
0001
0010
0100
0000
,  // measure 78
1000
0001
0100
0010
,  // measure 79
2002
0000
3003
0000
;

//---------------dance-single - ----------------
#NOTES:
     dance-single:
     :
     Easy:
     6:
     0.326511,0.452641,0.260279,0.260279,0.000000,281.000000,249.000000,32.000000,32.000000,0.000000,0.000000,0.326511,0.452641,0.260279,0.260279,0.000000,281.000000,249.000000,32.000000,32.000000,0.000000,0.000000:
// measure 0
0000
0000
0000
0000
,  // measure 1
0000
0000
0000
0000
,  // measure 2
0000
0000
0000
0000
,  // measure 3
0000
0000
0000
0000
,  // measure 4
2000
0000
3001
0000
,  // measure 5
0002
0000
1003
0000
,  // measure 6
1000
1000
0001
0001
,  // measure 7
1000
1000
1000
1000
,  // measure 8
0100
0100
0100
0100
,  // measure 9
0010
0010
0010
0010
,  // measure 10
0001
0001
0001
0001
,  // measure 11
1000
1000
1000
1000
,  // measure 12
0001
0001
0001
0001
,  // measure 13
0100
0100
0100
0100
,  // measure 14
0010
0010
0010
0010
,  // measure 15
1001
1001
1001
1001
,  // measure 16
1000
0100
1000
1100
,  // measure 17
0001
0100
0001
0101
,  // measure 18
1000
0100
1000
1100
,  // measure 19
0001
0100
0001
0101
,  // measure 20
1001
0100
0001
0100
,  // measure 21
1001
0100
1000
0100
,  // measure 22
1001
0100
0001
0100
,  // measure 23
1001
0100
1001
0110
,  // measure 24
1001
0100
0001
0100
,  // measure 25
1001
0100
1000
0100
,  // measure 26
1001
1000
0100
0010
,  // measure 27
1001
0001
0010
0100
,  // measure 28
1100
1000
0010
0100
,  // measure 29
0101
0001
0100
0010
,  // measure 30
1001
0100
1001
0100
,  // measure 31
1001
0100
0100
0100
,  // measure 32
2000
0100
0000
0100
,  // measure 33
0000
0100
0000
3100
,  // measure 34
0002
0100
0000
0100
,  // measure 35
0000
0100
0000
0103
,  // measure 36
0020
0100
0000
0100
,  // measure 37
0000
0100
0000
0130
,  // measure 38
0200
0010
0000
0010
,  // measure 39
0000
0010
0000
0310
,  // measure 40
2000
0100
0000
3100
,  // measure 41
0002
0100
0000
0103
,  // measure 42
2000
0010
0000
3010
,  // measure 43
0002
0010
0000
0013
,  // measure 44
2000
0001
0000
3001
,  // measure 45
0002
1000
0000
1003
,  // measure 46
0200
0010
0000
0310
,  // measure 47
0020
0100
0000
0130
,  // measure 48
0001
0000
1000
0000
,  // measure 49
0100
0000
0100
0000
,  // measure 50
0010
0000
0010
0000
,  // measure 51
0100
0000
0010
0000
,  // measure 52
0100
0000
0010
0000
,  // measure 53
1000
0000
0001
0000
,  // measure 54
1000
1000
1000
1000
,  // measure 55
0001
0001
0001
0001
,  // measure 56
0011
0011
0011
0011
,  // measure 57
0100
0100
0100
0100
,  // measure 58
1010
1010
1010
1010
,  // measure 59
0100
0100
0100
0100
,  // measure 60
0010
0010
1000
1000
,  // measure 61
0001
0001
0100
0100
,  // measure 62
0010
0010
1000
1000
,  // measure 63
0001
0001
0100
0100
,  // measure 64
0002
0000
0200
0303
,  // measure 65
2000
0000
0020
3030
,  // measure 66
0020
0000
2000
3030
,  // measure 67
0200
0000
0002
0303
,  // measure 68
0002
0000
2000
3003
,  // measure 69
2000
0000
0002
3003
,  // measure 70
2000
0000
0002
3003
,  // measure 71
0002
0000
2000
3003
,  // measure 72
1000
1000
1000
1000
,  // measure 73
0100
0100
0100
0100
,  // measure 74
0010
0010
0010
0010
,  // measure 75
0001
0001
0001
0001
,  // measure 76
1000
0100
0010
0001
,  // measure 77
1000
0100
0010
0001
,  // measure 78
1000
0001
0100
0010
,  // measure 79
2002
0000
3003
0000
;

//---------------dance-single - ----------------
#NOTES:
     dance-single:
     :
     Beginner:
     3:
     0.168484,0.258652,0.016267,0.178942,0.000000,145.000000,143.000000,2.000000,22.000000,0.000000,0.000000,0.168484,0.258652,0.016267,0.178942,0.000000,145.000000,143.000000,2.000000,22.000000,0.000000,0.000000:
// measure 0
0000
0000
0000
0000
,  // measure 1
0000
0000
0000
0000
,  // measure 2
0000
0000
0000
0000
,  // measure 3
0000
0000
0000
0000
,  // measure 4
1000
0000
0001
0000
,  // measure 5
0001
0000
1000
0000
,  // measure 6
0100
0000
0010
0000
,  // measure 7
0100
0000
0010
0000
,  // measure 8
0100
0100
0100
0000
,  // measure 9
0010
0010
0010
0000
,  // measure 10
0001
0001
0001
0000
,  // measure 11
1000
1000
1000
0000
,  // measure 12
0001
0001
0001
0000
,  // measure 13
0100
0100
0100
0000
,  // measure 14
0010
0010
0010
0000
,  // measure 15
1001
0000
0000
0000
,  // measure 16
1000
0000
1000
0000
,  // measure 17
0001
0000
0001
0000
,  // measure 18
1000
0000
1000
0000
,  // measure 19
0001
0000
0001
0000
,  // measure 20
1000
0000
0001
0000
,  // measure 21
0001
0000
1000
0000
,  // measure 22
1000
0000
0001
0000
,  // measure 23
1000
0000
0001
0000
,  // measure 24
1000
0000
0001
0000
,  // measure 25
0001
0000
1000
0000
,  // measure 26
0001
0000
0100
0000
,  // measure 27
1000
0000
0010
0000
,  // measure 28
1000
0000
0010
0000
,  // measure 29
0001
0000
0100
0000
,  // measure 30
0001
0000
1000
0000
,  // measure 31
0001
0000
0100
0000
,  // measure 32
2000
0000
0000
0000
,  // measure 33
0000
0000
0000
3000
,  // measure 34
0002
0000
0000
0000
,  // measure 35
0000
0000
0000
0003
,  // measure 36
0020
0000
0000
0000
,  // measure 37
0000
0000
0000
0030
,  // measure 38
0200
0000
0000
0000
,  // measure 39
0000
0000
0000
0300
,  // measure 40
2000
0000
0000
3000
,  // measure 41
0002
0000
0000
0003
,  // measure 42
2000
0000
0000
3000
,  // measure 43
0002
0000
0000
0003
,  // measure 44
2000
0000
0000
3000
,  // measure 45
0002
0000
0000
0003
,  // measure 46
0200
0000
0000
0300
,  // measure 47
0020
0000
0000
0030
,  // measure 48
0001
0000
1000
0000
,  // measure 49
0100
0000
0100
0000
,  // measure 50
0010
0000
0010
0000
,  // measure 51
0100
0000
0010
0000
,  // measure 52
0100
0000
0010
0000
,  // measure 53
1000
0000
0001
0000
,  // measure 54
1000
1000
1000
0000
,  // measure 55
0001
0001
0001
0000
,  // measure 56
0010
0010
0010
0000
,  // measure 57
0100
0100
0100
0000
,  // measure 58
1000
1000
1000
0000
,  // measure 59
0100
0100
0100
0000
,  // measure 60
0010
0010
0010
0000
,  // measure 61
0001
0001
0001
0000
,  // measure 62
0010
0010
0010
0000
,  // measure 63
0100
0100
0100
0000
,  // measure 64
0002
0000
0000
0003
,  // measure 65
2000
0000
0000
3000
,  // measure 66
0020
0000
0000
0030
,  // measure 67
0200
0000
0000
0300
,  // measure 68
0002
0000
0000
0003
,  // measure 69
2000
0000
0000
3000
,  // measure 70
2000
0000
0000
3000
,  // measure 71
0002
0000
0000
0003
,  // measure 72
1000
1000
1000
0000
,  // measure 73
0100
0100
0100
0000
,  // measure 74
0010
0010
0010
0000
,  // measure 75
0001
0001
0001
0000
,  // measure 76
1000
0000
0010
0000
,  // measure 77
0100
0000
0001
0000
,  // measure 78
1000
0000
0001
0000
,  // measure 79
2002
0000
3003
0000
;
