#TITLE:VOL. 3A;
#SUBTITLE:;
#ARTIST:SILK CUTS;
#TITLETRANSLIT:;
#SUBTITLETRANSLIT:;
#ARTISTTRANSLIT:;
#GENRE:;
#CREDIT:;
#BANNER:;
#BACKGROUND:VOL 3A-bg.jpg;
#LYRICSPATH:;
#CDTITLE:;
#MUSIC:VOL 3A.ogg;
#OFFSET:0.280000;
#SAMPLESTART:12.079941;
#SAMPLELENGTH:12.000000;
#SELECTABLE:YES;
#BPMS:0.000000=174.500000
;
#STOPS:
;
#BGCHANGES:;
#KEYSOUNDS:;
#ATTACKS:;

//---------------dance-single - ----------------
#NOTES:
     dance-single:
     :
     Medium:
     9:
     0.468907,0.545722,0.653905,0.153860,0.000000,256.000000,205.000000,51.000000,12.000000,0.000000,0.000000,0.468907,0.545722,0.653905,0.153860,0.000000,256.000000,205.000000,51.000000,12.000000,0.000000,0.000000:
0000
0000
0000
0000
,
0000
0000
0000
0000
,
0000
0000
0000
0000
,
0000
0000
0000
0000
,
0000
0000
0000
0000
,
1000
0100
1000
0100
,
0010
0001
0010
0001
,
1000
0001
0100
0010
,
1001
0110
1001
0110
,
1000
0100
1000
1100
,
0001
0100
0001
0101
,
1000
0100
1000
1100
,
0001
0100
0001
0101
,
1000
0010
1000
1010
,
0001
0100
0001
0101
,
1000
0100
0010
0011
,
0001
0010
0100
1100
,
2001
0010
0010
0001
,
0100
0010
0002
3003
,
1002
0100
0010
0100
,
1000
0100
0020
0033
,
0120
1000
0100
0100
,
0100
0001
0200
0330
,
0210
0010
0010
1000
,
0010
0001
0002
0303
,
1001
0100
1000
0100
,
1001
0100
0001
0100
,
1001
0100
1000
0100
,
1001
0100
0001
0100
,
1000
0100
0010
0001
,
1000
0010
0100
0001
,
1000
0001
0100
0010
,
1000
0100
0001
0010
,
0110
0010
0100
0010
,
1001
1000
0100
0010
,
0011
0001
0010
0100
,
1100
0010
0100
0010
,
1001
0100
0010
0110
,
0110
1000
0100
1100
,
1100
0010
0001
0011
,
0011
1001
2002
3003
,
1000
0000
1000
0000
1000
0100
1000
0000
,
0001
0000
0001
0000
0001
0100
0001
0000
,
1001
0100
1001
0010
,
1001
0110
1001
0000
,
0001
0000
0001
0000
0001
0010
0001
0000
,
1000
0000
1000
0000
1000
0010
1000
0000
,
0110
0001
0110
1000
,
0110
1001
0110
0000
,
1000
0000
1000
0000
1000
0100
1000
0000
,
0001
0000
0001
0000
0001
0100
0001
0000
,
1001
0100
1001
0010
,
1001
0110
1001
0000
,
0001
0000
0001
0000
0001
0010
0001
0000
,
1000
0000
1000
0000
1000
0010
1000
0000
,
0110
0001
0110
1000
,
0220
0000
0000
0330
;

//---------------dance-single - ----------------
#NOTES:
     dance-single:
     :
     Hard:
     14:
     0.771132,0.836774,0.564153,0.025643,0.134627,421.000000,377.000000,44.000000,2.000000,0.000000,0.000000,0.771132,0.836774,0.564153,0.025643,0.134627,421.000000,377.000000,44.000000,2.000000,0.000000,0.000000:
// measure 0
0000
0000
0000
0000
,  // measure 1
0000
0000
0000
0000
,  // measure 2
0000
0000
0000
0000
,  // measure 3
0000
0000
0000
0000
,  // measure 4
0000
0000
0000
0000
,  // measure 5
1001
0000
0000
0000
0100
0000
0000
0100
0000
0000
0100
0000
0000
0000
0100
0000
,  // measure 6
1001
0000
0000
0000
0010
0000
0000
0010
0000
0000
0010
0000
0000
0000
0010
0000
,  // measure 7
0010
0100
0010
0100
0010
0000
0100
0001
0000
0100
0001
0000
1001
0000
0000
0000
,  // measure 8
1100
0011
0101
1010
,  // measure 9
1000
0100
1000
0100
1000
0100
1000
0100
,  // measure 10
1000
0001
0100
0001
0100
0001
0100
0001
,  // measure 11
0100
0010
0100
0010
0100
0010
0100
0010
,  // measure 12
1000
0100
1000
0100
0010
0001
0010
0001
,  // measure 13
1000
0001
0100
0001
1000
0001
0100
0001
,  // measure 14
1000
0100
1000
0001
1000
0100
1000
0001
,  // measure 15
1000
0100
0010
0001
1000
0100
0010
0001
,  // measure 16
1000
0100
0010
0001
1000
0100
0010
0001
,  // measure 17
0011
0011
0011
0011
,  // measure 18
0100
0100
0100
0100
,  // measure 19
1010
1010
1010
1010
,  // measure 20
0100
0100
0100
0100
,  // measure 21
1010
1010
0011
0011
,  // measure 22
0100
0010
0100
0010
,  // measure 23
1100
1100
0101
0101
,  // measure 24
1000
0001
1000
0001
,  // measure 25
1000
0001
0100
0010
1000
0001
0100
0010
,  // measure 26
1000
0001
0100
0010
1000
0001
0100
0010
,  // measure 27
1000
0100
0010
0001
1000
0100
0010
0001
,  // measure 28
1000
0100
0010
0001
1000
0100
1001
0000
,  // measure 29
0001
1000
0010
0100
0001
1000
0010
0100
,  // measure 30
0001
1000
0010
0100
0001
1000
0010
0100
,  // measure 31
0001
0010
0100
1000
0001
0010
0100
1000
,  // measure 32
0001
0010
0100
1000
0001
0010
1001
0000
,  // measure 33
1000
0100
0010
0100
1000
0010
0100
0010
,  // measure 34
1000
0100
0010
0100
1000
0010
0100
0010
,  // measure 35
1000
0100
0010
0100
1000
0010
0100
0010
,  // measure 36
1000
0100
0010
0001
1000
0100
0110
0000
,  // measure 37
0001
0010
0100
0010
0001
0100
0010
0100
,  // measure 38
0001
0010
0100
0010
0001
0100
0010
0100
,  // measure 39
0001
0010
0100
0010
0001
0100
0010
0100
,  // measure 40
0001
0100
0010
1000
0001
0010
0011
0000
,  // measure 41
1000
0100
1100
0100
0010
0001
0011
0001
,  // measure 42
0010
0100
0110
0100
1000
0100
1100
1000
,  // measure 43
0001
0100
0010
0100
0001
0100
0010
0100
,  // measure 44
0001
0100
0001
0100
0001
0100
0001
0100
0001
0100
0001
0000
0100
0000
0000
0000
,  // measure 45
0001
0100
1001
0100
1000
0100
1001
0100
,  // measure 46
1000
0100
1001
0100
0001
0100
1001
0100
,  // measure 47
1000
0100
0010
0001
1000
0100
0010
0001
,  // measure 48
1000
0010
1000
0010
1000
0010
1000
0010
1000
0010
1000
0000
0100
0000
0000
0000
,  // measure 49
1000
0100
0110
0010
0001
0010
0110
0100
,  // measure 50
1000
0010
0101
0010
0100
0010
1001
0010
,  // measure 51
1000
0100
1000
0001
0100
0001
1000
0100
,  // measure 52
1000
0001
1000
0001
0100
0010
0100
0010
1000
0001
1000
0000
0001
0000
0000
0000
,  // measure 53
0100
0001
0101
0001
0100
0001
0101
0010
,  // measure 54
1000
0010
1010
1000
0010
1000
1010
1000
,  // measure 55
1000
0100
1000
0010
1000
0100
1000
0010
,  // measure 56
0220
0000
0000
0330
;

//---------------dance-single - ----------------
#NOTES:
     dance-single:
     :
     Easy:
     6:
     0.382818,0.436578,0.320542,0.166682,0.000000,209.000000,184.000000,25.000000,13.000000,0.000000,0.000000,0.382818,0.436578,0.320542,0.166682,0.000000,209.000000,184.000000,25.000000,13.000000,0.000000,0.000000:
0000
0000
0000
0000
,
0000
0000
0000
0000
,
0000
0000
0000
0000
,
0000
0000
0000
0000
,
0000
0000
0000
0000
,
1000
1000
1000
0000
,
0001
0001
0001
0000
,
0100
0100
0100
0100
,
0010
0010
0020
0030
,
1000
1000
1000
0000
,
0001
0001
0001
0000
,
0100
0100
0100
0100
,
0010
0010
0020
0030
,
1000
1000
1000
0000
,
0001
0001
0001
0000
,
0100
0100
0100
0100
,
0010
0010
0020
0030
,
2001
0001
0001
0000
,
0100
0000
3100
0000
,
1002
1000
1000
0000
,
0100
0000
0103
0000
,
2001
0001
0001
0000
,
0010
0000
3010
0000
,
1002
1000
1000
0000
,
0010
0000
0013
0000
,
1000
0100
1000
1100
,
0001
0100
0001
0101
,
1000
0100
1000
1100
,
0001
0100
0001
0101
,
1000
0010
1000
1010
,
0001
0010
0001
0011
,
1000
0010
1000
1010
,
0001
0010
0001
0011
,
1000
0001
0100
0001
,
1000
0001
0100
0001
,
1000
0100
1000
0001
,
1000
0100
1000
0001
,
1000
0001
0100
0010
,
1000
0100
0010
0001
,
1000
0100
0001
0010
,
1000
0100
0001
0010
,
1001
0100
0001
0100
,
1001
0100
1000
0100
,
1001
0100
0001
0100
,
1001
0100
1000
0100
,
1100
1000
0100
0010
,
0011
0001
0010
0100
,
1100
0100
1000
0100
,
1001
0010
0001
0010
,
1002
1000
1000
1000
,
0100
0100
0100
0103
,
2001
0001
0001
0001
,
0010
0010
0010
3010
,
0210
0010
0010
0310
,
0120
0100
0100
0100
,
1000
0100
1000
0130
,
2002
0000
0000
3003
;

//---------------dance-single - ----------------
#NOTES:
     dance-single:
     :
     Beginner:
     3:
     0.210642,0.287205,0.000000,0.000000,0.000000,115.000000,115.000000,0.000000,0.000000,0.000000,0.000000,0.210642,0.287205,0.000000,0.000000,0.000000,115.000000,115.000000,0.000000,0.000000,0.000000,0.000000:
0000
0000
0000
0000
,
0000
0000
0000
0000
,
0000
0000
0000
0000
,
0000
0000
0000
0000
,
0000
0000
0000
0000
,
1000
1000
0000
0000
,
0001
0001
0000
0000
,
0100
0100
0000
0000
,
0010
0010
0000
0000
,
1000
1000
0000
0000
,
0001
0001
0000
0000
,
0100
0100
0000
0000
,
0010
0010
0000
0000
,
1000
1000
0000
0000
,
0001
0001
0000
0000
,
0100
0100
0000
0000
,
0010
0010
0000
0000
,
0001
0001
0001
0000
,
0100
0000
0100
0000
,
1000
1000
1000
0000
,
0100
0000
0100
0000
,
0001
0001
0001
0000
,
0010
0000
0010
0000
,
1000
1000
1000
0000
,
0010
0000
0010
0000
,
1000
0000
1000
0000
,
0001
0000
0001
0000
,
1000
0000
1000
0000
,
0001
0000
0001
0000
,
1000
0000
1000
0000
,
0001
0000
0001
0000
,
1000
0000
1000
0000
,
0001
0000
0001
0000
,
1000
0000
0100
0000
,
1000
0000
0100
0000
,
1000
0000
1000
0000
,
1000
0000
1000
0000
,
1000
0000
0100
0000
,
1000
0000
0010
0000
,
1000
0000
0001
0000
,
1000
0000
0001
0000
,
0001
0000
0001
0000
,
0001
0000
1000
0000
,
1000
0000
0001
0000
,
0001
0000
1000
0000
,
1000
0000
0100
0000
,
0001
0000
0010
0000
,
1000
0000
1000
0000
,
0001
0000
0001
0000
,
1000
1000
1000
0000
,
0100
0100
0100
0000
,
0001
0001
0001
0000
,
0010
0010
0010
0000
,
0010
0010
0010
0000
,
0100
0100
0100
0000
,
1000
1000
1000
1000
,
1000
0000
0000
0000
;
