#VERSION:0.83;
#TITLE:Unity;
#SUBTITLE:;
#ARTIST:TheFatRat;
#TITLETRANSLIT:;
#SUBTITLETRANSLIT:;
#ARTISTTRANSLIT:;
#GENRE:;
#ORIGIN:;
#CREDIT:;
#BANNER:;
#BACKGROUND:Unity-bg.jpg;
#PREVIEWVID:;
#JACKET:Unity-jacket.jpg;
#CDIMAGE:;
#DISCIMAGE:;
#LYRICSPATH:;
#CDTITLE:;
#MUSIC:Unity.ogg;
#OFFSET:-0.800000;
#SAMPLESTART:18.399981;
#SAMPLELENGTH:14.999995;
#SELECTABLE:YES;
#BPMS:0.000=105.020;
#STOPS:;
#DELAYS:;
#WARPS:;
#TIMESIGNATURES:0.000=4=4;
#TICKCOUNTS:0.000=4;
#COMBOS:0.000=1;
#SPEEDS:0.000=1.000=0.000=0;
#SCROLLS:0.000=1.000;
#FAKES:;
#LABELS:0.000=Song Start;
#BGCHANGES:;
#KEYSOUNDS:;
#ATTACKS:
;

//---------------dance-single - ----------------
#NOTEDATA:;
#CHARTNAME:;
#STEPSTYPE:dance-single;
#DESCRIPTION:;
#CHARTSTYLE:;
#DIFFICULTY:Hard;
#METER:13;
#RADARVALUES:0.576086,0.622051,0.675676,0.225225,0.396825,376.000000,313.000000,63.000000,21.000000,0.000000,0.000000,0.000000,0.000000,0.000000,0.576086,0.622051,0.675676,0.225225,0.396825,376.000000,313.000000,63.000000,21.000000,0.000000,0.000000,0.000000,0.000000,0.000000;
#CREDIT:;
#NOTES:
// measure 0
0000
0000
0000
0000
,  // measure 1
0000
0000
0000
0000
,  // measure 2
0000
0000
0000
0000
,  // measure 3
0000
0000
0000
0000
,  // measure 4
1001
0000
0000
0101
0000
0000
0011
0000
0000
0001
0000
1000
0001
0000
1000
0001
0000
0000
0100
0000
0000
0010
0000
0000
,  // measure 5
1010
0000
0000
1100
0000
0000
1001
0000
0000
1000
0000
0001
1000
0000
0001
0100
0000
0000
0100
0000
0000
0100
0000
0000
,  // measure 6
0101
0000
0000
0011
0000
0000
0001
0000
0100
0001
0000
0100
0001
0000
0000
0100
0000
0000
0010
0000
1000
0010
0000
0100
,  // measure 7
0001
0000
0000
1001
0000
0000
0110
0000
0000
0101
0000
0000
1002
0000
0000
0003
0000
1000
0001
0000
0100
0010
0000
1000
,  // measure 8
0001
0000
0000
0000
0000
1000
0010
0000
0100
0010
0000
1000
0010
0000
0000
0000
0000
0100
0001
0000
0100
0010
0000
0100
,  // measure 9
0001
0000
0000
0011
0000
0000
0110
0000
0000
1100
0000
0000
2002
0000
0000
3003
0000
0100
0010
0000
0100
0001
0000
0010
,  // measure 10
0001
0000
0000
0000
0000
1000
0001
0000
1000
0010
0000
1000
0100
0000
0000
0000
0000
1000
0001
0000
0100
0001
0000
0010
,  // measure 11
0001
0101
0011
0101
0022
0000
0033
0000
,  // measure 12
1000
0000
0000
0001
0000
0000
0100
0000
0000
0001
0000
0100
0010
0000
1000
0100
0000
0000
0010
0000
0000
0001
0000
0000
,  // measure 13
1000
0000
0000
0001
0000
0000
0100
0000
0000
0010
0000
1000
0010
0000
0100
0010
0000
0000
0100
0000
0000
0001
0000
0000
,  // measure 14
1001
0000
0000
0100
0000
0000
0010
0000
0100
0010
0000
0100
0010
0000
0000
1000
0000
0000
0001
0000
1000
0001
0000
1000
,  // measure 15
0100
1100
0011
0101
2020
0000
3030
0000
,  // measure 16
2001
0000
0100
0000
0010
0010
3010
0100
,  // measure 17
1002
0000
0100
0100
0100
0000
0013
0000
,  // measure 18
1001
0000
0001
0000
1000
0010
0100
0001
,  // measure 19
1000
0000
0010
1000
0200
0000
0300
0000
,  // measure 20
1000
0000
0101
0000
1000
0100
0010
0001
,  // measure 21
0100
0000
0010
0100
0002
0000
2003
0000
,  // measure 22
3100
0000
1000
0000
0010
0000
0100
0001
,  // measure 23
0020
0000
0002
0033
,  // measure 24
1001
0000
0000
0101
0000
0000
0011
0000
0000
0001
0000
1000
0001
0000
1000
0001
0000
0000
0100
0000
0000
0010
0000
0000
,  // measure 25
1010
0000
0000
1100
0000
0000
1001
0000
0000
1000
0000
0001
1000
0000
0001
0100
0000
0000
0100
0000
0000
0100
0000
0000
,  // measure 26
0101
0000
0000
0011
0000
0000
0001
0000
0000
0001
0000
0100
0001
0000
0100
0010
0000
0000
0010
0000
0000
1000
0000
0000
,  // measure 27
0001
0000
0000
1001
0000
0000
0110
0000
0000
0101
0000
0000
1002
0000
0000
0003
0000
1000
0001
0000
0100
0010
0000
1000
,  // measure 28
0001
0000
0000
0000
0000
1000
0010
0000
0100
0010
0000
1000
0010
0000
0000
0000
0000
0100
0001
0000
0100
0010
0000
0100
,  // measure 29
0001
0000
0000
0011
0000
0000
0110
0000
0000
1100
0000
0000
2002
0000
0000
3003
0000
0100
0010
0000
0100
0001
0000
0010
,  // measure 30
0001
0000
0000
0000
0000
1000
0001
0000
1000
0010
0000
1000
0100
0000
0000
0000
0000
1000
0001
0000
0100
0001
0000
0010
,  // measure 31
0001
0101
0011
0101
0022
0000
0033
0000
,  // measure 32
1000
0000
0000
0001
0000
0000
0100
0000
0000
0001
0000
0100
0010
0000
1000
0100
0000
0000
0010
0000
0000
0001
0000
0000
,  // measure 33
1000
0000
0000
0001
0000
0000
0100
0000
0000
0010
0000
1000
0010
0000
0100
0010
0000
0000
0100
0000
0000
0001
0000
0000
,  // measure 34
1001
0000
0000
0100
0000
0000
0100
0000
0000
0010
0000
0100
0010
0000
0100
0010
0000
0000
0010
0000
0000
1000
0000
0000
,  // measure 35
1001
0000
0000
0101
0000
0000
0101
0000
0000
0001
0000
1000
0001
0000
1000
0100
0000
0000
1100
0000
0000
0011
0000
0000
,  // measure 36
0101
0000
0000
1000
0000
0000
0010
0000
0000
0100
0000
0001
0100
0000
0001
0100
0000
0000
0010
0000
0000
1000
0000
0000
,  // measure 37
1100
0000
0000
1010
0000
0000
1100
0000
0000
1000
0000
0001
0100
0000
0010
0100
0000
0000
0001
0000
0000
0100
0000
0000
,  // measure 38
0010
0000
0000
1000
0000
0000
0100
0000
0100
1000
0000
1000
0100
0000
0000
1000
0000
0000
0010
0000
0010
0100
0000
0100
,  // measure 39
0001
0011
0110
1100
2002
0000
0000
0000
,  // measure 40
3003
0000
0000
0000
;

//---------------dance-single - ----------------
#NOTEDATA:;
#CHARTNAME:;
#STEPSTYPE:dance-single;
#DESCRIPTION:;
#CHARTSTYLE:;
#DIFFICULTY:Medium;
#METER:8;
#RADARVALUES:0.346265,0.450450,0.214500,0.407550,0.000000,226.000000,206.000000,20.000000,38.000000,0.000000,0.000000,0.000000,0.000000,0.000000,0.346265,0.450450,0.214500,0.407550,0.000000,226.000000,206.000000,20.000000,38.000000,0.000000,0.000000,0.000000,0.000000,0.000000;
#CREDIT:;
#NOTES:
0000
0000
0000
0000
,
0000
0000
0000
0000
,
0000
0000
0000
0000
,
0000
0000
0000
0000
,
1000
1000
1000
0110
1000
1000
1000
0110
,
0001
0001
0001
0110
0001
0001
0001
0110
,
1000
0100
1000
1000
0001
0100
0001
0001
,
1000
0001
1000
0001
2002
0000
3003
0000
,
1000
0000
1100
0000
1000
0001
0100
0000
,
0001
0000
0101
0000
0001
1000
0100
0000
,
1000
0000
0101
0000
1000
0001
0100
0000
,
0001
0000
1100
0000
0001
1000
0100
0000
,
1000
0100
1000
0100
1000
0100
1000
0000
,
0001
0100
0001
0100
0001
0100
0001
0000
,
1000
0100
1000
0000
0001
0100
0001
0000
,
1000
0100
0010
0001
2002
0000
3003
0000
,
2000
3002
0203
0320
,
2030
3200
0320
0032
,
2003
3200
2300
3002
,
0203
0302
2003
3020
,
2030
3002
0023
0032
,
2003
3200
0320
0032
,
2003
3002
0203
0320
,
2030
0000
3002
0000
,
1003
1000
1000
0110
1000
1000
1000
0110
,
0001
0001
0001
0110
0001
0001
0001
0110
,
1000
0100
1000
1000
0001
0100
0001
0001
,
1000
0001
0100
0010
2002
0000
3003
0000
,
1000
0000
1100
0000
1000
0001
0100
0000
,
0001
0000
0101
0000
0001
1000
0100
0000
,
1000
0000
0101
0000
1000
0001
0100
0000
,
0001
0000
1100
0000
0001
1000
0100
0000
,
1000
0100
1000
0100
1000
0100
1000
0000
,
0001
0100
0001
0100
0001
0100
0001
0000
,
1000
0010
0100
0010
1000
0010
0100
0000
,
0001
0100
0010
0100
0001
0100
0010
0000
,
0100
0001
0100
0001
0100
0001
0100
0000
,
0010
1000
0010
1000
0010
1000
0010
0000
,
1000
0100
1000
0000
0001
0100
0001
0000
,
1000
0100
0010
0001
2002
0000
0000
0000
,
3003
0000
0000
0000
;

//---------------dance-single - ----------------
#NOTEDATA:;
#CHARTNAME:;
#STEPSTYPE:dance-single;
#DESCRIPTION:;
#CHARTSTYLE:;
#DIFFICULTY:Easy;
#METER:5;
#RADARVALUES:0.226757,0.300300,0.150150,0.107250,0.000000,148.000000,134.000000,14.000000,10.000000,0.000000,0.000000,0.000000,0.000000,0.000000,0.226757,0.300300,0.150150,0.107250,0.000000,148.000000,134.000000,14.000000,10.000000,0.000000,0.000000,0.000000,0.000000,0.000000;
#CREDIT:;
#NOTES:
0000
0000
0000
0000
,
0000
0000
0000
0000
,
0000
0000
0000
0000
,
0000
0000
0000
0000
,
1000
0000
0100
0000
1000
1000
1000
0000
,
0001
0000
0100
0000
0001
0001
0001
0000
,
1000
0001
1000
0001
,
0100
0010
0100
0010
0100
0000
0000
0000
,
1001
0100
0001
0100
,
0010
1000
0100
1000
,
1001
1000
0100
1000
,
0010
0100
0001
0001
,
1000
1000
1000
0000
0100
0000
0100
0000
,
0001
0001
0001
0000
0010
0000
0010
0000
,
1000
1000
1000
0000
0001
0001
0001
0000
,
1000
0001
1000
0001
1000
0000
0000
0000
,
2000
0000
0000
0000
,
3002
0000
0000
0000
,
0203
0000
0000
0000
,
0320
0000
0000
0000
,
2030
0000
0000
0000
,
3200
0000
0000
0000
,
0320
0000
0000
0000
,
0032
0000
0000
0000
,
1003
1000
1001
1000
,
0001
0001
1001
0001
,
0100
0100
0110
0100
,
0010
0010
0010
0010
0020
0000
0030
0000
,
1001
0100
0001
1000
,
0010
1000
0100
1000
,
0001
0100
0010
0100
,
0001
1000
0100
1000
,
1001
0000
1000
0000
0100
1000
0100
0000
,
1001
0000
0001
0000
0100
0001
0100
0000
,
1001
0000
1000
0000
0010
1000
0010
0000
,
1001
0000
0001
0000
0010
0001
0010
0000
,
1001
0110
1000
0100
,
1001
0110
0001
0010
,
1000
0100
0010
0001
,
1000
0001
1000
0001
2000
0000
0000
0000
,
3000
0000
0000
0000
;

//---------------dance-single - ----------------
#NOTEDATA:;
#CHARTNAME:;
#STEPSTYPE:dance-single;
#DESCRIPTION:;
#CHARTSTYLE:;
#DIFFICULTY:Beginner;
#METER:2;
#RADARVALUES:0.108782,0.150150,0.032175,0.053625,0.000000,71.000000,68.000000,3.000000,5.000000,0.000000,0.000000,0.000000,0.000000,0.000000,0.108782,0.150150,0.032175,0.053625,0.000000,71.000000,68.000000,3.000000,5.000000,0.000000,0.000000,0.000000,0.000000,0.000000;
#CREDIT:;
#NOTES:
0000
0000
0000
0000
,
0000
0000
0000
0000
,
0000
0000
0000
0000
,
0000
0000
0000
0000
,
1000
1000
0000
0000
,
0001
0001
0000
0000
,
0100
0100
0000
0000
,
0010
0010
0010
0000
,
1001
0000
0001
0000
,
0010
0000
0100
0000
,
1001
0000
0100
0000
,
0010
0000
0001
0000
,
1000
1000
0000
0000
,
0001
0001
0000
0000
,
0100
0100
0000
0000
,
0010
0010
0010
0000
,
2000
0000
0000
3000
,
1000
0000
0000
0000
,
0200
0000
0000
0300
,
0100
0000
0000
0000
,
0020
0000
0000
0030
,
0010
0000
0000
0000
,
0002
0000
0000
0003
,
0001
0000
0000
0000
,
1000
1000
0000
0000
,
0001
0001
0000
0000
,
0100
0100
0000
0000
,
0010
0010
0010
0000
,
1001
0000
0001
0000
,
0010
0000
0100
0000
,
0001
0000
0010
0000
,
0001
0000
0100
0000
,
1000
0000
0100
0000
,
1000
0000
0100
0000
,
1000
0000
0010
0000
,
0001
0000
0010
0000
,
1000
0000
1000
0000
,
0001
0000
0001
0000
,
1000
0000
0010
0000
,
0100
0100
0200
0000
,
0300
0000
0000
0000
;
