#VERSION:0.83;
#TITLE:Touch The Energy;
#SUBTITLE:(Hardhouse Mix);
#ARTIST:Energizer;
#TITLETRANSLIT:;
#SUBTITLETRANSLIT:;
#ARTISTTRANSLIT:;
#GENRE:;
#ORIGIN:;
#CREDIT:;
#BANNER:;
#BACKGROUND:Touch The Energy (Hardhouse Mix)-bg.png;
#PREVIEWVID:;
#JACKET:;
#CDIMAGE:;
#DISCIMAGE:;
#LYRICSPATH:;
#CDTITLE:;
#MUSIC:Energizer_-_Touch_The_Energy_Hardhouse_Mix.ogg;
#OFFSET:-0.420000;
#SAMPLESTART:16.899971;
#SAMPLELENGTH:12.000000;
#SELECTABLE:YES;
#BPMS:0.000=130.880;
#STOPS:;
#DELAYS:;
#WARPS:;
#TIMESIGNATURES:0.000=4=4;
#TICKCOUNTS:0.000=4;
#COMBOS:0.000=1;
#SPEEDS:0.000=1.000=0.000=0;
#SCROLLS:0.000=1.000;
#FAKES:;
#LABELS:0.000=Song Start;
#BGCHANGES:;
#KEYSOUNDS:;
#ATTACKS:
;

//---------------dance-single - ----------------
#NOTEDATA:;
#CHARTNAME:;
#STEPSTYPE:dance-single;
#DESCRIPTION:;
#CHARTSTYLE:;
#DIFFICULTY:Hard;
#METER:15;
#RADARVALUES:0.697373,0.692455,0.045117,0.000000,0.929402,541.000000,536.000000,5.000000,0.000000,0.000000,0.000000,0.000000,0.000000,0.000000,0.697373,0.692455,0.045117,0.000000,0.929402,541.000000,536.000000,5.000000,0.000000,0.000000,0.000000,0.000000,0.000000,0.000000;
#CREDIT:;
#NOTES:
0000
0000
0000
0000
,
0000
0000
0000
0000
,
0000
0000
0000
0000
,
0000
0000
0000
0000
,
0000
0000
0000
0000
,
1000
0100
1000
0100
1000
0100
0000
0000
1000
0010
1000
0010
1000
0010
0000
0000
,
0010
0100
0010
0100
0010
0100
0000
0000
0001
0100
0001
0100
0001
0100
0000
0000
,
0100
0001
0100
0001
0100
0001
0000
0000
1000
0010
1000
0010
1000
0010
0000
0000
,
0010
0000
0100
0001
0000
1000
0010
0000
0100
0001
0000
1000
0100
0000
1100
0000
,
1000
0000
1000
0100
0000
0100
0010
0000
0010
0001
0000
0001
0100
0000
0001
0000
,
0001
0000
0001
0100
0000
0100
0010
0000
0010
1000
0000
1000
0010
0000
0100
0000
,
0001
0000
0100
1000
0000
0100
0001
0000
0100
1000
0000
0100
0001
0000
0100
0000
,
0001
0000
0010
0100
0000
0010
0001
0000
0010
0100
0000
0010
0001
0000
0100
0000
,
0010
0000
1000
0100
0000
1000
0010
0000
1000
0100
0000
1000
0010
0000
0100
0000
,
0001
0000
0100
0010
0000
0100
0001
0000
0100
0010
0000
0100
0001
0000
1000
0000
,
1000
0000
0100
0010
0000
0010
0001
0000
0001
0100
0000
0100
0010
0000
1000
0000
,
0100
0000
1000
0010
0000
0100
0001
0000
0100
0010
0000
1000
0100
0000
0010
0000
,
0001
0000
0100
0001
0000
0100
1000
0000
0100
0001
0000
0100
1000
0000
0100
0000
,
0001
0000
0010
0001
0000
0100
0001
0000
1000
0001
0000
0100
0001
0000
1000
0000
,
1000
0000
0001
1000
0000
0010
1000
0000
0100
1000
0000
0010
1000
0000
0001
0000
,
0100
0000
0010
0100
0000
0001
0100
0000
0010
1000
0000
0010
0100
0000
0010
0000
,
1000
0001
1000
0001
1000
0000
0100
0000
1000
0000
0010
0000
0100
0000
0001
0000
,
0001
0010
0001
0010
0001
0000
0001
0000
0100
0000
0010
0000
1000
0000
0100
0000
,
1000
0010
1000
0010
1000
0000
0010
0000
0100
0000
0001
0000
0010
0000
0001
0000
,
0100
0001
0100
0001
0100
0000
0010
0000
1000
0000
0100
0000
0010
0000
0001
0000
,
1000
0010
1000
0010
1000
0000
0010
0000
0100
0000
0001
0000
0010
0000
0001
0000
,
0100
0001
0100
0001
0100
0000
0010
0000
1000
0000
0010
0000
0100
0000
0001
0000
,
0001
1000
0001
1000
0001
0000
0100
0000
0001
0000
1000
0000
0010
0000
1000
0000
,
0010
1000
0010
1000
0010
0000
0100
0000
0010
0000
1000
0000
0100
0000
1000
0000
,
1000
0100
1000
0100
1000
0100
0000
0000
1000
0010
1000
0010
1000
0010
0000
0000
,
0010
0100
0010
0100
0010
0100
0000
0000
0001
0100
0001
0100
0001
0100
0000
0000
,
0100
0001
0100
0001
0100
0001
0000
0000
1000
0010
1000
0010
1000
0010
0000
0000
,
0010
1000
0010
1000
0010
1000
0000
0000
0001
0100
0001
0100
0001
0100
0000
0000
,
0001
1000
0001
1000
0001
0000
1000
0000
1000
0010
1000
0010
1000
0000
0010
0000
,
0100
0010
0100
0010
0100
0000
0001
0000
1000
0100
1000
0100
1000
0000
0001
0000
,
0100
0010
0100
0010
0100
0000
0001
0000
1000
0001
1000
0001
1000
0000
0100
0000
,
0010
0001
0010
0001
0010
0000
0001
0000
1000
0001
1000
0001
1000
0000
0100
0000
,
0010
0001
0010
0001
0010
0000
0001
0000
0100
0001
0100
0001
0100
0000
0010
0000
,
1000
0010
1000
0010
1000
0000
0010
0000
0100
0001
0100
0001
0100
0000
0010
0000
,
1000
0100
1000
0100
1000
0000
0010
0000
0100
0001
0100
0001
0100
0000
0010
0000
,
1000
0010
1000
0010
1000
0000
0010
0000
0100
0001
0100
0001
0100
0000
0010
0000
,
1000
0000
0100
1000
0000
0100
1000
0000
0100
1000
0000
0100
1000
0000
0001
0000
,
0100
0000
0001
0100
0000
0001
0100
0000
0001
0100
0000
0001
0100
0000
0010
0000
,
0010
0000
0100
0001
0000
0010
0001
0000
0100
0001
0000
0010
0001
0000
0100
0000
,
0010
0000
1000
0001
0000
1000
0010
0000
1000
0001
0000
1000
0010
0000
1000
0000
,
1000
0000
0001
0010
0000
0001
0100
0000
0001
0100
0000
0001
0010
0000
0001
0000
,
0100
0000
0010
0100
0000
0010
1000
0000
0010
0100
0000
0010
1000
0000
0100
0000
,
1000
0000
0010
0100
0000
0001
0100
0000
0010
1000
0000
0001
0100
0000
0001
0000
,
0010
0000
0001
1000
0000
1000
0100
0000
0100
0010
0000
0010
0001
0000
1000
0000
,
1000
0000
0000
1000
0000
0000
1000
0000
0000
1000
0000
0000
0100
0000
0100
0000
,
0001
0000
0000
0001
0000
0000
0001
0000
0000
0001
0000
0001
0010
0000
0010
0000
,
1000
0000
0000
1000
0000
0000
1000
0000
0000
1000
0000
0000
0100
0000
0100
0000
,
0001
0000
0000
0001
0000
0000
0001
0000
0000
0001
0000
0001
0010
0000
0010
0000
,
0000
0100
1000
0100
1000
0100
1000
0000
0000
0010
1000
0010
1000
0010
1000
0000
,
0000
1000
0010
1000
0010
1000
0010
0000
0000
0100
0001
0100
0001
0100
0001
0000
,
0000
0001
0100
0001
0100
0001
0100
0000
0000
0010
1000
0010
1000
0010
1000
0000
,
0000
1001
0000
0000
0000
0000
0000
0000
0000
0000
0000
0000
0000
0000
0000
0000
0000
0000
0000
0000
0000
0000
0000
0000
0000
0000
0000
0000
0000
0000
0000
0000
,
0000
1001
0000
0000
0000
0000
0000
0000
0000
0000
0000
0000
0000
0000
0000
0000
0000
0000
0000
0000
0000
0000
0000
0000
0000
0000
0000
0000
0000
0000
0000
0000
,
0000
0110
0000
0000
0000
0000
0000
0000
0000
0000
0000
0000
0000
0000
0000
0000
0000
0000
0000
0000
0000
0000
0000
0000
0000
0000
0000
0000
0000
0000
0000
0000
,
0000
1001
0000
0000
0000
0000
0000
0000
0000
0000
0000
0000
0000
0000
0000
0000
0000
0000
0000
0000
0000
0000
0000
0000
0000
0000
0000
0000
0000
0000
0000
0000
;

//---------------dance-single - ----------------
#NOTEDATA:;
#CHARTNAME:;
#STEPSTYPE:dance-single;
#DESCRIPTION:;
#CHARTSTYLE:;
#DIFFICULTY:Medium;
#METER:11;
#RADARVALUES:0.394448,0.426126,0.153396,0.000000,0.279723,306.000000,289.000000,17.000000,0.000000,0.000000,0.000000,0.000000,0.000000,0.000000,0.394448,0.426126,0.153396,0.000000,0.279723,306.000000,289.000000,17.000000,0.000000,0.000000,0.000000,0.000000,0.000000,0.000000;
#CREDIT:;
#NOTES:
0000
0000
0000
0000
,
0000
0000
0000
0000
,
0000
0000
0000
0000
,
0000
0000
0000
0000
,
0000
0000
0000
0000
,
1000
1000
1000
0000
0001
0001
0001
0000
,
0010
0010
0010
0000
0100
0100
0100
0000
,
0001
0001
0001
0000
1000
1000
1000
0000
,
1000
0000
0101
0000
1000
0100
1000
0000
,
0001
0000
0101
0000
1000
0001
1000
0000
,
1000
0000
0101
0000
1000
0001
1000
0000
,
0010
0000
1100
0000
0010
1000
0010
0000
,
0100
0000
0011
0000
0100
0001
0100
0000
,
0010
0000
1100
0000
1000
0001
1000
0000
,
0001
0000
1100
0000
0001
0100
0001
0000
,
1000
0000
1010
0000
0100
0001
0100
0000
,
0001
0000
1100
0000
0001
0010
0001
0000
,
1000
0000
0101
0000
1000
0100
1000
0000
,
0001
0000
1100
0000
0001
0100
0001
0000
,
1000
0000
0011
0000
1000
0010
1000
0000
,
0001
0000
1010
0000
0001
0010
0001
0000
,
1000
0001
1000
0001
1000
0000
0000
0000
0000
0000
0000
0000
0000
0000
0000
0000
,
0001
0010
0001
0010
0001
0000
0000
0000
0000
0000
0000
0000
0000
0000
0000
0000
,
1000
0010
1000
0010
1000
0000
0000
0000
0000
0000
0000
0000
0000
0000
0000
0000
,
0100
0001
0100
0001
0100
0000
0000
0000
0000
0000
0000
0000
0000
0000
0000
0000
,
1000
0010
1000
0010
1000
0000
0000
0000
0000
0000
0000
0000
0000
0000
0000
0000
,
0100
0001
0100
0001
0100
0000
0000
0000
0000
0000
0000
0000
0000
0000
0000
0000
,
0001
1000
0001
1000
0001
0000
0000
0000
0000
0000
0000
0000
0000
0000
0000
0000
,
0010
1000
0010
1000
0010
0000
0000
0000
0000
0000
0000
0000
0000
0000
0000
0000
,
1000
1000
1000
0000
1000
1000
1000
0000
,
0010
0010
0010
0000
0001
0001
0001
0000
,
0100
0100
0100
0000
1000
1000
1000
0000
,
0010
0010
0010
0000
0001
0001
0001
0000
,
0001
0001
0001
0000
1000
1000
1000
0000
,
0100
0100
0100
0000
1000
1000
1000
0000
,
0100
0100
0100
0000
0001
0001
0001
0000
,
0010
0010
0010
0000
1000
1000
1000
0000
,
0010
0010
0010
0000
0100
0100
0100
0000
,
0001
0001
0001
0000
0100
0100
0100
0000
,
1000
1000
1000
0000
0100
0100
0100
0000
,
1000
1000
1000
0000
0001
0001
0001
0000
,
1000
0000
0000
1000
0000
0000
1000
0000
0000
1000
0000
0000
1000
0000
0001
0000
,
0100
0000
0000
0100
0000
0000
0100
0000
0000
0100
0000
0000
0100
0000
0010
0000
,
0010
0000
0000
0001
0000
0000
0001
0000
0000
0001
0000
0000
0001
0000
0100
0000
,
0010
0000
0000
0001
0000
0000
0010
0000
0000
0001
0000
0000
0010
0000
1000
0000
,
1000
0000
0000
0010
0000
0000
0100
0000
0000
0100
0000
0000
0010
0000
0001
0000
,
0100
0000
0000
0100
0000
0000
1000
0000
0000
0100
0000
0000
1000
0000
0100
0000
,
1000
0000
0000
0100
0000
0000
0100
0000
0000
1000
0000
0000
0100
0000
0001
0000
,
0010
0000
0000
1000
0000
0000
0100
0000
0000
0010
0000
0000
0001
0000
1000
0000
,
1000
0000
0000
1000
0000
0000
1000
0000
0000
1000
0000
0000
0100
0000
0100
0000
,
0001
0000
0000
0001
0000
0000
0001
0000
0000
0001
0000
0000
0010
0000
0010
0000
,
1000
0000
0000
1000
0000
0000
1000
0000
0000
1000
0000
0000
0100
0000
0100
0000
,
0001
0000
0000
0001
0000
0000
0001
0000
0000
0001
0000
0000
0010
0000
0010
0000
,
0000
0100
0000
0100
0000
0100
0000
0000
0000
0010
0000
0010
0000
0010
0000
0000
,
0000
1000
0000
1000
0000
1000
0000
0000
0000
0100
0000
0100
0000
0100
0000
0000
,
0000
0001
0000
0001
0000
0001
0000
0000
0000
0010
0000
0010
0000
0010
0000
0000
,
0000
1001
0000
0000
0000
0000
0000
0000
0000
0000
0000
0000
0000
0000
0000
0000
0000
0000
0000
0000
0000
0000
0000
0000
0000
0000
0000
0000
0000
0000
0000
0000
,
0000
1001
0000
0000
0000
0000
0000
0000
0000
0000
0000
0000
0000
0000
0000
0000
0000
0000
0000
0000
0000
0000
0000
0000
0000
0000
0000
0000
0000
0000
0000
0000
,
0000
0110
0000
0000
0000
0000
0000
0000
0000
0000
0000
0000
0000
0000
0000
0000
0000
0000
0000
0000
0000
0000
0000
0000
0000
0000
0000
0000
0000
0000
0000
0000
,
0000
1001
0000
0000
0000
0000
0000
0000
0000
0000
0000
0000
0000
0000
0000
0000
0000
0000
0000
0000
0000
0000
0000
0000
0000
0000
0000
0000
0000
0000
0000
0000
;

//---------------dance-single - ----------------
#NOTEDATA:;
#CHARTNAME:;
#STEPSTYPE:dance-single;
#DESCRIPTION:;
#CHARTSTYLE:;
#DIFFICULTY:Easy;
#METER:7;
#RADARVALUES:0.315816,0.319595,0.153396,0.000000,0.144373,245.000000,228.000000,17.000000,0.000000,0.000000,0.000000,0.000000,0.000000,0.000000,0.315816,0.319595,0.153396,0.000000,0.144373,245.000000,228.000000,17.000000,0.000000,0.000000,0.000000,0.000000,0.000000,0.000000;
#CREDIT:;
#NOTES:
0000
0000
0000
0000
,
0000
0000
0000
0000
,
0000
0000
0000
0000
,
0000
0000
0000
0000
,
0000
0000
0000
0000
,
1000
1000
0001
0001
,
0010
0010
0100
0100
,
0001
0001
1000
1000
,
1000
0101
1000
1000
,
0001
0101
1000
1000
,
1000
0101
1000
1000
,
0010
1100
0010
0010
,
0100
0011
0100
0100
,
0010
1100
1000
1000
,
0001
1100
0001
0001
,
1000
1010
0100
0100
,
0001
1100
0001
0001
,
1000
0101
1000
1000
,
0001
1100
0001
0001
,
1000
0011
1000
1000
,
0001
1010
0001
0001
,
1000
1000
1000
0000
0100
0000
0100
0000
,
0001
0001
0001
0000
0010
0000
0010
0000
,
1000
1000
1000
0000
0001
0000
0001
0000
,
0100
0100
0100
0000
0001
0000
0001
0000
,
1000
1000
1000
0000
0010
0000
0010
0000
,
0100
0100
0100
0000
0001
0000
0001
0000
,
0001
0001
0001
0000
1000
0000
1000
0000
,
0010
0010
0010
0000
1000
0000
1000
0000
,
1000
1000
1000
1000
,
0010
0010
0001
0001
,
0100
0100
1000
1000
,
0010
0010
0001
0001
,
0001
0001
1000
1000
,
0100
0100
1000
1000
,
0100
0100
0001
0001
,
0010
0010
1000
1000
,
0010
0010
0100
0100
,
0001
0001
0100
0100
,
1000
1000
0100
0100
,
1000
1000
0001
0001
,
1000
0000
0000
1000
0000
0000
1000
0000
0001
0000
0000
0000
0001
0000
0000
0000
,
0100
0000
0000
0100
0000
0000
0100
0000
0010
0000
0000
0000
0010
0000
0000
0000
,
0001
0000
0000
0001
0000
0000
0001
0000
1000
0000
0000
0000
1000
0000
0000
0000
,
0010
0000
0000
0010
0000
0000
0010
0000
0100
0000
0000
0000
0100
0000
0000
0000
,
0010
0000
0000
0010
0000
0000
0010
0000
1000
0000
0000
0000
0010
0000
0000
0000
,
0100
0000
0000
0100
0000
0000
0100
0000
0001
0000
0000
0000
0001
0000
0000
0000
,
0010
0000
0000
0010
0000
0000
0010
0000
1000
0000
0000
0000
0100
0000
0000
0000
,
1000
0000
0000
1000
0000
0000
1000
0000
0010
0000
0000
0000
0100
0000
0000
0000
,
1000
0000
0000
1000
0000
0000
1000
0000
0000
1000
0000
0000
1000
0000
0000
0000
,
0001
0000
0000
0001
0000
0000
0001
0000
0000
0001
0000
0000
0001
0000
0000
0000
,
1000
0000
0000
1000
0000
0000
1000
0000
0000
1000
0000
0000
1000
0000
0000
0000
,
0001
0000
0000
0001
0000
0000
0001
0000
0000
0001
0000
0000
0001
0000
0000
0000
,
0000
0100
0000
0000
0000
0100
0000
0000
0000
0010
0000
0000
0000
0010
0000
0000
,
0000
1000
0000
0000
0000
1000
0000
0000
0000
0100
0000
0000
0000
0100
0000
0000
,
0000
0001
0000
0000
0000
0001
0000
0000
0000
0010
0000
0000
0000
0010
0000
0000
,
0000
1001
0000
0000
0000
0000
0000
0000
0000
0000
0000
0000
0000
0000
0000
0000
0000
0000
0000
0000
0000
0000
0000
0000
0000
0000
0000
0000
0000
0000
0000
0000
,
0000
1001
0000
0000
0000
0000
0000
0000
0000
0000
0000
0000
0000
0000
0000
0000
0000
0000
0000
0000
0000
0000
0000
0000
0000
0000
0000
0000
0000
0000
0000
0000
,
0000
0110
0000
0000
0000
0000
0000
0000
0000
0000
0000
0000
0000
0000
0000
0000
0000
0000
0000
0000
0000
0000
0000
0000
0000
0000
0000
0000
0000
0000
0000
0000
,
0000
1001
0000
0000
0000
0000
0000
0000
0000
0000
0000
0000
0000
0000
0000
0000
0000
0000
0000
0000
0000
0000
0000
0000
0000
0000
0000
0000
0000
0000
0000
0000
;

//---------------dance-single - ----------------
#NOTEDATA:;
#CHARTNAME:;
#STEPSTYPE:dance-single;
#DESCRIPTION:;
#CHARTSTYLE:;
#DIFFICULTY:Beginner;
#METER:3;
#RADARVALUES:0.113436,0.133164,0.018047,0.180466,0.045117,88.000000,86.000000,2.000000,20.000000,0.000000,0.000000,0.000000,0.000000,0.000000,0.113436,0.133164,0.018047,0.180466,0.045117,88.000000,86.000000,2.000000,20.000000,0.000000,0.000000,0.000000,0.000000,0.000000;
#CREDIT:;
#NOTES:
// measure 0
0000
0000
0000
0000
,  // measure 1
0000
0000
0000
0000
,  // measure 2
0000
0000
0000
0000
,  // measure 3
0000
0000
0000
0000
,  // measure 4
0000
0000
0000
0000
,  // measure 5
1000
0000
0001
0000
,  // measure 6
0010
0000
0100
0000
,  // measure 7
0001
0000
1000
0000
,  // measure 8
1000
0000
1000
0000
,  // measure 9
0001
0000
1000
0000
,  // measure 10
1000
0000
1000
0000
,  // measure 11
0010
0000
0010
0000
,  // measure 12
0100
0000
0100
0000
,  // measure 13
0010
0000
1000
0000
,  // measure 14
0001
0000
0001
0000
,  // measure 15
1000
0000
0100
0000
,  // measure 16
0001
0000
0001
0000
,  // measure 17
1000
0000
1000
0000
,  // measure 18
0001
0000
0001
0000
,  // measure 19
1000
0000
1000
0000
,  // measure 20
0001
0000
0001
0000
,  // measure 21
2000
3000
0000
0000
,  // measure 22
0002
0003
0000
0000
,  // measure 23
2000
3000
0000
0000
,  // measure 24
0200
0300
0000
0000
,  // measure 25
0002
0003
0000
0000
,  // measure 26
0200
0300
0000
0000
,  // measure 27
0002
0003
0000
0000
,  // measure 28
0020
0030
0000
0000
,  // measure 29
1000
1000
0000
0000
,  // measure 30
0010
0010
0000
0000
,  // measure 31
0100
0100
0000
0000
,  // measure 32
0001
0001
0000
0000
,  // measure 33
0001
0001
0000
0000
,  // measure 34
0100
0100
0000
0000
,  // measure 35
1000
1000
0000
0000
,  // measure 36
0010
0010
0000
0000
,  // measure 37
0010
0010
0000
0000
,  // measure 38
0001
0001
0000
0000
,  // measure 39
1000
1000
0000
0000
,  // measure 40
0100
0100
0000
0000
,  // measure 41
2000
0000
3000
0000
,  // measure 42
0200
0000
0300
0000
,  // measure 43
0002
0000
0003
0000
,  // measure 44
0020
0000
0030
0000
,  // measure 45
0020
0000
0030
0000
,  // measure 46
0200
0000
0300
0000
,  // measure 47
0002
0000
0003
0000
,  // measure 48
2000
0000
3000
0000
,  // measure 49
2000
0000
0000
3000
,  // measure 50
0002
0000
0000
0003
,  // measure 51
2000
0000
0000
3000
,  // measure 52
0002
0000
0000
0003
,  // measure 53
0000
0100
0000
0000
0000
0000
0000
0000
0000
0010
0000
0000
0000
0000
0000
0000
,  // measure 54
0000
1000
0000
0000
0000
0000
0000
0000
0000
0100
0000
0000
0000
0000
0000
0000
,  // measure 55
0000
0001
0000
0000
0000
0000
0000
0000
0000
0010
0000
0000
0000
0000
0000
0000
,  // measure 56
0000
1000
0000
0000
0000
0000
0000
0000
0000
0000
0000
0000
0000
0000
0000
0000
0000
0000
0000
0000
0000
0000
0000
0000
0000
0000
0000
0000
0000
0000
0000
0000
,  // measure 57
0000
0001
0000
0000
0000
0000
0000
0000
0000
0000
0000
0000
0000
0000
0000
0000
0000
0000
0000
0000
0000
0000
0000
0000
0000
0000
0000
0000
0000
0000
0000
0000
,  // measure 58
0000
1001
0000
0000
0000
0000
0000
0000
0000
0000
0000
0000
0000
0000
0000
0000
0000
0000
0000
0000
0000
0000
0000
0000
0000
0000
0000
0000
0000
0000
0000
0000
,  // measure 59
0000
1001
0000
0000
0000
0000
0000
0000
0000
0000
0000
0000
0000
0000
0000
0000
0000
0000
0000
0000
0000
0000
0000
0000
0000
0000
0000
0000
0000
0000
0000
0000
;
