#TITLE:Tokyo Style Speedcore;
#SUBTITLE:;
#ARTIST:m1dy;
#TITLETRANSLIT:;
#SUBTITLETRANSLIT:;
#ARTISTTRANSLIT:;
#GENRE:;
#CREDIT:;
#BANNER:;
#BACKGROUND:Tokyo Style Speedcore-bg.png;
#LYRICSPATH:;
#CDTITLE:;
#MUSIC:Tokyo Style Speedcore.ogg;
#OFFSET:-0.500000;
#SAMPLESTART:45.901009;
#SAMPLELENGTH:12.000000;
#SELECTABLE:YES;
#BPMS:0.000000=396.000000
,96.000000=198.001999
,104.000000=396.000000
,160.000000=397.010010
,164.000000=397.001007
,260.000000=198.503006
,260.750000=99.251999
,265.375000=49.632000
,266.500000=198.503006
,268.500000=396.001007
,786.000000=198.503006
,789.000000=99.251999
,790.000000=198.503006
,795.000000=397.001007
;
#STOPS:265.375000=0.560000
;
#BGCHANGES:;
#KEYSOUNDS:;
#ATTACKS:;

//---------------dance-single - ----------------
#NOTES:
     dance-single:
     :
     Hard:
     18:
     0.990083,1.455595,0.570481,0.709247,0.015418,899.000000,825.000000,74.000000,92.000000,0.000000,0.000000,0.990083,1.455595,0.570481,0.709247,0.015418,899.000000,825.000000,74.000000,92.000000,0.000000,0.000000:
// measure 0
0000
0000
0000
0000
,  // measure 1
0000
0000
0000
0000
,  // measure 2
0000
0000
0000
0000
,  // measure 3
0000
0000
0000
0000
,  // measure 4
0000
0000
0000
0000
,  // measure 5
0000
0000
0000
0000
,  // measure 6
0000
0000
0000
0000
,  // measure 7
0000
0000
0000
0000
,  // measure 8
1001
0000
0101
0000
,  // measure 9
1001
0100
0001
0010
,  // measure 10
0001
0100
0001
0010
,  // measure 11
0001
0000
1001
0000
,  // measure 12
1100
0000
1010
0000
,  // measure 13
1100
0100
1000
0010
,  // measure 14
1000
0100
0010
0100
,  // measure 15
1000
0001
0010
0001
,  // measure 16
0101
0000
0011
0000
,  // measure 17
1001
0001
0100
0010
,  // measure 18
1000
0010
0100
0001
,  // measure 19
0100
0000
0010
0000
,  // measure 20
1000
0100
0010
0001
1000
0100
0010
0001
,  // measure 21
1000
0001
1000
0001
1000
0001
1000
0001
,  // measure 22
0100
0010
1000
0000
,  // measure 23
1000
0001
1000
0001
1000
0001
1000
0001
,  // measure 24
0200
0000
0000
0000
,  // measure 25
0000
0000
0000
0300
,  // measure 26
0100
0001
1000
0001
,  // measure 27
0010
0001
1000
0100
,  // measure 28
1000
0000
0010
0000
0100
0000
0001
0010
,  // measure 29
0100
0010
0001
0100
,  // measure 30
0010
1000
0010
0100
,  // measure 31
0001
1000
0001
0100
,  // measure 32
0001
0000
1000
0010
0100
0010
1000
0000
,  // measure 33
0100
0000
1000
0100
0010
0100
1000
0000
,  // measure 34
0001
0000
0100
0010
0100
0001
0010
0000
,  // measure 35
0001
0100
0001
1000
,  // measure 36
0100
0000
0010
0000
0100
0000
1000
0010
,  // measure 37
1000
0000
0001
0100
0001
0000
0100
0010
,  // measure 38
0100
0000
0001
1000
0001
0000
1000
0100
,  // measure 39
1000
0000
0010
1000
0010
0000
0100
0000
,  // measure 40
1001
0100
0100
0100
,  // measure 41
0100
0010
0100
0010
0100
0010
0100
0010
,  // measure 42
1000
0001
0100
0001
,  // measure 43
1000
0010
1000
0100
,  // measure 44
1000
0000
0010
0000
0100
0000
0001
1000
,  // measure 45
0001
0000
1000
0000
0010
1000
0010
0000
,  // measure 46
1000
0100
1000
0010
,  // measure 47
0100
0000
0001
0100
0001
0100
0001
0000
,  // measure 48
0100
0000
0010
1000
0010
1000
0010
0000
,  // measure 49
1000
0100
1000
0000
0100
1000
0100
0000
,  // measure 50
1000
0010
1000
0001
0100
0000
0001
0000
,  // measure 51
1000
0001
0010
0001
,  // measure 52
0010
0000
0001
0000
1000
0000
0010
0100
,  // measure 53
0001
0010
0100
1000
,  // measure 54
0001
0100
0001
0100
,  // measure 55
0010
1000
0010
0000
1000
0000
0100
0000
,  // measure 56
1000
0100
0010
0001
,  // measure 57
1000
0001
1000
0001
1000
0001
1000
0001
,  // measure 58
1000
0100
0010
0100
,  // measure 59
1000
0001
0010
0001
,  // measure 60
0100
0000
0010
0000
1000
0000
0100
1000
,  // measure 61
0100
1000
0100
0010
,  // measure 62
0001
0100
0010
1000
,  // measure 63
0100
0010
0001
1000
,  // measure 64
0100
0000
1000
0000
0001
0000
0100
0001
,  // measure 65
1000
0000
0000
1100
0000
0101
0000
0000
0011
0000
0000
1010
0000
0000
1001
0000
,  // measure 66
0000
0000
0000
0000
0110
0000
0000
0000
0000
0000
0000
1001
0000
0000
0000
0000
0000
0000
0000
0000
0000
0000
0000
0000
0000
0000
0000
0000
0000
0000
0000
0000
,  // measure 67
0000
0000
1000
0100
0010
0100
1000
0000
,  // measure 68
0001
0010
0100
0010
0001
0000
0100
0000
,  // measure 69
0001
0000
1000
0010
0100
0010
1000
0000
,  // measure 70
0001
0100
0010
0100
0001
0000
1000
0000
,  // measure 71
0010
0000
1000
0010
0100
0001
0100
0000
,  // measure 72
0001
0100
0010
1000
0010
0000
1000
0000
,  // measure 73
0100
1000
0100
1000
0100
1000
0100
1000
,  // measure 74
0100
1000
0000
0010
0000
0100
0001
0000
,  // measure 75
1001
0100
0001
1000
,  // measure 76
0100
1000
0100
1000
,  // measure 77
0010
0100
0001
0100
,  // measure 78
0010
1000
0100
0010
,  // measure 79
0001
0100
0010
1000
,  // measure 80
0100
0010
0001
1000
,  // measure 81
0001
0100
0010
1000
,  // measure 82
0001
0100
0001
0100
0001
0100
0001
0000
,  // measure 83
1001
0001
1000
0100
,  // measure 84
1001
1000
0100
1000
,  // measure 85
1001
0001
0100
0010
,  // measure 86
1001
1000
0100
0010
,  // measure 87
1001
0001
0010
0100
,  // measure 88
1001
1000
0100
0010
,  // measure 89
1001
0000
1000
0001
0000
1000
0001
0000
,  // measure 90
1000
0100
0010
0001
0010
0100
1000
0000
,  // measure 91
1002
1003
0001
0100
,  // measure 92
0010
1000
0010
0100
,  // measure 93
2001
3001
0100
0010
,  // measure 94
0100
0001
1000
0100
,  // measure 95
1002
1003
0001
0100
,  // measure 96
0010
0010
0100
0001
,  // measure 97
2001
3001
1000
0001
,  // measure 98
0100
0010
0100
0010
0100
0010
0100
0010
,  // measure 99
0100
0001
1000
1100
,  // measure 100
1000
0001
0101
0001
,  // measure 101
1000
0010
0100
0101
,  // measure 102
0001
0010
1100
0100
,  // measure 103
1000
0010
0100
0101
,  // measure 104
0001
0100
1010
0010
,  // measure 105
1000
0100
0010
0001
,  // measure 106
1000
0001
1000
0001
1000
0001
1000
0000
,  // measure 107
1001
0000
0101
0000
,  // measure 108
1001
0100
0001
0010
,  // measure 109
0001
0100
0001
0010
,  // measure 110
0001
0000
1001
0000
,  // measure 111
1100
0000
1010
0000
,  // measure 112
1100
0100
1000
0010
,  // measure 113
1000
0100
0010
0100
,  // measure 114
1000
0001
0010
0001
,  // measure 115
0101
0000
0011
0000
,  // measure 116
1001
0001
0100
0010
,  // measure 117
1000
0010
0100
0001
,  // measure 118
0100
0000
0010
0000
,  // measure 119
1000
0100
0010
0001
1000
0100
0010
0001
,  // measure 120
1000
0001
1000
0001
1000
0001
1000
0001
,  // measure 121
0100
0010
1000
0001
,  // measure 122
1000
0001
1000
0001
0100
0000
1001
0000
,  // measure 123
2000
3002
0203
0320
,  // measure 124
2030
3200
0320
0032
,  // measure 125
2003
3002
0203
0320
,  // measure 126
2030
3200
0320
0230
,  // measure 127
2300
3002
0203
0320
,  // measure 128
0230
0302
0023
0230
,  // measure 129
0320
0032
2003
3020
,  // measure 130
0230
0320
2030
3200
,  // measure 131
0320
0032
0203
0320
,  // measure 132
2030
3200
0320
0032
,  // measure 133
0203
0302
2003
3020
,  // measure 134
0230
0302
0023
0230
,  // measure 135
2300
3020
0230
0302
,  // measure 136
0023
0230
2300
3020
,  // measure 137
0230
0302
2003
3200
,  // measure 138
2300
0000
3002
0000
0103
0010
0100
0010
,  // measure 139
1000
1000
0001
0001
,  // measure 140
0100
0100
0001
0001
,  // measure 141
1000
1000
0010
0010
,  // measure 142
0100
0100
0010
0010
,  // measure 143
1000
1000
0100
0100
,  // measure 144
0010
0010
0001
0001
,  // measure 145
1000
1000
0001
0001
,  // measure 146
1000
0100
0010
0001
1000
0001
0100
0010
,  // measure 147
2000
0100
3200
0010
,  // measure 148
0320
0001
0032
0100
,  // measure 149
0203
0010
0320
1000
,  // measure 150
2030
0100
3010
0001
,  // measure 151
0002
0100
0203
0010
,  // measure 152
0320
1000
2030
0100
,  // measure 153
3200
1000
2300
0001
,  // measure 154
3001
0000
0100
0001
0100
0000
0001
0000
,  // measure 155
0020
0001
0032
0100
,  // measure 156
0203
0010
0320
1000
,  // measure 157
2030
0100
3200
0010
,  // measure 158
0320
0001
0031
1000
,  // measure 159
0002
0100
0203
0010
,  // measure 160
0320
1000
2030
0001
,  // measure 161
3001
0000
0000
0100
0001
0000
1000
0000
,  // measure 162
0001
1000
0001
0000
1001
0000
0000
0000
,  // measure 163
1100
1000
1000
1000
,  // measure 164
1100
0100
0100
0100
,  // measure 165
0110
0010
0010
0010
,  // measure 166
0011
0001
0001
0001
,  // measure 167
0101
0100
0100
0100
,  // measure 168
0110
0010
0010
0010
,  // measure 169
1010
1000
1000
1000
,  // measure 170
1100
0100
0100
0100
,  // measure 171
0110
0010
0010
0010
,  // measure 172
0011
0001
0001
0001
,  // measure 173
1001
1000
1000
1000
,  // measure 174
1010
0010
0010
0010
,  // measure 175
0110
0100
0100
0100
,  // measure 176
0101
0001
0001
0001
,  // measure 177
0101
0100
0010
0100
0010
0100
0010
0100
,  // measure 178
0001
1000
0001
1000
0001
1000
0001
1000
,  // measure 179
1001
0000
0101
0000
,  // measure 180
1001
0100
0001
0010
,  // measure 181
0001
0100
0001
0010
,  // measure 182
0001
0000
1001
0000
,  // measure 183
1100
0000
1010
0000
,  // measure 184
1100
0100
1000
0010
,  // measure 185
1000
0100
0010
0100
,  // measure 186
1000
0001
0010
0001
,  // measure 187
0101
0000
0011
0000
,  // measure 188
1001
0001
0100
0010
,  // measure 189
1000
0010
0100
0001
,  // measure 190
0100
0000
0010
0000
,  // measure 191
1000
0100
0010
0001
1000
0100
0010
0001
,  // measure 192
1000
0001
1000
0001
1000
0001
1000
0001
,  // measure 193
0100
0010
1000
0000
,  // measure 194
1000
0001
1000
0001
1000
0001
1000
0001
,  // measure 195
0200
0000
0000
0000
,  // measure 196
0000
0000
0000
0000
,  // measure 197
0000
0000
0000
0000
,  // measure 198
0000
0000
0300
1001
;

//---------------dance-single - ----------------
#NOTES:
     dance-single:
     :
     Challenge:
     20:
     1.193826,2.374918,0.940524,0.477971,0.227422,1084.000000,962.000000,122.000000,62.000000,0.000000,0.000000,1.193826,2.374918,0.940524,0.477971,0.227422,1084.000000,962.000000,122.000000,62.000000,0.000000,0.000000:
// measure 0
0000
0000
0000
0000
,  // measure 1
0000
0000
0000
0000
,  // measure 2
0000
0000
0000
0000
,  // measure 3
0000
0000
0000
0000
,  // measure 4
0000
0000
0000
0000
,  // measure 5
0000
0000
0000
0000
,  // measure 6
0000
0000
0000
0001
,  // measure 7
0100
0010
1000
0001
,  // measure 8
1001
0000
0101
0000
,  // measure 9
1001
0100
0001
0010
,  // measure 10
0001
0100
0001
0000
0001
0000
0010
0000
,  // measure 11
0001
0000
1001
0000
,  // measure 12
1100
0000
1010
0000
,  // measure 13
1100
0100
1000
0010
,  // measure 14
1000
0100
1000
0000
0010
0000
0100
0000
,  // measure 15
0001
0001
0010
0001
,  // measure 16
0101
0000
0011
0000
,  // measure 17
1001
0001
0100
0010
,  // measure 18
1000
0100
0010
0000
0100
0000
1000
0000
,  // measure 19
0100
0000
1010
0000
,  // measure 20
1000
0100
0010
0001
1000
0100
0010
0001
,  // measure 21
1000
0001
1000
0001
1000
0001
1000
0001
,  // measure 22
0100
0010
1000
0000
,  // measure 23
1000
0001
1000
0001
1000
0001
1000
0001
1000
0001
1000
0001
,  // measure 24
0200
0000
0000
0000
,  // measure 25
0000
0000
0000
0300
,  // measure 26
0100
0001
1000
0001
,  // measure 27
0010
0001
1000
0100
,  // measure 28
1000
0000
0010
0000
0100
0000
0001
0010
,  // measure 29
0100
0010
0001
0100
,  // measure 30
0010
1000
0010
0100
,  // measure 31
0001
1000
0001
0100
,  // measure 32
0001
0000
1000
0010
0100
0010
1000
0000
,  // measure 33
0100
0000
0000
0000
1000
0000
0100
0000
0010
0100
1000
0100
0010
0000
0000
0000
,  // measure 34
0001
0000
0000
0000
0100
0010
0100
0000
0001
0000
0010
0000
0001
0000
0000
0000
,  // measure 35
0100
0100
0001
1000
,  // measure 36
0100
0000
0010
0000
0001
0000
1000
0001
,  // measure 37
1000
0001
0100
0001
0100
0001
0010
0001
,  // measure 38
0010
0001
1000
0001
1000
0000
0010
0000
1000
0000
0010
1000
0100
1000
0001
0000
,  // measure 39
0100
0000
0001
0000
0100
0001
0010
0001
0100
0000
0010
0000
1000
0000
0001
0000
,  // measure 40
1001
0110
1001
0110
,  // measure 41
1010
0010
1000
0010
1000
0010
1000
0010
,  // measure 42
1010
0010
0100
0001
,  // measure 43
1000
0010
1000
0100
,  // measure 44
1000
0000
0010
0000
0100
0000
0001
1000
,  // measure 45
0001
0000
1000
0000
0010
1000
0010
0000
,  // measure 46
1000
0100
1000
0010
,  // measure 47
0100
0000
0001
0100
0001
0100
0001
0000
,  // measure 48
0100
0000
0010
1000
0010
1000
0010
0000
,  // measure 49
1000
0100
1000
0000
0100
1000
0100
0000
,  // measure 50
1000
0100
0010
0100
1000
0010
0100
0010
1000
0000
0000
0000
0100
0000
0000
0000
,  // measure 51
1000
0001
0010
0001
,  // measure 52
0010
0000
0001
0000
1000
0000
0010
0100
,  // measure 53
0001
0010
0100
1000
,  // measure 54
0001
0100
0001
0100
,  // measure 55
0010
1000
0010
0000
1000
0000
0100
0000
,  // measure 56
1000
0100
0010
0001
,  // measure 57
1000
0100
0010
0001
1000
0100
0010
0001
1000
0100
0010
0001
,  // measure 58
1000
0100
0010
0100
,  // measure 59
1000
0001
0010
0001
,  // measure 60
0100
0000
0010
0000
1000
0000
0100
1000
,  // measure 61
0100
1000
0100
0010
,  // measure 62
0001
0100
0010
1000
,  // measure 63
0100
0010
0001
1000
,  // measure 64
0100
0000
1000
0000
0001
0000
0100
0001
,  // measure 65
1000
0000
0000
1100
0000
0101
0000
0000
0011
0000
0000
1010
0000
0000
1001
0000
,  // measure 66
0000
0000
0000
0000
0110
0000
0000
0000
0000
0000
0000
1001
0000
0000
0000
0000
0000
0000
0000
0000
1000
0001
1000
0001
1000
0001
1000
0001
1000
0001
1000
0001
,  // measure 67
1000
0001
1000
0001
1000
0000
0000
0000
1000
0000
0000
0000
0001
0000
0000
0000
1000
0000
0000
0000
0001
0000
0000
0000
0100
0000
0000
0000
0001
0000
0000
0000
,  // measure 68
0100
0010
1000
0100
0010
0001
1000
0100
,  // measure 69
0010
0001
0100
0001
0100
0010
1000
0010
,  // measure 70
1000
0100
1000
0010
0100
0001
0010
0001
,  // measure 71
0100
0010
1000
0100
0010
0001
1000
0100
,  // measure 72
0010
0001
0100
0010
0100
0010
1000
0001
,  // measure 73
1000
0001
1000
0100
0010
0001
1000
0100
,  // measure 74
1000
0100
0000
0010
0000
0100
1000
0000
,  // measure 75
1001
0100
0001
1000
,  // measure 76
0100
1000
0100
1000
,  // measure 77
0010
0100
0001
0100
,  // measure 78
0010
1000
0100
0010
,  // measure 79
0001
0100
0010
1000
,  // measure 80
0100
0010
0001
1000
,  // measure 81
0001
0100
0010
1000
,  // measure 82
0001
0100
0001
0100
0001
0100
0001
0000
,  // measure 83
1001
0001
1000
0100
,  // measure 84
1001
1000
0100
1000
,  // measure 85
1001
0001
0100
0010
,  // measure 86
1001
1000
0100
0010
,  // measure 87
1001
0001
0010
0100
,  // measure 88
1001
1000
0100
0010
,  // measure 89
1001
0000
1000
0001
0000
1000
0001
0000
,  // measure 90
1000
0100
0010
0001
0010
0100
1000
0000
,  // measure 91
1002
1003
0001
0100
,  // measure 92
0010
1000
0010
0100
,  // measure 93
2001
3001
0100
0010
,  // measure 94
0100
0001
1000
0100
,  // measure 95
1002
1003
0001
0100
,  // measure 96
0010
0010
0100
0001
,  // measure 97
2001
3001
1000
0001
,  // measure 98
0100
0010
0100
0010
0100
0010
0100
0010
,  // measure 99
0100
0001
1000
1100
,  // measure 100
1000
0001
0101
0001
,  // measure 101
1000
0010
0100
0101
,  // measure 102
0001
0010
1100
0100
,  // measure 103
1000
0010
0100
0101
,  // measure 104
0001
0100
1010
0010
,  // measure 105
1000
0100
0010
0001
1000
0100
0010
0001
,  // measure 106
1000
0000
0001
0000
1000
0000
0001
0000
1000
0001
1000
0001
1000
0000
0000
0000
,  // measure 107
1001
0000
0101
0000
,  // measure 108
1001
0100
0001
0010
,  // measure 109
0001
0100
0001
0010
,  // measure 110
0001
0000
1001
0000
,  // measure 111
1100
0000
1010
0000
,  // measure 112
1100
0100
1000
0010
,  // measure 113
1000
0100
0010
0100
,  // measure 114
1000
0001
0010
0001
,  // measure 115
0101
0000
0011
0000
,  // measure 116
1001
0001
0100
0010
,  // measure 117
1000
0010
0100
0001
,  // measure 118
0100
0000
0010
0000
,  // measure 119
1000
0100
0010
0001
1000
0100
0010
0001
,  // measure 120
1000
0001
1000
0001
1000
0001
1000
0001
,  // measure 121
0100
0010
1000
0001
,  // measure 122
1000
0001
1000
0001
0100
0000
1001
0000
,  // measure 123
0101
0001
0011
0010
,  // measure 124
0011
0001
1001
1000
,  // measure 125
1100
0100
1100
1000
,  // measure 126
1010
0010
0110
0100
,  // measure 127
0101
0001
0011
0010
,  // measure 128
0011
0001
1001
1000
,  // measure 129
1100
0100
1100
1000
,  // measure 130
1010
0010
0110
0100
,  // measure 131
0101
0001
0011
0010
,  // measure 132
0011
0001
1001
1000
,  // measure 133
1100
0100
1100
1000
,  // measure 134
1010
0010
0110
0100
,  // measure 135
0101
0001
0011
0010
,  // measure 136
0011
0001
1001
1000
,  // measure 137
1100
0100
1100
1000
,  // measure 138
1010
0000
0000
0010
0000
0000
0100
0010
0100
0010
0100
0010
,  // measure 139
1000
0001
1000
0001
0100
0010
0100
0010
,  // measure 140
1000
0010
0100
0010
0100
0001
0010
0001
,  // measure 141
1000
0010
1000
0001
0010
0100
0010
0001
,  // measure 142
0100
0010
0100
0001
0010
0100
0010
0001
,  // measure 143
1000
0001
1000
0010
0100
1000
0100
0010
,  // measure 144
1000
0100
0010
0100
1000
0010
0100
0010
,  // measure 145
1000
0001
1000
0001
0100
0010
0100
0010
,  // measure 146
1000
0100
0010
0001
1000
0100
0010
0001
,  // measure 147
2000
3002
0203
0320
,  // measure 148
2030
3002
0203
0320
,  // measure 149
2030
3200
0320
0032
,  // measure 150
2003
3200
0320
0032
,  // measure 151
2003
3020
0230
0302
,  // measure 152
2003
3020
0230
0302
,  // measure 153
2003
3200
0320
0032
,  // measure 154
2003
0000
3010
0100
0020
0000
2030
0000
,  // measure 155
3200
2300
3020
0230
,  // measure 156
0302
0023
0032
0203
,  // measure 157
0320
2030
3200
0320
,  // measure 158
0230
2300
3002
0203
,  // measure 159
0320
0230
0302
0023
,  // measure 160
0032
0203
0302
2003
,  // measure 161
3002
0000
0103
0010
0100
0000
0001
0000
,  // measure 162
1000
0001
1000
0001
1001
0000
0000
0000
,  // measure 163
1100
1000
1100
1000
,  // measure 164
1100
0100
0110
0100
,  // measure 165
0110
0010
0011
0010
,  // measure 166
0011
0000
0001
0100
0101
0000
0001
0000
,  // measure 167
0101
0100
0110
0100
,  // measure 168
0110
0010
0110
0010
,  // measure 169
1010
1000
1010
1000
,  // measure 170
1100
0000
0100
0010
0110
0010
0100
0000
,  // measure 171
0110
0010
0011
0010
,  // measure 172
0011
0001
1001
0001
,  // measure 173
1001
1000
1010
1000
,  // measure 174
1010
0000
0010
0100
0110
0000
0010
0000
,  // measure 175
0110
0100
0101
0100
,  // measure 176
0101
0001
0101
0001
,  // measure 177
0101
0100
0010
0100
0010
0100
0010
0100
,  // measure 178
0001
1000
0001
1000
0001
1000
0001
1000
,  // measure 179
1001
0000
0101
0000
,  // measure 180
1001
0100
0001
0010
,  // measure 181
0001
0100
0001
0010
,  // measure 182
0001
0000
0000
0000
1001
0000
1000
0100
,  // measure 183
1100
0000
1010
0000
,  // measure 184
1100
0000
0100
0000
1000
0000
1000
0001
,  // measure 185
0010
0000
0100
0000
0010
0100
1000
0100
,  // measure 186
0010
0000
0001
0000
0010
0001
0100
0001
,  // measure 187
0010
0001
1000
0010
0100
0001
1000
0100
,  // measure 188
0010
0001
1000
0100
0010
0001
1000
0001
,  // measure 189
0100
0010
1000
0001
0100
0010
1000
0100
,  // measure 190
0010
0100
1000
0001
0010
0100
0010
0001
,  // measure 191
1000
0100
0010
0001
1000
0100
0010
0001
,  // measure 192
1000
0001
1000
0001
1000
0001
1000
0001
,  // measure 193
0100
0010
1000
0000
,  // measure 194
1000
0001
1000
0001
1000
0001
1000
0001
1000
0001
1000
0001
,  // measure 195
0200
0000
0000
0000
,  // measure 196
0000
0000
0000
0000
,  // measure 197
0000
0000
0000
0000
,  // measure 198
0000
0000
0300
1001
;

//---------------dance-single - ----------------
#NOTES:
     dance-single:
     :
     Medium:
     15:
     0.766516,0.995933,0.477971,0.501099,0.015418,696.000000,634.000000,62.000000,65.000000,0.000000,0.000000,0.766516,0.995933,0.477971,0.501099,0.015418,696.000000,634.000000,62.000000,65.000000,0.000000,0.000000:
0000
0000
0000
0000
,
0000
0000
0000
0000
,
0000
0000
0000
0000
,
0000
0000
0000
0000
,
0000
0000
0000
0000
,
0000
0000
0000
0000
,
0000
0000
0000
0000
,
0000
0000
0000
0000
,
1001
0000
0101
0000
,
1001
0000
0001
0010
,
0001
0100
0001
0010
,
0001
0000
1001
0000
,
1100
0000
1010
0000
,
1100
0000
1000
0010
,
1000
0100
0010
0100
,
1000
0001
0010
0000
,
0101
0000
0011
0000
,
1001
0000
0100
0010
,
1000
0010
0100
0001
,
0100
0000
0010
0000
,
1000
0100
0010
0001
,
1000
0100
0010
0001
,
0100
0010
0110
0000
,
2002
0000
0000
3003
,
0220
0000
0000
0000
,
0000
0000
0000
0300
,
0130
0001
1000
0001
,
0010
0001
1000
0100
,
1000
0010
0100
0001
,
0001
0010
0001
0100
,
0010
1000
0010
0100
,
0001
1000
0001
0100
,
0001
1000
0100
1000
,
0100
1000
0010
1000
,
0001
0100
0010
0100
,
0001
0100
0001
1000
,
0100
0010
0100
1000
,
1000
0001
0001
0100
,
0100
0001
0001
1000
,
1000
0010
0010
0200
,
0010
0010
0010
0310
,
0100
0010
0100
0010
,
1000
0001
0100
0001
,
1000
0010
1000
0100
,
1000
0000
0010
0000
0100
0000
0001
1000
,
0001
1000
0010
0010
,
1000
0100
1000
0010
,
0100
0001
0100
0001
,
0100
0010
1000
0010
,
1000
1000
0100
0100
,
1000
0010
0100
0001
,
1000
0001
0010
0001
,
0010
0000
0001
0000
1000
0000
0010
0100
,
0001
0010
0100
1000
,
0001
0100
0001
0100
,
0010
1000
0010
0000
1000
0000
0100
0000
,
1000
0100
0010
0001
,
2002
0000
0000
3003
,
1000
0100
0010
0100
,
1000
0001
0010
0001
,
0100
0000
0010
0000
1000
0000
0100
1000
,
0100
1000
0100
0010
,
0001
0100
0010
1000
,
0100
0010
0001
1000
,
0100
1000
0001
0100
,
0100
0000
0000
0100
0000
0100
0000
0000
0100
0000
0000
0100
0000
0000
0100
0000
,
0000
0000
0000
0000
0100
0000
0000
0000
0000
0000
0000
1001
0000
0000
0000
0000
0000
0000
0000
0000
0000
0000
0000
0000
0000
0000
0000
0000
0000
0000
0000
0000
,
0000
1000
0001
0100
,
0001
1000
0010
1000
,
0100
1000
0100
0010
,
0001
0010
0001
0100
,
0001
1000
0010
1000
,
0100
1000
0100
1000
,
0001
1000
0001
1000
,
0100
1000
0000
0010
0000
0100
0001
0000
,
1001
0100
0001
1000
,
0100
1000
0100
1000
,
0010
0100
0001
0100
,
0010
1000
0100
0010
,
0001
0100
0010
1000
,
0100
0010
0001
1000
,
0001
0100
0010
1000
,
0001
0000
0001
0100
0001
0100
0001
0000
,
1001
0001
1000
0100
,
1000
1000
0100
1000
,
0001
0001
0100
0010
,
1000
1000
0100
0010
,
0001
0001
0010
0100
,
1000
1000
0100
0010
,
0001
0000
1000
0001
0000
1000
0001
0000
,
1000
0001
0000
1000
0001
0000
1001
0000
,
1000
1000
0001
0100
,
0010
1000
0010
0100
,
0001
0001
0100
0010
,
0100
0001
1000
0100
,
1000
1000
0001
0100
,
0010
0010
0100
0001
,
0001
0001
1000
0001
,
0100
0010
0100
0010
0100
0010
0100
0010
,
0100
0001
1000
0100
,
1000
0001
0100
0001
,
1000
0010
0100
0001
,
1000
0010
1000
0100
,
1000
0010
0100
0001
,
1000
0100
1000
0010
,
1000
0100
0010
0001
,
1000
0001
1000
0001
1000
0000
0100
0000
,
1001
0000
0101
0000
,
1001
0000
0001
0010
,
0001
0100
0001
0010
,
0001
0000
1001
0000
,
1100
0000
1010
0000
,
1100
0000
1000
0010
,
1000
0100
0010
0100
,
1000
0001
0010
0000
,
0101
0000
0011
0000
,
1001
0000
0100
0010
,
1000
0010
0100
0001
,
0100
0000
0010
0000
,
1001
0000
0110
0000
,
1001
0000
1000
0001
,
0100
0010
1000
0001
,
1000
0001
0100
0010
,
2000
0000
3200
0000
,
0320
0000
0032
0000
,
2003
0000
3200
0000
,
0320
0000
0032
0000
,
2003
0000
3002
0000
,
0203
0000
0320
0000
,
2030
0000
3002
0000
,
0203
0000
0320
0000
,
2030
0000
3200
0000
,
0320
0000
0230
0000
,
2300
0000
3002
0000
,
0023
0000
0230
0000
,
0320
0000
0032
0000
,
2003
0000
3020
0000
,
0230
0000
0302
0000
,
2000
0000
0000
3003
,
1000
0100
1000
0000
,
0001
0100
0001
0000
,
1000
0100
1000
0000
,
0001
0100
0001
0000
,
1000
0010
1000
0000
,
0001
0010
0001
0000
,
1000
0010
1000
0000
,
0001
0010
0001
0000
,
2000
0000
3200
0000
,
0320
0000
0032
0000
,
0203
0000
0320
0000
,
2030
0000
3100
0010
,
0002
0000
0203
0000
,
0320
0000
2030
0000
,
3200
0000
2300
0000
,
3001
0000
0100
0001
0100
0000
0001
0000
,
0020
0000
0032
0000
,
0203
0000
0320
0000
,
2030
0000
3200
0000
,
0320
0000
0031
1000
,
0002
0000
0203
0000
,
0320
0000
2030
0000
,
3001
0000
0000
0100
0001
0000
1000
0000
,
0001
1000
0001
0000
1001
0000
0000
0000
,
1100
1000
1000
1000
,
1100
0100
0100
0100
,
0110
0010
0010
0010
,
0011
0001
0001
0001
,
0101
0100
0100
0100
,
0110
0010
0010
0010
,
1010
1000
1000
1000
,
1100
0100
0100
0100
,
0110
0010
0010
0010
,
0011
0001
0001
0001
,
1001
1000
1000
1000
,
1010
0010
0010
0010
,
0110
0100
0100
0100
,
0101
0001
0001
0001
,
1001
1000
1000
1000
,
1100
0100
0100
0100
,
1100
0000
0101
0000
,
1001
0000
0001
0010
,
0001
0100
0001
0010
,
0001
0000
1001
0000
,
1100
0000
1010
0000
,
1100
0000
1000
0010
,
1000
0100
0010
0100
,
1000
0001
0010
0000
,
0101
0000
0011
0000
,
1001
0000
0100
0010
,
1000
0010
0100
0001
,
0100
0000
0010
0000
,
1001
0000
0110
0000
,
1001
0000
1000
0001
,
1000
0001
0100
0000
,
2002
0000
3000
0000
,
0200
0000
0000
0000
,
0000
0000
0000
0000
,
0000
0000
0000
0000
,
0000
0000
0300
0013
;

//---------------dance-single - ----------------
#NOTES:
     dance-single:
     :
     Easy:
     13:
     0.675106,0.766103,0.339205,0.578191,0.003855,613.000000,569.000000,44.000000,75.000000,0.000000,0.000000,0.675106,0.766103,0.339205,0.578191,0.003855,613.000000,569.000000,44.000000,75.000000,0.000000,0.000000:
0000
0000
0000
0000
,
0000
0000
0000
0000
,
0000
0000
0000
0000
,
0000
0000
0000
0000
,
0000
0000
0000
0000
,
0000
0000
0000
0000
,
0000
0000
0000
0000
,
0000
0000
0000
0000
,
1001
0000
0100
0000
,
1001
0000
0001
0000
,
0001
0100
0001
0010
,
0001
0000
0001
0000
,
1001
0000
1000
0000
,
1100
0000
1000
0000
,
1000
0100
0010
0100
,
1000
0000
0010
0000
,
0101
0000
0001
0000
,
1001
0000
0100
0000
,
1000
0010
0100
0001
,
0100
0000
0010
0000
,
1000
0100
0010
0001
,
1000
0100
0010
0001
,
0100
0010
0100
0000
,
2002
0000
0000
3003
,
0220
0000
0000
0000
,
0000
0000
0000
0300
,
0130
0001
1000
0001
,
0010
0001
1000
0100
,
1000
0010
0100
0001
,
0001
0010
0001
0100
,
0010
1000
0010
0100
,
0001
1000
0001
0100
,
0001
1000
0100
1000
,
0100
1000
0010
1000
,
0001
0100
0010
0100
,
0001
0100
0001
1000
,
0100
0010
0100
1000
,
0001
1000
0001
0100
,
0010
0100
0010
1000
,
0001
0100
0010
0200
,
0020
0000
0000
0330
,
0100
0010
0100
0010
,
1000
0001
0100
0001
,
1000
0010
1000
0100
,
1000
0010
0100
0001
,
0001
1000
0010
0010
,
1000
0100
1000
0010
,
0100
0001
0100
0001
,
0100
0010
1000
0010
,
1000
1000
0100
0100
,
1000
0010
0100
0001
,
1000
0001
0010
0001
,
0010
0001
1000
0010
,
0100
0010
0100
0001
,
0001
0100
0001
0100
,
0010
1000
0100
1000
,
0100
0010
0001
0000
,
2002
0000
0000
3003
,
1000
0100
0010
0100
,
1000
0001
0010
0001
,
0100
0010
1000
0100
,
0010
0100
1000
0010
,
0100
0001
0010
0001
,
0100
0010
1000
0100
,
1000
0001
0100
0001
,
0200
0000
0000
0000
,
0000
0000
0000
0000
0300
0000
0000
0000
0000
0000
0000
1001
0000
0000
0000
0000
0000
0000
0000
0000
0000
0000
0000
0000
0000
0000
0000
0000
0000
0000
0000
0000
,
0000
0000
0000
0000
,
1000
0000
0001
0000
,
0100
0000
0001
0000
,
1000
0000
0010
0000
,
1000
0000
0100
0000
,
0010
0000
0001
0000
,
1000
0000
0001
0000
,
1001
0000
0000
0000
,
1001
0000
0001
1000
,
0100
1000
0100
1000
,
0010
0100
0001
0100
,
0010
1000
0100
0010
,
0001
0100
0010
1000
,
0100
0010
0001
1000
,
0001
0100
0010
1000
,
0001
0100
0001
0000
,
1001
0000
1000
0100
,
1000
1000
0100
1000
,
0001
0001
0100
0010
,
1000
1000
0100
0010
,
0001
0001
0010
0100
,
1000
1000
0100
0010
,
2002
0000
0000
0000
,
0000
0000
0000
3003
,
1000
1000
0001
0100
,
0010
1000
0010
0100
,
0001
0001
0100
0010
,
0100
0001
1000
0100
,
1000
1000
0001
0100
,
0010
0010
0100
0001
,
0001
0001
1000
0001
,
0100
0010
0100
0010
,
0100
0001
1000
0100
,
1000
0001
0100
0001
,
1000
0010
0100
0001
,
1000
0010
1000
0100
,
1000
0010
0100
0001
,
1000
0100
1000
0010
,
1000
0100
0010
0001
,
1000
0001
1000
0001
,
1001
0000
0101
0000
,
1001
0000
0001
0010
,
0001
0100
0001
0010
,
0001
0000
1001
0000
,
1100
0000
1010
0000
,
1100
0000
1000
0010
,
1000
0100
0010
0100
,
1000
0001
0010
0000
,
0101
0000
0011
0000
,
1001
0000
0110
0000
,
1000
0010
0100
0001
,
0100
0000
0010
0000
,
1001
0000
0110
0000
,
1001
0000
1000
0001
,
0100
0010
1000
0001
,
1000
0001
0100
0010
,
2000
0000
3200
0000
,
0320
0000
0032
0000
,
2003
0000
3200
0000
,
0320
0000
0032
0000
,
2003
0000
3002
0000
,
0203
0000
0320
0000
,
2030
0000
3002
0000
,
0203
0000
0320
0000
,
2030
0000
3200
0000
,
0320
0000
0230
0000
,
2300
0000
3002
0000
,
0023
0000
0230
0000
,
0320
0000
0032
0000
,
2003
0000
3020
0000
,
0230
0000
0302
0000
,
2000
0000
0000
3003
,
1000
0100
1000
0000
,
0001
0100
0001
0000
,
1000
0100
1000
0000
,
0001
0100
0001
0000
,
1000
0010
1000
0000
,
0001
0010
0001
0000
,
1000
0010
1000
0000
,
0001
0010
0001
0000
,
2000
0000
3200
0000
,
0320
0000
0032
0000
,
0203
0000
0320
0000
,
2030
0000
3020
0000
,
0230
0000
0302
0000
,
0023
0000
0032
0000
,
0203
0000
0320
0000
,
2030
0000
3200
0000
,
0320
0000
0032
0000
,
0203
0000
0320
0000
,
2030
0000
3200
0000
,
0320
0000
0230
0000
,
2300
0000
3200
0000
,
0320
0000
0032
0000
,
0203
0000
0301
1000
,
0001
1000
0001
0000
,
1000
0100
1000
0100
,
0010
0001
0010
0001
,
1000
0001
1000
0001
,
0100
0010
0100
0010
,
1000
0100
0010
0001
,
1000
0100
0010
0001
,
1000
0100
0010
0001
,
1000
0100
0010
0001
,
1000
0001
1000
0001
,
1000
0001
1000
0001
,
0100
0010
0100
0010
,
0100
0010
0100
0010
,
1000
0100
0010
0001
,
1000
0100
0010
0001
,
0100
0010
1000
0001
,
0100
0010
1000
0001
,
1001
0000
0101
0000
,
1001
0000
0001
0010
,
0001
0100
0001
0010
,
0001
0000
1001
0000
,
1100
0000
1010
0000
,
1100
0000
1000
0010
,
1000
0100
0010
0100
,
1000
0001
0010
0000
,
0101
0000
0011
0000
,
1001
0000
0100
0010
,
1000
0010
0100
0001
,
0100
0000
0010
0000
,
1001
0000
0110
0000
,
1001
0000
1000
0001
,
1000
0001
0100
0000
,
2002
0000
0000
3003
,
0220
0000
0000
0000
,
0000
0000
0000
0000
,
0000
0000
0000
0000
,
0000
0000
0330
1001
;

//---------------dance-single - ----------------
#NOTES:
     dance-single:
     :
     Beginner:
     11:
     0.381055,0.766103,0.316078,0.215858,0.000000,346.000000,305.000000,41.000000,28.000000,0.000000,0.000000,0.381055,0.766103,0.316078,0.215858,0.000000,346.000000,305.000000,41.000000,28.000000,0.000000,0.000000:
0000
0000
0000
0000
,
0000
0000
0000
0000
,
0000
0000
0000
0000
,
0000
0000
0000
0000
,
0000
0000
0000
0000
,
0000
0000
0000
0000
,
0000
0000
0000
0000
,
0000
0000
0000
0000
,
1001
0000
0000
0000
,
1001
0000
0000
0000
,
0001
0000
0001
0000
,
0001
0000
0001
0000
,
1001
0000
0000
0000
,
1100
0000
0000
0000
,
1000
0000
0010
0000
,
1000
0000
0010
0000
,
0101
0000
0000
0000
,
1001
0000
0000
0000
,
1000
0000
0100
0000
,
0100
0000
0010
0000
,
1000
0000
0001
0000
,
1000
0000
0001
0000
,
1000
0000
0001
0000
,
0000
0000
0000
0000
,
0220
0000
0000
0000
,
0330
0000
0000
0000
,
0100
0000
1000
0000
,
0010
0000
1000
0000
,
1000
0000
0100
0000
,
0001
0000
0001
0000
,
0010
0000
0010
0000
,
0001
0000
0001
0000
,
1000
0000
0100
0000
,
1000
0000
0010
0000
,
1000
0000
0010
0000
,
0001
0000
0001
0000
,
0100
0000
0100
0000
,
1000
0000
0001
0000
,
0010
0000
0010
0000
,
0001
0000
1000
0000
,
1000
0000
0000
0000
,
0000
0000
0000
0000
,
1000
0000
0100
0000
,
1000
0000
0001
0000
,
1000
0000
0100
0000
,
0001
0000
0010
0000
,
0001
0000
1000
0000
,
0100
0000
0001
0000
,
0100
0000
1000
0000
,
0001
0000
0100
0000
,
1000
0000
0100
0000
,
0001
0000
0010
0000
,
0001
0000
1000
0000
,
0100
0000
0100
0000
,
0001
0000
0001
0000
,
0010
0000
0100
0000
,
0100
0000
0001
0000
,
2000
0000
0000
3000
,
1000
0000
1000
0000
,
1000
0000
1000
0000
,
0100
0000
0100
0000
,
0100
0000
0100
0000
,
0010
0000
0010
0000
,
0010
0000
0010
0000
,
0001
0000
0001
0000
,
0002
0000
0000
0000
,
0000
0003
0000
0000
,
0000
0000
0000
0000
,
1000
0000
0001
0000
,
0100
0000
0001
0000
,
1000
0000
0010
0000
,
1000
0000
0100
0000
,
0010
0000
0001
0000
,
1000
0000
0001
0000
,
1001
0000
0000
0000
,
1001
0000
0000
0000
,
0100
0000
0000
0000
,
0001
0000
0000
0000
,
1000
0000
0000
0000
,
0010
0000
0000
0000
,
1000
0000
0000
0000
,
0100
0000
0000
0000
,
0010
0000
0000
0000
,
0001
0000
0001
0000
,
1000
0000
1000
0000
,
0010
0000
0010
0000
,
0100
0000
0100
0000
,
0001
0000
1000
0000
,
0001
0000
1000
0000
,
2002
0000
0000
0000
,
0000
0000
0000
3003
,
1000
0000
0001
0000
,
0010
0000
0010
0000
,
0001
0000
0100
0000
,
0100
0000
1000
0000
,
1000
0000
0001
0000
,
0010
0000
0100
0000
,
0001
0000
1000
0000
,
0100
0000
0100
0000
,
0100
0000
1000
0000
,
0001
0000
0100
0000
,
1000
0000
0100
0000
,
0001
0000
1000
0000
,
0001
0000
0100
0000
,
1000
0000
1000
0000
,
0001
0000
0010
0000
,
1000
0000
1000
0000
,
1001
0000
0000
0000
,
1001
0000
0000
0000
,
0001
0000
0001
0000
,
0001
0000
0000
0000
,
1100
0000
0000
0000
,
1100
0000
0000
0000
,
1000
0000
0010
0000
,
1000
0000
0010
0000
,
0101
0000
0000
0000
,
1001
0000
0000
0000
,
1000
0000
0100
0000
,
0100
0000
0010
0000
,
1001
0000
0000
0000
,
1001
0000
0000
0000
,
0100
0000
1000
0000
,
1000
0000
0100
0000
,
1000
0000
0100
0000
,
0010
0000
0001
0000
,
1000
0000
0100
0000
,
0010
0000
0001
0000
,
1000
0000
0001
0000
,
0100
0000
0010
0000
,
1000
0000
0001
0000
,
0100
0000
0010
0000
,
1000
0000
0100
0000
,
0010
0000
0100
0000
,
1000
0000
0001
0000
,
0010
0000
0100
0000
,
0010
0000
0001
0000
,
1000
0000
0010
0000
,
0100
0000
0001
0000
,
2002
0000
0000
3003
,
1001
0000
1000
0000
,
0001
0000
0001
0000
,
1000
0000
1000
0000
,
0001
0000
0001
0000
,
1000
0000
1000
0000
,
0001
0000
0001
0000
,
1000
0000
1000
0000
,
0001
0000
0001
0000
,
2000
0000
3000
0000
,
0020
0000
0030
0000
,
0200
0000
0300
0000
,
0002
0000
0003
0000
,
0200
0000
0300
0000
,
0020
0000
0030
0000
,
0200
0000
0300
0000
,
0020
0000
0030
0000
,
2000
0000
3000
0000
,
0002
0000
0003
0000
,
2000
0000
3000
0000
,
0020
0000
0030
0000
,
0200
0000
0300
0000
,
0002
0000
0003
0000
,
0200
0000
0300
0000
,
0002
0000
0003
0000
,
1000
0000
1000
0000
,
0010
0000
0010
0000
,
1000
0000
1000
0000
,
0100
0000
0100
0000
,
0001
0000
0001
0000
,
0010
0000
0010
0000
,
0001
0000
0001
0000
,
0100
0000
0100
0000
,
1000
0000
1000
0000
,
0001
0000
0001
0000
,
0100
0000
0100
0000
,
0010
0000
0010
0000
,
1000
0000
1000
0000
,
0100
0000
0100
0000
,
0010
0000
0010
0000
,
0001
0000
0001
0000
,
1001
0000
0000
0000
,
1001
0000
0000
0000
,
0110
0000
0000
0000
,
0110
0000
0000
0000
,
1100
0000
0000
0000
,
1100
0000
0000
0000
,
0011
0000
0000
0000
,
0011
0000
0000
0000
,
0101
0000
0000
0000
,
0101
0000
0000
0000
,
1010
0000
0000
0000
,
1010
0000
0000
0000
,
1001
0000
0110
0000
,
1001
0000
0110
0000
,
1001
0000
0110
0000
,
2002
0000
0000
3003
,
0220
0000
0000
0000
,
0000
0000
0000
0000
,
0000
0000
0000
0000
,
0000
0000
0330
1001
;
