#TITLE:That's The Way;
#SUBTITLE:(KCP Remix);
#ARTIST:X-TREME;
#TITLETRANSLIT:;
#SUBTITLETRANSLIT:;
#ARTISTTRANSLIT:;
#GENRE:;
#CREDIT:;
#BANNER:;
#BACKGROUND:;
#LYRICSPATH:;
#CDTITLE:;
#MUSIC:X-Treme That's The Way (KCP Remix).ogg;
#OFFSET:-0.220000;
#SAMPLESTART:5.799963;
#SAMPLELENGTH:14.999995;
#SELECTABLE:YES;
#BPMS:0.000000=172.020020
;
#STOPS:
;
#BGCHANGES:;
#KEYSOUNDS:;
#ATTACKS:;

//---------------dance-single - ----------------
#NOTES:
     dance-single:
     :
     Challenge:
     12:
     0.593293,0.606195,0.438875,0.097528,0.000000,511.000000,457.000000,54.000000,12.000000,0.000000,0.000000,0.593293,0.606195,0.438875,0.097528,0.000000,511.000000,457.000000,54.000000,12.000000,0.000000,0.000000:
// measure 0
0000
0000
0000
0000
,  // measure 1
0000
0000
0000
0000
,  // measure 2
0000
0000
0000
0000
,  // measure 3
0000
0000
0000
0000
,  // measure 4
1001
0100
0001
0100
,  // measure 5
1001
0100
1000
0100
,  // measure 6
1000
0100
1000
0010
1000
0100
1000
0010
,  // measure 7
0100
0001
0100
0010
0100
0001
0010
0000
,  // measure 8
1001
0100
0001
0100
,  // measure 9
1001
0100
1000
0100
,  // measure 10
1001
1000
0100
0010
,  // measure 11
1001
0001
0010
0100
,  // measure 12
1002
0100
1000
0103
,  // measure 13
2001
0100
0001
3100
,  // measure 14
2001
0010
0100
3010
,  // measure 15
1002
0100
0010
0103
,  // measure 16
1000
0100
0010
0001
0100
0010
1000
0100
,  // measure 17
0010
0100
1000
0001
0100
0010
0100
0000
,  // measure 18
0001
0100
0010
0100
0001
0010
0001
0100
,  // measure 19
0001
1000
0001
0100
0001
0010
0001
0000
,  // measure 20
1000
0010
0100
0010
1000
0100
0010
0100
,  // measure 21
1000
0010
0100
0001
0010
0001
0100
0000
,  // measure 22
0001
0100
0010
0100
0001
0010
0001
0100
,  // measure 23
0001
0100
0010
1000
0100
1000
0010
0000
,  // measure 24
1000
0100
0010
0100
0001
0100
0010
0100
,  // measure 25
1000
0100
0010
0100
0001
0100
0010
0100
,  // measure 26
1000
0010
0100
0001
0100
0010
0100
0001
,  // measure 27
1000
0001
0100
0010
0100
0010
1000
0000
,  // measure 28
0001
0100
0010
0100
1000
0100
0010
0100
,  // measure 29
0001
0100
0010
0100
1000
0100
0010
0100
,  // measure 30
0001
1000
0100
0010
0001
0100
0010
1000
,  // measure 31
0100
0010
0100
1000
0010
0100
0010
0000
,  // measure 32
1002
1000
0100
0100
,  // measure 33
0010
0010
0100
0103
,  // measure 34
2001
0001
0010
0010
,  // measure 35
0100
0100
0010
3010
,  // measure 36
1002
0100
0010
0100
,  // measure 37
1000
0100
0010
0103
,  // measure 38
2001
0100
0010
0100
,  // measure 39
0001
0100
0010
3100
,  // measure 40
1001
0100
0100
0100
,  // measure 41
0100
0100
0100
0100
,  // measure 42
1001
0010
0010
0010
,  // measure 43
0010
0010
0010
0010
,  // measure 44
1001
0100
0100
0100
,  // measure 45
1001
0010
0010
0010
,  // measure 46
1001
0100
0100
0100
,  // measure 47
1001
0010
0010
0010
,  // measure 48
1001
0100
1001
0010
,  // measure 49
1001
0100
1001
0010
,  // measure 50
1001
1100
1001
0101
,  // measure 51
1001
1010
1001
0011
,  // measure 52
1000
0100
1000
0100
1000
0010
1000
0010
,  // measure 53
0100
0001
0100
0001
0010
0001
0010
0000
,  // measure 54
0001
0100
0001
0100
0010
0100
0010
0100
,  // measure 55
0001
0100
0001
0100
0010
0100
0010
0000
,  // measure 56
1000
0100
0010
0100
1000
0010
0100
0010
,  // measure 57
1000
0100
0010
0100
1000
0010
0100
0000
,  // measure 58
0001
0100
0010
0100
0001
0010
0100
0010
,  // measure 59
0001
0100
0010
0100
0001
0010
0100
0000
,  // measure 60
1000
0001
0100
0001
1000
0001
0100
0001
,  // measure 61
1000
0001
0100
0001
1000
0001
0100
0000
,  // measure 62
0001
1000
0010
1000
0001
1000
0010
1000
,  // measure 63
0001
1000
0010
1000
0001
1000
0010
0000
,  // measure 64
1000
0100
0010
0001
0100
0010
1000
0100
,  // measure 65
0010
0100
1000
0001
0100
0010
0100
0000
,  // measure 66
0001
0100
0010
0100
0001
0010
0001
0100
,  // measure 67
0001
1000
0001
0100
0001
0010
0001
0000
,  // measure 68
1002
1000
0100
0100
,  // measure 69
0010
0010
0100
0103
,  // measure 70
2001
0001
0010
0010
,  // measure 71
0100
0100
0010
3010
,  // measure 72
1002
0100
0010
0100
,  // measure 73
1000
0100
0010
0103
,  // measure 74
2001
0100
0010
0100
,  // measure 75
0001
0100
0010
3100
,  // measure 76
1001
0100
0100
0100
,  // measure 77
0100
0100
0100
0100
,  // measure 78
1001
0010
0010
0010
,  // measure 79
0010
0010
0010
0010
,  // measure 80
1001
0100
0100
0100
,  // measure 81
1001
0010
0010
0010
,  // measure 82
1001
0100
0100
0100
,  // measure 83
1001
0010
0010
0010
,  // measure 84
1001
0100
1001
0010
,  // measure 85
1001
0100
1001
0010
,  // measure 86
1001
1100
1001
0101
,  // measure 87
1001
1010
1001
0011
;
