#TITLE:That's The Way '97;
#SUBTITLE:(Scorccio Mix);
#ARTIST:X-TREME;
#TITLETRANSLIT:;
#SUBTITLETRANSLIT:;
#ARTISTTRANSLIT:;
#GENRE:;
#CREDIT:;
#BANNER:;
#BACKGROUND:;
#LYRICSPATH:;
#CDTITLE:;
#MUSIC:That's The Way (Scorccio Mix).mp3;
#OFFSET:-5.660000;
#SAMPLESTART:56.275002;
#SAMPLELENGTH:15.000003;
#SELECTABLE:YES;
#DISPLAYBPM:128.000000;
#BPMS:0.000000=128.000000
;
#STOPS:
;
#BGCHANGES:;
#KEYSOUNDS:;
#ATTACKS:;

//---------------dance-single - ----------------
#NOTES:
     dance-single:
     :
     Hard:
     12:
     0.503754,0.609445,0.283463,0.000000,0.221101,311.000000,286.000000,25.000000,0.000000,0.000000,0.000000,0.503754,0.609445,0.283463,0.000000,0.221101,311.000000,286.000000,25.000000,0.000000,0.000000,0.000000:
// measure 0
0000
0000
0000
0000
,  // measure 1
0000
0000
0000
0000
,  // measure 2
0000
0000
0000
0000
,  // measure 3
1000
0000
0000
1000
0000
0000
1000
0000
0000
1000
0000
0000
0010
0000
0100
0000
,  // measure 4
0001
0000
0000
0001
0000
0000
0001
0000
0100
0000
0010
0000
0100
0000
0000
0000
,  // measure 5
0001
0000
0000
0001
0000
0000
0001
0000
0000
0001
0000
0000
0100
0000
0010
0000
,  // measure 6
1000
0000
0000
1000
0000
0000
1000
0000
0010
0000
0100
0000
0010
0000
0000
0000
,  // measure 7
0100
0000
0000
0100
0000
0000
0100
0000
0000
0100
0000
0000
0001
0000
1000
0000
,  // measure 8
0100
0000
0000
0100
0000
0000
0100
0000
0010
0000
0100
0000
1000
0000
0100
0000
,  // measure 9
0010
0000
0000
0010
0000
0000
0010
0000
0000
0010
0000
0000
0001
0000
1000
0000
,  // measure 10
0010
0000
0000
0010
0000
0000
0010
0000
0100
0000
0010
0000
0100
0000
0010
0000
,  // measure 11
1000
0100
1000
0100
1000
0100
1000
0100
,  // measure 12
1000
0001
1000
0001
1000
0001
1000
0001
,  // measure 13
0100
0001
0100
0001
0100
0001
0100
0001
,  // measure 14
1000
0001
1000
0001
1000
0001
1000
0001
,  // measure 15
1000
0010
1000
0010
1000
0001
1000
0001
,  // measure 16
0010
0001
0010
0001
1000
0001
1000
0001
,  // measure 17
1000
0100
0010
0001
1000
0100
0010
0001
,  // measure 18
1000
0100
0010
0001
1000
0100
0010
0001
,  // measure 19
1000
0010
0100
0001
1000
0010
0100
0001
,  // measure 20
1000
0010
0100
0001
1000
0010
0100
0001
,  // measure 21
1000
0001
0100
0001
1000
0010
1000
0001
,  // measure 22
0100
0001
1000
0010
1000
0001
0100
0001
,  // measure 23
0010
0001
0010
0100
1000
0100
0010
0001
,  // measure 24
0010
0100
1000
0100
0010
0001
0010
0100
,  // measure 25
1000
0010
0100
0001
1000
0010
0100
0001
,  // measure 26
1000
0010
0100
0001
1000
0010
0100
0001
,  // measure 27
1000
0000
0000
1100
0000
0000
0001
0000
0000
0101
0000
0000
1000
0000
0001
0000
,  // measure 28
0100
0000
0000
0101
0000
0000
1010
0000
0000
0000
0001
0000
1000
0000
0000
0000
,  // measure 29
0001
0000
0000
0011
0000
0000
0100
0000
0000
1010
0000
0000
0100
0000
0001
0000
,  // measure 30
1000
0000
0000
1010
0000
0000
0101
0000
0000
0000
0010
0000
0100
0000
0000
0000
,  // measure 31
0001
0000
0000
1100
0000
0000
1000
0000
0000
0101
0000
0000
0010
0000
1000
0000
,  // measure 32
0100
0000
0000
1001
0000
0000
0101
0000
0000
0000
0001
0000
1000
0000
0000
0000
,  // measure 33
0100
0000
0000
1010
0000
0000
0100
0000
0000
0011
0000
0000
0001
0000
0100
0000
,  // measure 34
0001
0000
0000
1001
0000
0000
1100
0000
0000
0000
1000
0000
0010
0000
0000
0000
,  // measure 35
1000
0000
0000
0110
0000
0000
1000
0000
0001
0000
0000
0110
0000
0000
0001
0000
,  // measure 36
1000
0000
0000
0101
0000
0000
1000
0000
0001
0000
0000
1100
0000
0000
0001
0000
,  // measure 37
1000
0000
0000
0101
0000
0000
0010
0000
1000
0000
0000
0110
0000
0000
0100
0000
,  // measure 38
0001
0000
0000
0101
0000
0000
1000
0000
0001
0000
0000
1010
0000
0000
0001
0000
,  // measure 39
0100
0001
0010
0001
0100
0001
0010
0001
,  // measure 40
0100
0010
1000
0010
0100
0010
1000
0010
,  // measure 41
0100
0010
1000
0100
0010
0100
1000
0001
,  // measure 42
0100
0010
0100
0010
0100
0010
0100
0010
0100
0010
0100
0010
0100
0010
0100
0000
,  // measure 43
1001
0000
0000
0000
;

//---------------dance-single - ----------------
#NOTES:
     dance-single:
     :
     Medium:
     8:
     0.294801,0.341289,0.000000,0.000000,0.181416,182.000000,182.000000,0.000000,0.000000,0.000000,0.000000,0.294801,0.341289,0.000000,0.000000,0.181416,182.000000,182.000000,0.000000,0.000000,0.000000,0.000000:
0000
0000
0000
0000
,
0000
0000
0000
0000
,
0000
0000
0000
0000
,
1000
0000
0000
1000
0000
0000
1000
0000
0000
1000
0000
0000
0000
0000
0000
0000
,
0001
0000
0000
0001
0000
0000
0001
0000
0000
0000
0000
0000
0000
0000
0000
0000
,
0001
0000
0000
0001
0000
0000
0001
0000
0000
0001
0000
0000
0000
0000
0000
0000
,
1000
0000
0000
1000
0000
0000
1000
0000
0000
0000
0000
0000
0000
0000
0000
0000
,
0100
0000
0000
0100
0000
0000
0100
0000
0000
0100
0000
0000
0000
0000
0000
0000
,
0100
0000
0000
0100
0000
0000
0100
0000
0000
0000
0000
0000
0000
0000
0000
0000
,
0010
0000
0000
0010
0000
0000
0010
0000
0000
0010
0000
0000
0000
0000
0000
0000
,
0010
0000
0000
0010
0000
0000
0010
0000
0000
0000
0000
0000
0000
0000
0000
0000
,
1000
0100
1000
0100
1000
0000
1000
0000
,
0001
1000
0001
1000
0001
0000
0001
0000
,
0100
0001
0100
0001
0100
0000
0100
0001
,
0001
0100
0001
0100
0001
0000
0001
0000
,
1000
0010
1000
0010
1000
0000
1000
0000
,
0010
0100
0010
0100
0010
0000
0010
0000
,
1000
0010
0100
0001
,
1000
0010
0100
0001
,
1000
0010
0100
0001
,
1000
0010
0100
0001
,
1000
0100
0010
0001
,
1000
0100
0010
0001
,
1000
0100
0010
0001
,
1000
0100
0010
0001
,
1000
0001
0100
0010
,
1000
0001
0100
0010
,
1000
0000
0000
1000
0000
0000
0001
0000
0000
0001
0000
0000
1000
0000
0000
0000
,
0100
0000
0000
0100
0000
0000
0010
0000
0000
0000
0000
0000
0000
0000
0000
0000
,
0001
0000
0000
0001
0000
0000
0100
0000
0000
0010
0000
0000
0100
0000
0000
0000
,
0001
0000
0000
0010
0000
0000
0100
0000
0000
0000
0000
0000
0000
0000
0000
0000
,
1000
0000
0000
0100
0000
0000
1000
0000
0000
0100
0000
0000
0010
0000
0000
0000
,
0001
0000
0000
0001
0000
0000
0001
0000
0000
0000
0000
0000
0000
0000
0000
0000
,
0100
0000
0000
0010
0000
0000
0100
0000
0000
0010
0000
0000
0100
0000
0000
0000
,
0001
0000
0000
0001
0000
0000
1000
0000
0000
0000
0000
0000
0000
0000
0000
0000
,
1000
0000
0000
0100
0000
0000
1000
0000
0001
0000
0000
0100
0000
0000
0001
0000
,
1000
0000
0000
0100
0000
0000
1000
0000
0001
0000
0000
0100
0000
0000
0001
0000
,
1000
0000
0000
0100
0000
0000
1000
0000
0001
0000
0000
0100
0000
0000
0001
0000
,
1000
0000
0000
0100
0000
0000
1000
0000
0001
0000
0000
0100
0000
0000
0001
0000
,
0100
0010
0100
0010
,
1000
0001
1000
0001
,
1000
0100
0010
0001
,
1000
0001
1000
0001
1000
0001
1000
0001
,
1000
0000
0000
0000
;

//---------------dance-single - ----------------
#NOTES:
     dance-single:
     :
     Easy:
     6:
     0.294801,0.316911,0.192755,0.272124,0.000000,182.000000,165.000000,17.000000,24.000000,0.000000,0.000000,0.294801,0.316911,0.192755,0.272124,0.000000,182.000000,165.000000,17.000000,24.000000,0.000000,0.000000:
0000
0000
0000
0000
,
0000
0000
0000
0000
,
0000
0000
0000
0000
,
1000
0101
1000
0001
,
0100
0001
1000
0101
,
0001
1000
0010
0100
,
0001
0100
0001
1100
,
0010
1000
0100
1000
,
0010
0100
0001
0011
,
0001
0100
0010
1000
,
0010
0100
0001
1001
,
1000
1000
1000
1000
,
0001
0001
0001
0001
,
0100
0100
0100
0100
,
0010
0010
0010
0010
,
1000
1000
1000
1000
,
0001
0001
0001
0001
,
1000
0010
0100
0001
,
1000
0010
0100
0001
,
1000
0010
0100
0001
,
1000
0010
0100
0001
,
1000
0100
0010
0001
,
1000
0100
0010
0001
,
1000
0100
0010
0001
,
1000
0100
0010
0001
,
1000
0001
0100
0010
,
1000
0001
0100
0010
,
2000
3002
0203
0320
,
0230
0320
2030
3002
,
1003
0101
0001
1100
,
1000
0101
0001
1100
,
2000
3200
0320
0032
,
2003
3002
0203
0320
,
1030
1100
0001
0101
,
1000
1100
0001
0101
,
2000
3020
0230
0302
,
0203
0320
2030
3002
,
0103
0101
0010
1010
,
0100
0101
0010
1010
,
0100
0010
0100
0010
,
1000
0001
1000
0001
,
1000
0100
0010
0001
,
1000
0001
1000
0001
1000
0001
1000
0001
,
1000
0000
0000
0000
;

//---------------dance-single - ----------------
#NOTES:
     dance-single:
     :
     Beginner:
     2:
     0.147401,0.219400,0.000000,0.000000,0.000000,91.000000,91.000000,0.000000,0.000000,0.000000,0.000000,0.147401,0.219400,0.000000,0.000000,0.000000,91.000000,91.000000,0.000000,0.000000,0.000000,0.000000:
0000
0000
0000
0000
,
0000
0000
0000
0000
,
0000
0000
0000
0000
,
1000
0000
1000
0000
,
0100
0000
1000
0000
,
0001
0000
0010
0000
,
0001
0000
0001
0000
,
0010
0000
0100
0000
,
0010
0000
0001
0000
,
0001
0000
0010
0000
,
0010
0000
0001
0000
,
1000
1000
1000
0000
,
0001
0001
0001
0000
,
0100
0100
0100
0000
,
0010
0010
0010
0000
,
1000
1000
1000
0000
,
0001
0001
0001
0000
,
1000
0000
0100
0000
,
1000
0000
0100
0000
,
0001
0000
0010
0000
,
0001
0000
0010
0000
,
1000
0000
0010
0000
,
1000
0000
0010
0000
,
0001
0000
0100
0000
,
0001
0000
0100
0000
,
1000
0000
0100
0000
,
0010
0000
0001
0000
,
1000
1000
0000
0000
,
0100
0100
0000
0000
,
0010
0010
0000
0000
,
0001
0001
0000
0000
,
1000
1000
0000
0000
,
0001
0001
0000
0000
,
0100
0100
0000
0000
,
0010
0010
0000
0000
,
1000
0000
0100
0000
,
0010
0000
0001
0000
,
1000
0000
0010
0000
,
0100
0000
0001
0000
,
0100
0000
0010
0000
,
1000
0000
0001
0000
,
0100
0100
0100
0100
,
0100
0100
0100
0100
,
0100
0000
0000
0000
;
